  0
SECTION
  2
HEADER
  9
$ACADVER
  1
AC1018
  9
$ACADMAINTVER
 70
     0
  9
$DWGCODEPAGE
  3
ANSI_1252
  9
$INSBASE
 10
0.0
 20
0.0
 30
0.0
  9
$EXTMIN
 10
-354.064990604604
 20
-146.536816685258
 30
0.0
  9
$EXTMAX
 10
173.7269274193539
 20
132.838061027537
 30
0.0
  9
$LIMMIN
 10
0.0
 20
0.0
  9
$LIMMAX
 10
12.0
 20
9.0
  9
$ORTHOMODE
 70
     0
  9
$REGENMODE
 70
     1
  9
$FILLMODE
 70
     1
  9
$QTEXTMODE
 70
     0
  9
$MIRRTEXT
 70
     1
  9
$LTSCALE
 40
1.0
  9
$ATTMODE
 70
     1
  9
$TEXTSIZE
 40
0.2
  9
$TRACEWID
 40
0.05
  9
$TEXTSTYLE
  7
Standard
  9
$CLAYER
  8
0
  9
$CELTYPE
  6
ByLayer
  9
$CECOLOR
 62
   256
  9
$CELTSCALE
 40
1.0
  9
$DISPSILH
 70
     0
  9
$DIMSCALE
 40
1.0
  9
$DIMASZ
 40
0.18
  9
$DIMEXO
 40
0.0625
  9
$DIMDLI
 40
0.38
  9
$DIMRND
 40
0.0
  9
$DIMDLE
 40
0.0
  9
$DIMEXE
 40
0.18
  9
$DIMTP
 40
0.0
  9
$DIMTM
 40
0.0
  9
$DIMTXT
 40
0.18
  9
$DIMCEN
 40
0.09
  9
$DIMTSZ
 40
0.0
  9
$DIMTOL
 70
     0
  9
$DIMLIM
 70
     0
  9
$DIMTIH
 70
     1
  9
$DIMTOH
 70
     1
  9
$DIMSE1
 70
     0
  9
$DIMSE2
 70
     0
  9
$DIMTAD
 70
     0
  9
$DIMZIN
 70
     0
  9
$DIMBLK
  1

  9
$DIMASO
 70
     1
  9
$DIMSHO
 70
     1
  9
$DIMPOST
  1

  9
$DIMAPOST
  1

  9
$DIMALT
 70
     0
  9
$DIMALTD
 70
     2
  9
$DIMALTF
 40
25.4
  9
$DIMLFAC
 40
1.0
  9
$DIMTOFL
 70
     0
  9
$DIMTVP
 40
0.0
  9
$DIMTIX
 70
     0
  9
$DIMSOXD
 70
     0
  9
$DIMSAH
 70
     0
  9
$DIMBLK1
  1

  9
$DIMBLK2
  1

  9
$DIMSTYLE
  2
Standard
  9
$DIMCLRD
 70
     0
  9
$DIMCLRE
 70
     0
  9
$DIMCLRT
 70
     0
  9
$DIMTFAC
 40
1.0
  9
$DIMGAP
 40
0.09
  9
$DIMJUST
 70
     0
  9
$DIMSD1
 70
     0
  9
$DIMSD2
 70
     0
  9
$DIMTOLJ
 70
     1
  9
$DIMTZIN
 70
     0
  9
$DIMALTZ
 70
     0
  9
$DIMALTTZ
 70
     0
  9
$DIMUPT
 70
     0
  9
$DIMDEC
 70
     4
  9
$DIMTDEC
 70
     4
  9
$DIMALTU
 70
     2
  9
$DIMALTTD
 70
     2
  9
$DIMTXSTY
  7
Standard
  9
$DIMAUNIT
 70
     0
  9
$DIMADEC
 70
     0
  9
$DIMALTRND
 40
0.0
  9
$DIMAZIN
 70
     0
  9
$DIMDSEP
 70
    46
  9
$DIMATFIT
 70
     3
  9
$DIMFRAC
 70
     0
  9
$DIMLDRBLK
  1

  9
$DIMLUNIT
 70
     2
  9
$DIMLWD
 70
    -2
  9
$DIMLWE
 70
    -2
  9
$DIMTMOVE
 70
     0
  9
$LUNITS
 70
     2
  9
$LUPREC
 70
     4
  9
$SKETCHINC
 40
0.1
  9
$FILLETRAD
 40
0.5
  9
$AUNITS
 70
     0
  9
$AUPREC
 70
     0
  9
$MENU
  1
.
  9
$ELEVATION
 40
0.0
  9
$PELEVATION
 40
0.0
  9
$THICKNESS
 40
0.0
  9
$LIMCHECK
 70
     0
  9
$CHAMFERA
 40
0.5
  9
$CHAMFERB
 40
0.5
  9
$CHAMFERC
 40
1.0
  9
$CHAMFERD
 40
0.0
  9
$SKPOLY
 70
     0
  9
$TDCREATE
 40
2454966.432140058
  9
$TDUCREATE
 40
2454966.348806724
  9
$TDUPDATE
 40
2454966.43214007
  9
$TDUUPDATE
 40
2454966.348806736
  9
$TDINDWG
 40
0.0000000116
  9
$TDUSRTIMER
 40
0.0000000116
  9
$USRTIMER
 70
     1
  9
$ANGBASE
 50
0.0
  9
$ANGDIR
 70
     0
  9
$PDMODE
 70
     0
  9
$PDSIZE
 40
0.0
  9
$PLINEWID
 40
0.0
  9
$SPLFRAME
 70
     0
  9
$SPLINETYPE
 70
     6
  9
$SPLINESEGS
 70
     8
  9
$HANDSEED
  5
29D
  9
$SURFTAB1
 70
     6
  9
$SURFTAB2
 70
     6
  9
$SURFTYPE
 70
     6
  9
$SURFU
 70
     6
  9
$SURFV
 70
     6
  9
$UCSBASE
  2

  9
$UCSNAME
  2

  9
$UCSORG
 10
0.0
 20
0.0
 30
0.0
  9
$UCSXDIR
 10
1.0
 20
0.0
 30
0.0
  9
$UCSYDIR
 10
0.0
 20
1.0
 30
0.0
  9
$UCSORTHOREF
  2

  9
$UCSORTHOVIEW
 70
     0
  9
$UCSORGTOP
 10
0.0
 20
0.0
 30
0.0
  9
$UCSORGBOTTOM
 10
0.0
 20
0.0
 30
0.0
  9
$UCSORGLEFT
 10
0.0
 20
0.0
 30
0.0
  9
$UCSORGRIGHT
 10
0.0
 20
0.0
 30
0.0
  9
$UCSORGFRONT
 10
0.0
 20
0.0
 30
0.0
  9
$UCSORGBACK
 10
0.0
 20
0.0
 30
0.0
  9
$PUCSBASE
  2

  9
$PUCSNAME
  2

  9
$PUCSORG
 10
0.0
 20
0.0
 30
0.0
  9
$PUCSXDIR
 10
1.0
 20
0.0
 30
0.0
  9
$PUCSYDIR
 10
0.0
 20
1.0
 30
0.0
  9
$PUCSORTHOREF
  2

  9
$PUCSORTHOVIEW
 70
     0
  9
$PUCSORGTOP
 10
0.0
 20
0.0
 30
0.0
  9
$PUCSORGBOTTOM
 10
0.0
 20
0.0
 30
0.0
  9
$PUCSORGLEFT
 10
0.0
 20
0.0
 30
0.0
  9
$PUCSORGRIGHT
 10
0.0
 20
0.0
 30
0.0
  9
$PUCSORGFRONT
 10
0.0
 20
0.0
 30
0.0
  9
$PUCSORGBACK
 10
0.0
 20
0.0
 30
0.0
  9
$USERI1
 70
     0
  9
$USERI2
 70
     0
  9
$USERI3
 70
     0
  9
$USERI4
 70
     0
  9
$USERI5
 70
     0
  9
$USERR1
 40
14.5
  9
$USERR2
 40
0.0
  9
$USERR3
 40
0.0
  9
$USERR4
 40
0.0
  9
$USERR5
 40
0.0
  9
$WORLDVIEW
 70
     1
  9
$SHADEDGE
 70
     3
  9
$SHADEDIF
 70
    70
  9
$TILEMODE
 70
     1
  9
$MAXACTVP
 70
    64
  9
$PINSBASE
 10
0.0
 20
0.0
 30
0.0
  9
$PLIMCHECK
 70
     0
  9
$PEXTMIN
 10
1.00000000000000E+20
 20
1.00000000000000E+20
 30
1.00000000000000E+20
  9
$PEXTMAX
 10
-1.00000000000000E+20
 20
-1.00000000000000E+20
 30
-1.00000000000000E+20
  9
$PLIMMIN
 10
0.0
 20
0.0
  9
$PLIMMAX
 10
12.0
 20
9.0
  9
$UNITMODE
 70
     0
  9
$VISRETAIN
 70
     1
  9
$PLINEGEN
 70
     0
  9
$PSLTSCALE
 70
     1
  9
$TREEDEPTH
 70
  3020
  9
$CMLSTYLE
  2
Standard
  9
$CMLJUST
 70
     0
  9
$CMLSCALE
 40
1.0
  9
$PROXYGRAPHICS
 70
     1
  9
$MEASUREMENT
 70
     1
  9
$CELWEIGHT
370
    -1
  9
$ENDCAPS
280
     0
  9
$JOINSTYLE
280
     0
  9
$LWDISPLAY
290
     0
  9
$INSUNITS
 70
     1
  9
$HYPERLINKBASE
  1

  9
$STYLESHEET
  1

  9
$XEDIT
290
     1
  9
$CEPSNTYPE
380
     0
  9
$PSTYLEMODE
290
     1
  9
$FINGERPRINTGUID
  2
{C6F41441-CD00-403B-A573-92B89A4FDAED}
  9
$VERSIONGUID
  2
{FAEB1C32-E019-11D5-929B-00C0DF256EC4}
  9
$EXTNAMES
290
     1
  9
$PSVPSCALE
 40
0.0
  9
$OLESTARTUP
290
     0
  9
$SORTENTS
280
   127
  9
$INDEXCTL
280
     0
  9
$HIDETEXT
280
     1
  9
$XCLIPFRAME
290
     0
  9
$HALOGAP
280
     0
  9
$OBSCOLOR
 70
   257
  9
$OBSLTYPE
280
     0
  9
$INTERSECTIONDISPLAY
280
     0
  9
$INTERSECTIONCOLOR
 70
   257
  9
$DIMASSOC
280
     2
  9
$PROJECTNAME
  1

  0
ENDSEC
  0
SECTION
  2
CLASSES
  0
CLASS
  1
ACDBDICTIONARYWDFLT
  2
AcDbDictionaryWithDefault
  3
ObjectDBX Classes
 90
        0
 91
        3
280
     0
281
     0
  0
ENDSEC
  0
SECTION
  2
TABLES
  0
TABLE
  2
VPORT
  5
8
330
0
100
AcDbSymbolTable
 70
     1
  0
VPORT
  5
29
330
8
100
AcDbSymbolTableRecord
100
AcDbViewportTableRecord
  2
*Active
 70
     0
 10
0.0
 20
0.0
 11
1.0
 21
1.0
 12
-90.16903159262506
 22
-6.8493778288605
 13
0.0
 23
0.0
 14
0.5
 24
0.5
 15
0.5
 25
0.5
 16
0.0
 26
0.0
 36
1.0
 17
0.0
 27
0.0
 37
0.0
 40
362.2504974961095
 41
1.60267857142857
 42
50.0
 43
0.0
 44
0.0
 50
0.0
 51
0.0
 71
     0
 72
   100
 73
     1
 74
     3
 75
     0
 76
     0
 77
     0
 78
     0
281
     0
 65
     1
110
0.0
120
0.0
130
0.0
111
1.0
121
0.0
131
0.0
112
0.0
122
1.0
132
0.0
 79
     0
146
0.0
  0
ENDTAB
  0
TABLE
  2
LTYPE
  5
5
330
0
100
AcDbSymbolTable
 70
     8
  0
LTYPE
  5
14
330
5
100
AcDbSymbolTableRecord
100
AcDbLinetypeTableRecord
  2
ByBlock
 70
     0
  3

 72
    65
 73
     0
 40
0.0
  0
LTYPE
  5
15
330
5
100
AcDbSymbolTableRecord
100
AcDbLinetypeTableRecord
  2
ByLayer
 70
     0
  3

 72
    65
 73
     0
 40
0.0
  0
LTYPE
  5
16
330
5
100
AcDbSymbolTableRecord
100
AcDbLinetypeTableRecord
  2
Continuous
 70
     0
  3
Solid line
 72
    65
 73
     0
 40
0.0
  0
LTYPE
  5
2A
330
5
100
AcDbSymbolTableRecord
100
AcDbLinetypeTableRecord
  2
DASHED
 70
     0
  3
Dashed
 72
    65
 73
     2
 40
15.0
 49
7.0
 74
     0
 49
-8.0
 74
     0
  0
LTYPE
  5
2B
330
5
100
AcDbSymbolTableRecord
100
AcDbLinetypeTableRecord
  2
DOTTED
 70
     0
  3
Dotted
 72
    65
 73
     2
 40
1.0
 49
0.0
 74
     0
 49
-1.0
 74
     0
  0
LTYPE
  5
2C
330
5
100
AcDbSymbolTableRecord
100
AcDbLinetypeTableRecord
  2
DOT_CENTER
 70
     0
  3
Dot_Center
 72
    65
 73
     4
 40
14.0
 49
12.0
 74
     0
 49
-1.0
 74
     0
 49
0.0
 74
     0
 49
-1.0
 74
     0
  0
LTYPE
  5
2D
330
5
100
AcDbSymbolTableRecord
100
AcDbLinetypeTableRecord
  2
LONG_DASHED
 70
     0
  3
Long_Dashed
 72
    65
 73
     2
 40
15.0
 49
10.0
 74
     0
 49
-5.0
 74
     0
  0
LTYPE
  5
2E
330
5
100
AcDbSymbolTableRecord
100
AcDbLinetypeTableRecord
  2
DASH_CENTER
 70
     0
  3
Dash_Center
 72
    65
 73
     4
 40
14.0
 49
11.0
 74
     0
 49
-1.0
 74
     0
 49
1.0
 74
     0
 49
-1.0
 74
     0
  0
LTYPE
  5
2F
330
5
100
AcDbSymbolTableRecord
100
AcDbLinetypeTableRecord
  2
PHANTOM
 70
     0
  3
Phantom
 72
    65
 73
     6
 40
13.0
 49
10.0
 74
     0
 49
-1.0
 74
     0
 49
0.0
 74
     0
 49
-1.0
 74
     0
 49
0.0
 74
     0
 49
-1.0
 74
     0
  0
LTYPE
  5
30
330
5
100
AcDbSymbolTableRecord
100
AcDbLinetypeTableRecord
  2
CENTER_DASH_DASH
 70
     0
  3
Center_Dash_Dash
 72
    65
 73
     6
 40
14.0
 49
9.0
 74
     0
 49
-1.0
 74
     0
 49
1.0
 74
     0
 49
-1.0
 74
     0
 49
1.0
 74
     0
 49
-1.0
 74
     0
  0
ENDTAB
  0
TABLE
  2
LAYER
  5
2
330
0
100
AcDbSymbolTable
 70
     2
  0
LAYER
  5
10
330
2
100
AcDbSymbolTableRecord
100
AcDbLayerTableRecord
  2
0
 70
     0
 62
     7
  6
Continuous
370
    -3
390
F
  0
LAYER
  5
31
330
2
100
AcDbSymbolTableRecord
100
AcDbLayerTableRecord
  2
1
 70
     0
 62
     7
  6
Continuous
370
    -3
390
F
  0
ENDTAB
  0
TABLE
  2
STYLE
  5
3
330
0
100
AcDbSymbolTable
 70
     2
  0
STYLE
  5
11
330
3
100
AcDbSymbolTableRecord
100
AcDbTextStyleTableRecord
  2
Standard
 70
     0
 40
0.0
 41
1.0
 50
0.0
 71
     0
 42
0.2
  3
txt
  4

  0
STYLE
  5
188
330
3
100
AcDbSymbolTableRecord
100
AcDbTextStyleTableRecord
  2
CONVERTER_11
 70
     0
 40
0.0
 41
0.72
 50
0.0
 71
     0
 42
0.2
  3
txt.shx
  4

  0
ENDTAB
  0
TABLE
  2
VIEW
  5
6
330
0
100
AcDbSymbolTable
 70
     0
  0
ENDTAB
  0
TABLE
  2
UCS
  5
7
330
0
100
AcDbSymbolTable
 70
     0
  0
ENDTAB
  0
TABLE
  2
APPID
  5
9
330
0
100
AcDbSymbolTable
 70
     1
  0
APPID
  5
12
330
9
100
AcDbSymbolTableRecord
100
AcDbRegAppTableRecord
  2
ACAD
 70
     0
  0
ENDTAB
  0
TABLE
  2
DIMSTYLE
  5
A
330
0
100
AcDbSymbolTable
 70
    24
100
AcDbDimStyleTable
  0
DIMSTYLE
105
27
330
A
100
AcDbSymbolTableRecord
100
AcDbDimStyleTableRecord
  2
Standard
 70
     0
340
11
  0
DIMSTYLE
105
193
102
{ACAD_REACTORS
330
194
102
}
330
A
100
AcDbSymbolTableRecord
100
AcDbDimStyleTableRecord
  2
ME10_DIM_10
 70
     0
  3
{\Fgdt;n}<>
 41
7.0
 42
0.0
 44
2.0
 48
-7.0
 71
     1
 73
     0
 74
     0
 77
     1
 78
     8
140
7.0
146
0.6
147
4.0
172
     1
173
     1
176
     2
177
     2
178
     3
271
     3
272
     0
340
188
  0
DIMSTYLE
105
1A0
102
{ACAD_REACTORS
330
1A1
102
}
330
A
100
AcDbSymbolTableRecord
100
AcDbDimStyleTableRecord
  2
ME10_DIM_11
 70
     0
 41
7.0
 42
0.0
 44
2.0
 73
     0
 74
     0
 77
     1
 78
     8
140
7.0
147
4.0
172
     1
173
     1
176
     2
177
     2
178
     3
271
     3
340
188
  0
DIMSTYLE
105
1AD
102
{ACAD_REACTORS
330
1AE
102
}
330
A
100
AcDbSymbolTableRecord
100
AcDbDimStyleTableRecord
  2
ME10_DIM_12
 70
     0
 41
7.0
 42
0.0
 44
2.0
 73
     0
 74
     0
 77
     1
 78
     8
140
7.0
147
4.0
172
     1
173
     1
176
     2
177
     2
178
     3
271
     3
340
188
  0
DIMSTYLE
105
1B8
102
{ACAD_REACTORS
330
1B9
102
}
330
A
100
AcDbSymbolTableRecord
100
AcDbDimStyleTableRecord
  2
ME10_DIM_13
 70
     0
 41
7.0
 42
0.0
 44
2.0
 73
     0
 74
     0
 77
     1
 78
     8
140
7.0
147
4.0
172
     1
173
     1
176
     2
177
     2
178
     3
271
     3
340
188
  0
DIMSTYLE
105
1C3
102
{ACAD_REACTORS
330
1C4
102
}
330
A
100
AcDbSymbolTableRecord
100
AcDbDimStyleTableRecord
  2
ME10_DIM_14
 70
     0
 41
7.0
 42
0.0
 44
2.0
 73
     0
 74
     0
 77
     1
 78
     8
140
7.0
147
4.0
172
     1
173
     1
176
     2
177
     2
178
     3
271
     3
340
188
  0
DIMSTYLE
105
1CE
102
{ACAD_REACTORS
330
1CF
102
}
330
A
100
AcDbSymbolTableRecord
100
AcDbDimStyleTableRecord
  2
ME10_DIM_15
 70
     0
 41
7.0
 42
0.0
 44
2.0
 73
     0
 74
     0
 77
     1
 78
     8
140
7.0
147
4.0
172
     1
173
     1
176
     2
177
     2
178
     3
271
     3
340
188
  0
DIMSTYLE
105
1D9
102
{ACAD_REACTORS
330
1DA
102
}
330
A
100
AcDbSymbolTableRecord
100
AcDbDimStyleTableRecord
  2
ME10_DIM_16
 70
     0
  3
{\Fgdt;n}<>
 41
7.0
 42
0.0
 44
2.0
 47
7.0
 71
     1
 73
     0
 74
     0
 77
     1
 78
     8
140
7.0
146
0.6
147
4.0
172
     1
173
     1
176
     2
177
     2
178
     3
271
     3
272
     0
340
188
  0
DIMSTYLE
105
1E4
102
{ACAD_REACTORS
330
1E5
102
}
330
A
100
AcDbSymbolTableRecord
100
AcDbDimStyleTableRecord
  2
ME10_DIM_17
 70
     0
  3
{\Fgdt;n}<>
 41
7.0
 42
0.0
 44
2.0
 47
7.0
 71
     1
 73
     0
 74
     0
 77
     1
 78
     8
140
7.0
146
0.6
147
4.0
172
     1
173
     1
176
     2
177
     2
178
     3
271
     3
272
     0
340
188
  0
DIMSTYLE
105
1F0
102
{ACAD_REACTORS
330
1F1
102
}
330
A
100
AcDbSymbolTableRecord
100
AcDbDimStyleTableRecord
  2
ME10_DIM_18
 70
     0
  3
{\Fgdt;n}<>
 41
7.0
 42
0.0
 44
2.0
 48
-6.0
 71
     1
 73
     0
 74
     0
 77
     1
 78
     8
140
7.0
146
0.6
147
4.0
172
     1
173
     1
176
     2
177
     2
178
     3
271
     3
272
     0
340
188
  0
DIMSTYLE
105
1FC
102
{ACAD_REACTORS
330
1FD
102
}
330
A
100
AcDbSymbolTableRecord
100
AcDbDimStyleTableRecord
  2
ME10_DIM_19
 70
     0
  3
{\Fgdt;n}<>
 41
7.0
 42
0.0
 44
2.0
 48
-6.0
 71
     1
 73
     0
 74
     0
 77
     1
 78
     8
140
7.0
146
0.6
147
4.0
172
     1
173
     1
176
     2
177
     2
178
     3
271
     3
272
     0
340
188
  0
DIMSTYLE
105
209
102
{ACAD_REACTORS
330
20A
102
}
330
A
100
AcDbSymbolTableRecord
100
AcDbDimStyleTableRecord
  2
ME10_DIM_20
 70
     0
 41
7.0
 42
0.0
 44
2.0
 73
     0
 74
     0
 77
     1
 78
     8
140
7.0
147
4.0
172
     1
173
     1
176
     2
177
     2
178
     3
271
     3
340
188
  0
DIMSTYLE
105
216
102
{ACAD_REACTORS
330
217
102
}
330
A
100
AcDbSymbolTableRecord
100
AcDbDimStyleTableRecord
  2
ME10_DIM_21
 70
     0
 41
7.0
 42
0.0
 44
2.0
 73
     0
 74
     0
 77
     1
 78
     8
140
7.0
147
4.0
172
     1
173
     1
176
     2
177
     2
178
     3
271
     3
340
188
  0
DIMSTYLE
105
223
102
{ACAD_REACTORS
330
224
102
}
330
A
100
AcDbSymbolTableRecord
100
AcDbDimStyleTableRecord
  2
ME10_DIM_22
 70
     0
 41
7.0
 42
0.0
 44
2.0
 73
     0
 74
     0
 77
     1
 78
     8
140
7.0
147
4.0
172
     1
173
     1
176
     2
177
     2
178
     3
271
     3
340
188
  0
DIMSTYLE
105
230
102
{ACAD_REACTORS
330
231
102
}
330
A
100
AcDbSymbolTableRecord
100
AcDbDimStyleTableRecord
  2
ME10_DIM_23
 70
     0
 41
7.0
 42
0.0
 44
2.0
 73
     0
 74
     0
 77
     1
 78
     8
140
7.0
147
4.0
172
     1
173
     1
176
     2
177
     2
178
     3
271
     3
340
188
  0
DIMSTYLE
105
23B
102
{ACAD_REACTORS
330
23C
102
}
330
A
100
AcDbSymbolTableRecord
100
AcDbDimStyleTableRecord
  2
ME10_DIM_24
 70
     0
 41
7.0
 42
0.0
 44
2.0
 73
     0
 74
     0
 77
     1
 78
     8
140
7.0
147
4.0
172
     1
173
     1
176
     2
177
     2
178
     3
271
     3
340
188
  0
DIMSTYLE
105
248
102
{ACAD_REACTORS
330
249
102
}
330
A
100
AcDbSymbolTableRecord
100
AcDbDimStyleTableRecord
  2
ME10_DIM_25
 70
     0
 41
7.0
 42
0.0
 44
2.0
 73
     0
 74
     0
 77
     1
 78
     8
140
7.0
147
4.0
172
     1
173
     1
176
     2
177
     2
178
     3
271
     3
340
188
  0
DIMSTYLE
105
255
102
{ACAD_REACTORS
330
256
102
}
330
A
100
AcDbSymbolTableRecord
100
AcDbDimStyleTableRecord
  2
ME10_DIM_26
 70
     0
 41
7.0
 42
0.0
 44
2.0
 73
     0
 74
     0
 77
     1
 78
     8
140
7.0
147
4.0
172
     1
173
     1
176
     2
177
     2
178
     3
271
     3
340
188
  0
DIMSTYLE
105
260
102
{ACAD_REACTORS
330
261
102
}
330
A
100
AcDbSymbolTableRecord
100
AcDbDimStyleTableRecord
  2
ME10_DIM_27
 70
     0
 41
7.0
 42
0.0
 44
2.0
 73
     0
 74
     0
 77
     1
 78
     8
140
7.0
147
4.0
172
     1
173
     1
176
     2
177
     2
178
     3
271
     3
340
188
  0
DIMSTYLE
105
26D
102
{ACAD_REACTORS
330
26E
102
}
330
A
100
AcDbSymbolTableRecord
100
AcDbDimStyleTableRecord
  2
ME10_DIM_28
 70
     0
 41
7.0
 42
0.0
 44
2.0
 73
     0
 74
     0
 77
     1
 78
     8
140
7.0
147
4.0
172
     1
173
     1
176
     2
177
     2
178
     3
271
     3
340
188
  0
DIMSTYLE
105
278
102
{ACAD_REACTORS
330
279
102
}
330
A
100
AcDbSymbolTableRecord
100
AcDbDimStyleTableRecord
  2
ME10_DIM_29
 70
     0
 41
7.0
 42
0.0
 44
2.0
 73
     0
 74
     0
 77
     1
 78
     8
140
7.0
147
4.0
172
     1
173
     1
176
     2
177
     2
178
     3
271
     3
340
188
  0
DIMSTYLE
105
283
102
{ACAD_REACTORS
330
284
102
}
330
A
100
AcDbSymbolTableRecord
100
AcDbDimStyleTableRecord
  2
ME10_DIM_30
 70
     0
 41
7.0
 42
0.0
 44
2.0
 73
     0
 74
     0
 77
     1
 78
     8
140
7.0
147
4.0
172
     1
173
     1
176
     2
177
     2
178
     3
271
     3
340
188
  0
DIMSTYLE
105
290
102
{ACAD_REACTORS
330
291
102
}
330
A
100
AcDbSymbolTableRecord
100
AcDbDimStyleTableRecord
  2
ME10_DIM_31
 70
     0
 41
7.0
 42
0.0
 44
2.0
 73
     0
 74
     0
 77
     1
 78
     8
140
7.0
147
4.0
172
     1
173
     1
176
     2
177
     2
178
     3
271
     3
340
188
  0
DIMSTYLE
105
29B
102
{ACAD_REACTORS
330
29C
102
}
330
A
100
AcDbSymbolTableRecord
100
AcDbDimStyleTableRecord
  2
ME10_DIM_32
 70
     0
 41
7.0
 42
0.0
 44
2.0
 73
     0
 74
     0
 77
     1
 78
     8
140
7.0
147
4.0
172
     1
173
     1
176
     2
177
     2
178
     3
271
     3
340
188
  0
ENDTAB
  0
TABLE
  2
BLOCK_RECORD
  5
1
330
0
100
AcDbSymbolTable
 70
    25
  0
BLOCK_RECORD
  5
1F
330
1
100
AcDbSymbolTableRecord
100
AcDbBlockTableRecord
  2
*Model_Space
340
22
  0
BLOCK_RECORD
  5
1B
330
1
100
AcDbSymbolTableRecord
100
AcDbBlockTableRecord
  2
*Paper_Space
340
1E
  0
BLOCK_RECORD
  5
23
330
1
100
AcDbSymbolTableRecord
100
AcDbBlockTableRecord
  2
*Paper_Space0
340
26
  0
BLOCK_RECORD
  5
32
330
1
100
AcDbSymbolTableRecord
100
AcDbBlockTableRecord
  2
TOP
340
0
102
{BLKREFS
331
35
102
}
  0
BLOCK_RECORD
  5
18A
330
1
100
AcDbSymbolTableRecord
100
AcDbBlockTableRecord
  2
*D2
340
0
  0
BLOCK_RECORD
  5
195
330
1
100
AcDbSymbolTableRecord
100
AcDbBlockTableRecord
  2
*D3
340
0
  0
BLOCK_RECORD
  5
1A2
330
1
100
AcDbSymbolTableRecord
100
AcDbBlockTableRecord
  2
*D4
340
0
  0
BLOCK_RECORD
  5
1AF
330
1
100
AcDbSymbolTableRecord
100
AcDbBlockTableRecord
  2
*D5
340
0
  0
BLOCK_RECORD
  5
1BA
330
1
100
AcDbSymbolTableRecord
100
AcDbBlockTableRecord
  2
*D6
340
0
  0
BLOCK_RECORD
  5
1C5
330
1
100
AcDbSymbolTableRecord
100
AcDbBlockTableRecord
  2
*D7
340
0
  0
BLOCK_RECORD
  5
1D0
330
1
100
AcDbSymbolTableRecord
100
AcDbBlockTableRecord
  2
*D8
340
0
  0
BLOCK_RECORD
  5
1DB
330
1
100
AcDbSymbolTableRecord
100
AcDbBlockTableRecord
  2
*D9
340
0
  0
BLOCK_RECORD
  5
1E6
330
1
100
AcDbSymbolTableRecord
100
AcDbBlockTableRecord
  2
*D10
340
0
  0
BLOCK_RECORD
  5
1F2
330
1
100
AcDbSymbolTableRecord
100
AcDbBlockTableRecord
  2
*D11
340
0
  0
BLOCK_RECORD
  5
1FE
330
1
100
AcDbSymbolTableRecord
100
AcDbBlockTableRecord
  2
*D12
340
0
  0
BLOCK_RECORD
  5
20B
330
1
100
AcDbSymbolTableRecord
100
AcDbBlockTableRecord
  2
*D13
340
0
  0
BLOCK_RECORD
  5
218
330
1
100
AcDbSymbolTableRecord
100
AcDbBlockTableRecord
  2
*D14
340
0
  0
BLOCK_RECORD
  5
225
330
1
100
AcDbSymbolTableRecord
100
AcDbBlockTableRecord
  2
*D15
340
0
  0
BLOCK_RECORD
  5
232
330
1
100
AcDbSymbolTableRecord
100
AcDbBlockTableRecord
  2
*D16
340
0
  0
BLOCK_RECORD
  5
23D
330
1
100
AcDbSymbolTableRecord
100
AcDbBlockTableRecord
  2
*D17
340
0
  0
BLOCK_RECORD
  5
24A
330
1
100
AcDbSymbolTableRecord
100
AcDbBlockTableRecord
  2
*D18
340
0
  0
BLOCK_RECORD
  5
257
330
1
100
AcDbSymbolTableRecord
100
AcDbBlockTableRecord
  2
*D19
340
0
  0
BLOCK_RECORD
  5
262
330
1
100
AcDbSymbolTableRecord
100
AcDbBlockTableRecord
  2
*D20
340
0
  0
BLOCK_RECORD
  5
26F
330
1
100
AcDbSymbolTableRecord
100
AcDbBlockTableRecord
  2
*D21
340
0
  0
BLOCK_RECORD
  5
27A
330
1
100
AcDbSymbolTableRecord
100
AcDbBlockTableRecord
  2
*D22
340
0
  0
BLOCK_RECORD
  5
285
330
1
100
AcDbSymbolTableRecord
100
AcDbBlockTableRecord
  2
*D23
340
0
  0
BLOCK_RECORD
  5
292
330
1
100
AcDbSymbolTableRecord
100
AcDbBlockTableRecord
  2
*D24
340
0
  0
ENDTAB
  0
ENDSEC
  0
SECTION
  2
BLOCKS
  0
BLOCK
  5
20
330
1F
100
AcDbEntity
  8
0
100
AcDbBlockBegin
  2
*Model_Space
 70
     0
 71
     0
 10
0.0
 20
0.0
 30
0.0
  3
*Model_Space
  1

  0
ENDBLK
  5
21
330
1F
100
AcDbEntity
  8
0
100
AcDbBlockEnd
  0
BLOCK
  5
1C
330
1B
100
AcDbEntity
 67
     1
  8
0
100
AcDbBlockBegin
  2
*Paper_Space
 70
     0
 71
     0
 10
0.0
 20
0.0
 30
0.0
  3
*Paper_Space
  1

  0
ENDBLK
  5
1D
330
1B
100
AcDbEntity
 67
     1
  8
0
100
AcDbBlockEnd
  0
BLOCK
  5
24
330
23
100
AcDbEntity
  8
0
100
AcDbBlockBegin
  2
*Paper_Space0
 70
     0
 71
     0
 10
0.0
 20
0.0
 30
0.0
  3
*Paper_Space0
  1

  0
ENDBLK
  5
25
330
23
100
AcDbEntity
  8
0
100
AcDbBlockEnd
  0
BLOCK
  5
33
330
32
100
AcDbEntity
  8
0
100
AcDbBlockBegin
  2
TOP
 70
     0
 71
     0
 10
-271.6530725806461
 20
-140.9664999999998
 30
0.0
  3
TOP
  1

  0
POINT
  5
36
330
32
100
AcDbEntity
  8
1
 62
     3
 60
     1
100
AcDbPoint
 10
21.2269274193539
 20
-75.59685483870938
 30
0.0
  0
POINT
  5
37
330
32
100
AcDbEntity
  8
1
 62
     3
 60
     1
100
AcDbPoint
 10
21.2269274193539
 20
-77.59685483870938
 30
0.0
  0
POINT
  5
38
330
32
100
AcDbEntity
  8
1
 62
     3
 60
     1
100
AcDbPoint
 10
61.2269274193539
 20
-77.59685483870938
 30
0.0
  0
POINT
  5
39
330
32
100
AcDbEntity
  8
1
 62
     3
 60
     1
100
AcDbPoint
 10
25.2269274193539
 20
-77.59685483870938
 30
0.0
  0
POINT
  5
3A
330
32
100
AcDbEntity
  8
1
 62
     3
 60
     1
100
AcDbPoint
 10
57.2269274193539
 20
-77.59685483870938
 30
0.0
  0
POINT
  5
3B
330
32
100
AcDbEntity
  8
1
 62
     3
 60
     1
100
AcDbPoint
 10
-21.2730725806461
 20
-62.59685483870938
 30
0.0
  0
POINT
  5
3C
330
32
100
AcDbEntity
  8
1
 62
     3
 60
     1
100
AcDbPoint
 10
103.7269274193539
 20
-62.59685483870938
 30
0.0
  0
POINT
  5
3D
330
32
100
AcDbEntity
  8
1
 62
     3
 60
     1
100
AcDbPoint
 10
103.7269274193539
 20
-75.59685483870938
 30
0.0
  0
POINT
  5
3E
330
32
100
AcDbEntity
  8
1
 62
     3
 60
     1
100
AcDbPoint
 10
-21.2730725806461
 20
-75.59685483870938
 30
0.0
  0
POINT
  5
3F
330
32
100
AcDbEntity
  8
1
 62
     3
 60
     1
100
AcDbPoint
 10
-28.7730725806461
 20
-62.59685483870938
 30
0.0
  0
POINT
  5
40
330
32
100
AcDbEntity
  8
1
 62
     3
 60
     1
100
AcDbPoint
 10
-28.7730725806461
 20
-48.59685483870938
 30
0.0
  0
POINT
  5
41
330
32
100
AcDbEntity
  8
1
 62
     3
 60
     1
100
AcDbPoint
 10
111.2269274193539
 20
-48.59685483870938
 30
0.0
  0
POINT
  5
42
330
32
100
AcDbEntity
  8
1
 62
     3
 60
     1
100
AcDbPoint
 10
111.2269274193539
 20
-62.59685483870938
 30
0.0
  0
POINT
  5
43
330
32
100
AcDbEntity
  8
1
 62
     3
 60
     1
100
AcDbPoint
 10
-21.2730725806461
 20
-48.59685483870938
 30
0.0
  0
POINT
  5
44
330
32
100
AcDbEntity
  8
1
 62
     3
 60
     1
100
AcDbPoint
 10
103.7269274193539
 20
-48.59685483870938
 30
0.0
  0
POINT
  5
45
330
32
100
AcDbEntity
  8
1
 62
     3
 60
     1
100
AcDbPoint
 10
-21.2730725806461
 20
29.40314516129062
 30
0.0
  0
POINT
  5
46
330
32
100
AcDbEntity
  8
1
 62
     3
 60
     1
100
AcDbPoint
 10
152.3269274193539
 20
-62.59685483870938
 30
0.0
  0
POINT
  5
47
330
32
100
AcDbEntity
  8
1
 62
     3
 60
     1
100
AcDbPoint
 10
152.3269274193539
 20
52.40314516129062
 30
0.0
  0
POINT
  5
48
330
32
100
AcDbEntity
  8
1
 62
     3
 60
     1
100
AcDbPoint
 10
171.7269274193539
 20
52.40314516129062
 30
0.0
  0
POINT
  5
49
330
32
100
AcDbEntity
  8
1
 62
     3
 60
     1
100
AcDbPoint
 10
171.7269274193539
 20
-62.59685483870938
 30
0.0
  0
POINT
  5
4A
330
32
100
AcDbEntity
  8
1
 62
     3
 60
     1
100
AcDbPoint
 10
171.7269274193539
 20
40.40314516129062
 30
0.0
  0
POINT
  5
4B
330
32
100
AcDbEntity
  8
1
 62
     3
 60
     1
100
AcDbPoint
 10
171.7269274193539
 20
-50.59685483870938
 30
0.0
  0
POINT
  5
4C
330
32
100
AcDbEntity
  8
1
 62
     3
 60
     1
100
AcDbPoint
 10
119.2269274193539
 20
-50.59685483870938
 30
0.0
  0
POINT
  5
4D
330
32
100
AcDbEntity
  8
1
 62
     3
 60
     1
100
AcDbPoint
 10
111.2269274193539
 20
-50.59685483870938
 30
0.0
  0
POINT
  5
4E
330
32
100
AcDbEntity
  8
1
 62
     3
 60
     1
100
AcDbPoint
 10
90.0002062558794
 20
35.0614593240564
 30
0.0
  0
POINT
  5
4F
330
32
100
AcDbEntity
  8
1
 62
     3
 60
     1
100
AcDbPoint
 10
84.3666010189604
 20
41.913141368958
 30
0.0
  0
POINT
  5
50
330
32
100
AcDbEntity
  8
1
 62
     3
 60
     1
100
AcDbPoint
 10
108.423617976615
 20
25.40314516129062
 30
0.0
  0
POINT
  5
51
330
32
100
AcDbEntity
  8
1
 62
     3
 60
     1
100
AcDbPoint
 10
108.271358375617
 20
19.40314516129062
 30
0.0
  0
POINT
  5
52
330
32
100
AcDbEntity
  8
1
 62
     3
 60
     1
100
AcDbPoint
 10
108.423617976615
 20
-28.59685483870938
 30
0.0
  0
POINT
  5
53
330
32
100
AcDbEntity
  8
1
 62
     3
 60
     1
100
AcDbPoint
 10
108.880396779608
 20
-34.59685483870938
 30
0.0
  0
POINT
  5
54
330
32
100
AcDbEntity
  8
1
 62
     3
 60
     1
100
AcDbPoint
 10
156.409950291087
 20
52.40314516129062
 30
0.0
  0
POINT
  5
55
330
32
100
AcDbEntity
  8
1
 62
     3
 60
     1
100
AcDbPoint
 10
61.2269274193539
 20
-75.59685483870938
 30
0.0
  0
POINT
  5
56
330
32
100
AcDbEntity
  8
1
 62
     3
 60
     1
100
AcDbPoint
 10
-195.6333989810396
 20
41.913141368958
 30
0.0
  0
POINT
  5
57
330
32
100
AcDbEntity
  8
1
 62
     3
 60
     1
100
AcDbPoint
 10
-258.7730725806461
 20
-75.59685483870938
 30
0.0
  0
POINT
  5
58
330
32
100
AcDbEntity
  8
1
 62
     3
 60
     1
100
AcDbPoint
 10
-254.7730725806461
 20
-75.59685483870938
 30
0.0
  0
POINT
  5
59
330
32
100
AcDbEntity
  8
1
 62
     3
 60
     1
100
AcDbPoint
 10
-222.7730725806461
 20
-75.59685483870938
 30
0.0
  0
POINT
  5
5A
330
32
100
AcDbEntity
  8
1
 62
     3
 60
     1
100
AcDbPoint
 10
-222.7730725806461
 20
-77.59685483870938
 30
0.0
  0
POINT
  5
5B
330
32
100
AcDbEntity
  8
1
 62
     3
 60
     1
100
AcDbPoint
 10
-258.7730725806461
 20
-77.59685483870938
 30
0.0
  0
POINT
  5
5C
330
32
100
AcDbEntity
  8
1
 62
     3
 60
     1
100
AcDbPoint
 10
-254.7730725806461
 20
-77.59685483870938
 30
0.0
  0
POINT
  5
5D
330
32
100
AcDbEntity
  8
1
 62
     3
 60
     1
100
AcDbPoint
 10
-218.7730725806461
 20
-77.59685483870938
 30
0.0
  0
POINT
  5
5E
330
32
100
AcDbEntity
  8
1
 62
     3
 60
     1
100
AcDbPoint
 10
-176.2730725806461
 20
-75.59685483870938
 30
0.0
  0
POINT
  5
5F
330
32
100
AcDbEntity
  8
1
 62
     3
 60
     1
100
AcDbPoint
 10
-301.2730725806461
 20
-75.59685483870938
 30
0.0
  0
POINT
  5
60
330
32
100
AcDbEntity
  8
1
 62
     3
 60
     1
100
AcDbPoint
 10
-301.2730725806461
 20
29.40314516129062
 30
0.0
  0
POINT
  5
61
330
32
100
AcDbEntity
  8
1
 62
     3
 60
     1
100
AcDbPoint
 10
-176.2730725806461
 20
-48.59685483870938
 30
0.0
  0
POINT
  5
62
330
32
100
AcDbEntity
  8
1
 62
     3
 60
     1
100
AcDbPoint
 10
-168.7730725806461
 20
-48.59685483870938
 30
0.0
  0
POINT
  5
63
330
32
100
AcDbEntity
  8
1
 62
     3
 60
     1
100
AcDbPoint
 10
-301.2730725806461
 20
-48.59685483870938
 30
0.0
  0
POINT
  5
64
330
32
100
AcDbEntity
  8
1
 62
     3
 60
     1
100
AcDbPoint
 10
-308.7730725806461
 20
-48.59685483870938
 30
0.0
  0
POINT
  5
65
330
32
100
AcDbEntity
  8
1
 62
     3
 60
     1
100
AcDbPoint
 10
-301.2730725806461
 20
-62.59685483870938
 30
0.0
  0
POINT
  5
66
330
32
100
AcDbEntity
  8
1
 62
     3
 60
     1
100
AcDbPoint
 10
-176.2730725806461
 20
-62.59685483870938
 30
0.0
  0
POINT
  5
67
330
32
100
AcDbEntity
  8
1
 62
     3
 60
     1
100
AcDbPoint
 10
-308.7730725806461
 20
-62.59685483870938
 30
0.0
  0
POINT
  5
68
330
32
100
AcDbEntity
  8
1
 62
     3
 60
     1
100
AcDbPoint
 10
-108.2730725806461
 20
-50.59685483870938
 30
0.0
  0
POINT
  5
69
330
32
100
AcDbEntity
  8
1
 62
     3
 60
     1
100
AcDbPoint
 10
-108.2730725806461
 20
-62.59685483870938
 30
0.0
  0
POINT
  5
6A
330
32
100
AcDbEntity
  8
1
 62
     3
 60
     1
100
AcDbPoint
 10
-108.2730725806461
 20
40.40314516129062
 30
0.0
  0
POINT
  5
6B
330
32
100
AcDbEntity
  8
1
 62
     3
 60
     1
100
AcDbPoint
 10
-160.7730725806461
 20
-50.59685483870938
 30
0.0
  0
POINT
  5
6C
330
32
100
AcDbEntity
  8
1
 62
     3
 60
     1
100
AcDbPoint
 10
-168.7730725806461
 20
-62.59685483870938
 30
0.0
  0
POINT
  5
6D
330
32
100
AcDbEntity
  8
1
 62
     3
 60
     1
100
AcDbPoint
 10
-168.7730725806461
 20
-50.59685483870938
 30
0.0
  0
POINT
  5
6E
330
32
100
AcDbEntity
  8
1
 62
     3
 60
     1
100
AcDbPoint
 10
-189.9997937441206
 20
35.0614593240564
 30
0.0
  0
POINT
  5
6F
330
32
100
AcDbEntity
  8
1
 62
     3
 60
     1
100
AcDbPoint
 10
-171.576382023385
 20
25.40314516129062
 30
0.0
  0
POINT
  5
70
330
32
100
AcDbEntity
  8
1
 62
     3
 60
     1
100
AcDbPoint
 10
-171.728641624383
 20
19.40314516129062
 30
0.0
  0
POINT
  5
71
330
32
100
AcDbEntity
  8
1
 62
     3
 60
     1
100
AcDbPoint
 10
-171.576382023385
 20
-28.59685483870938
 30
0.0
  0
POINT
  5
72
330
32
100
AcDbEntity
  8
1
 62
     3
 60
     1
100
AcDbPoint
 10
-171.119603220392
 20
-34.59685483870938
 30
0.0
  0
POINT
  5
73
330
32
100
AcDbEntity
  8
1
 62
     3
 60
     1
100
AcDbPoint
 10
-123.590049708913
 20
52.40314516129062
 30
0.0
  0
POINT
  5
74
330
32
100
AcDbEntity
  8
1
 62
     3
 60
     1
100
AcDbPoint
 10
-127.6730725806461
 20
52.40314516129062
 30
0.0
  0
POINT
  5
75
330
32
100
AcDbEntity
  8
1
 62
     3
 60
     1
100
AcDbPoint
 10
-108.2730725806461
 20
52.40314516129062
 30
0.0
  0
POINT
  5
76
330
32
100
AcDbEntity
  8
1
 62
     3
 60
     1
100
AcDbPoint
 10
-127.6730725806461
 20
-62.59685483870938
 30
0.0
  0
POINT
  5
77
330
32
100
AcDbEntity
  8
1
 62
     3
 60
     1
100
AcDbPoint
 10
21.2269274193539
 20
47.40314516129062
 30
0.0
  0
POINT
  5
78
330
32
100
AcDbEntity
  8
1
 62
     3
 60
     1
100
AcDbPoint
 10
21.2269274193539
 20
49.40314516129062
 30
0.0
  0
POINT
  5
79
330
32
100
AcDbEntity
  8
1
 62
     3
 60
     1
100
AcDbPoint
 10
61.2269274193539
 20
49.40314516129062
 30
0.0
  0
POINT
  5
7A
330
32
100
AcDbEntity
  8
1
 62
     3
 60
     1
100
AcDbPoint
 10
61.2269274193539
 20
47.40314516129062
 30
0.0
  0
POINT
  5
7B
330
32
100
AcDbEntity
  8
1
 62
     3
 60
     1
100
AcDbPoint
 10
23.2269274193539
 20
55.90314516129062
 30
0.0
  0
POINT
  5
7C
330
32
100
AcDbEntity
  8
1
 62
     3
 60
     1
100
AcDbPoint
 10
59.2269274193539
 20
55.90314516129062
 30
0.0
  0
POINT
  5
7D
330
32
100
AcDbEntity
  8
1
 62
     3
 60
     1
100
AcDbPoint
 10
22.2269274193539
 20
49.40314516129062
 30
0.0
  0
POINT
  5
7E
330
32
100
AcDbEntity
  8
1
 62
     3
 60
     1
100
AcDbPoint
 10
22.2269274193539
 20
55.90314516129062
 30
0.0
  0
POINT
  5
7F
330
32
100
AcDbEntity
  8
1
 62
     3
 60
     1
100
AcDbPoint
 10
60.2269274193539
 20
55.90314516129062
 30
0.0
  0
POINT
  5
80
330
32
100
AcDbEntity
  8
1
 62
     3
 60
     1
100
AcDbPoint
 10
60.2269274193539
 20
49.40314516129062
 30
0.0
  0
POINT
  5
81
330
32
100
AcDbEntity
  8
1
 62
     3
 60
     1
100
AcDbPoint
 10
25.2269274193539
 20
81.90314516129062
 30
0.0
  0
POINT
  5
82
330
32
100
AcDbEntity
  8
1
 62
     3
 60
     1
100
AcDbPoint
 10
25.2269274193539
 20
47.40314516129062
 30
0.0
  0
POINT
  5
83
330
32
100
AcDbEntity
  8
1
 62
     3
 60
     1
100
AcDbPoint
 10
57.2269274193539
 20
81.90314516129062
 30
0.0
  0
POINT
  5
84
330
32
100
AcDbEntity
  8
1
 62
     3
 60
     1
100
AcDbPoint
 10
57.2269274193539
 20
47.40314516129062
 30
0.0
  0
POINT
  5
85
330
32
100
AcDbEntity
  8
1
 62
     3
 60
     1
100
AcDbPoint
 10
59.2269274193539
 20
79.90314516129062
 30
0.0
  0
POINT
  5
86
330
32
100
AcDbEntity
  8
1
 62
     3
 60
     1
100
AcDbPoint
 10
58.2269274193539
 20
81.90314516129062
 30
0.0
  0
POINT
  5
87
330
32
100
AcDbEntity
  8
1
 62
     3
 60
     1
100
AcDbPoint
 10
23.2269274193539
 20
79.90314516129062
 30
0.0
  0
POINT
  5
88
330
32
100
AcDbEntity
  8
1
 62
     3
 60
     1
100
AcDbPoint
 10
24.2269274193539
 20
81.90314516129062
 30
0.0
  0
POINT
  5
89
330
32
100
AcDbEntity
  8
1
 62
     3
 60
     1
100
AcDbPoint
 10
-258.7730725806461
 20
47.40314516129062
 30
0.0
  0
POINT
  5
8A
330
32
100
AcDbEntity
  8
1
 62
     3
 60
     1
100
AcDbPoint
 10
-258.7730725806461
 20
49.40314516129062
 30
0.0
  0
POINT
  5
8B
330
32
100
AcDbEntity
  8
1
 62
     3
 60
     1
100
AcDbPoint
 10
-218.7730725806461
 20
49.40314516129062
 30
0.0
  0
POINT
  5
8C
330
32
100
AcDbEntity
  8
1
 62
     3
 60
     1
100
AcDbPoint
 10
-218.7730725806461
 20
47.40314516129064
 30
0.0
  0
POINT
  5
8D
330
32
100
AcDbEntity
  8
1
 62
     3
 60
     1
100
AcDbPoint
 10
-222.773072580646
 20
49.40314516129062
 30
0.0
  0
POINT
  5
8E
330
32
100
AcDbEntity
  8
1
 62
     3
 60
     1
100
AcDbPoint
 10
-222.773072580646
 20
99.40314516129062
 30
0.0
  0
POINT
  5
8F
330
32
100
AcDbEntity
  8
1
 62
     3
 60
     1
100
AcDbPoint
 10
-254.773072580646
 20
99.40314516129062
 30
0.0
  0
POINT
  5
90
330
32
100
AcDbEntity
  8
1
 62
     3
 60
     1
100
AcDbPoint
 10
-254.773072580646
 20
49.40314516129062
 30
0.0
  0
POINT
  5
91
330
32
100
AcDbEntity
  8
1
 62
     3
 60
     1
100
AcDbPoint
 10
-254.773072580646
 20
-127.5968548387094
 30
0.0
  0
POINT
  5
92
330
32
100
AcDbEntity
  8
1
 62
     3
 60
     1
100
AcDbPoint
 10
-222.773072580646
 20
-127.5968548387094
 30
0.0
  0
POINT
  5
93
330
32
100
AcDbEntity
  8
1
 62
     3
 60
     1
100
AcDbPoint
 10
-243.773072580646
 20
91.90314516129062
 30
0.0
  0
POINT
  5
94
330
32
100
AcDbEntity
  8
1
 62
     3
 60
     1
100
AcDbPoint
 10
-243.773072580646
 20
56.90314516129062
 30
0.0
  0
POINT
  5
95
330
32
100
AcDbEntity
  8
1
 62
     3
 60
     1
100
AcDbPoint
 10
-233.773072580646
 20
91.90314516129062
 30
0.0
  0
POINT
  5
96
330
32
100
AcDbEntity
  8
1
 62
     3
 60
     1
100
AcDbPoint
 10
-233.773072580646
 20
56.90314516129062
 30
0.0
  0
POINT
  5
97
330
32
100
AcDbEntity
  8
1
 62
     3
 60
     1
100
AcDbPoint
 10
-238.7730725806462
 20
96.90314516129062
 30
0.0
  0
POINT
  5
98
330
32
100
AcDbEntity
  8
1
 62
     3
 60
     1
100
AcDbPoint
 10
-238.773072580646
 20
51.90314516129062
 30
0.0
  0
POINT
  5
99
330
32
100
AcDbEntity
  8
1
 62
     3
 60
     1
100
AcDbPoint
 10
-243.773072580646
 20
-85.09685483870938
 30
0.0
  0
POINT
  5
9A
330
32
100
AcDbEntity
  8
1
 62
     3
 60
     1
100
AcDbPoint
 10
-243.773072580646
 20
-120.0968548387094
 30
0.0
  0
POINT
  5
9B
330
32
100
AcDbEntity
  8
1
 62
     3
 60
     1
100
AcDbPoint
 10
-233.773072580646
 20
-85.09685483870938
 30
0.0
  0
POINT
  5
9C
330
32
100
AcDbEntity
  8
1
 62
     3
 60
     1
100
AcDbPoint
 10
-233.773072580646
 20
-120.0968548387094
 30
0.0
  0
POINT
  5
9D
330
32
100
AcDbEntity
  8
1
 62
     3
 60
     1
100
AcDbPoint
 10
-238.7730725806461
 20
-80.09685483870938
 30
0.0
  0
POINT
  5
9E
330
32
100
AcDbEntity
  8
1
 62
     3
 60
     1
100
AcDbPoint
 10
-238.773072580646
 20
-125.0968548387094
 30
0.0
  0
POINT
  5
9F
330
32
100
AcDbEntity
  8
1
 62
     3
 60
     1
100
AcDbPoint
 10
26.22692741935391
 20
81.90314516129061
 30
0.0
  0
POINT
  5
A0
330
32
100
AcDbEntity
  8
1
 62
     3
 60
     1
100
AcDbPoint
 10
26.22692741935391
 20
47.40314516129062
 30
0.0
  0
POINT
  5
A1
330
32
100
AcDbEntity
  8
1
 62
     3
 60
     1
100
AcDbPoint
 10
56.22692741935391
 20
81.90314516129064
 30
0.0
  0
POINT
  5
A2
330
32
100
AcDbEntity
  8
1
 62
     3
 60
     1
100
AcDbPoint
 10
56.22692741935391
 20
47.40314516129062
 30
0.0
  0
POINT
  5
A3
330
32
100
AcDbEntity
  8
1
 62
     3
 60
     1
100
AcDbPoint
 10
26.2269274193539
 20
-77.59685483870938
 30
0.0
  0
POINT
  5
A4
330
32
100
AcDbEntity
  8
1
 62
     3
 60
     1
100
AcDbPoint
 10
56.2269274193539
 20
-77.59685483870938
 30
0.0
  0
LINE
  5
A5
330
32
100
AcDbEntity
  8
1
  6
Continuous
 62
     7
100
AcDbLine
 10
56.12692741935391
 20
-75.59685483870938
 30
0.0
 11
53.2269274193539
 21
-75.59685483870938
 31
0.0
  0
LINE
  5
A6
330
32
100
AcDbEntity
  8
1
  6
Continuous
 62
     7
100
AcDbLine
 10
50.27692741935391
 20
-75.59685483870938
 30
0.0
 11
47.27692741935391
 21
-75.59685483870938
 31
0.0
  0
LINE
  5
A7
330
32
100
AcDbEntity
  8
1
  6
Continuous
 62
     7
100
AcDbLine
 10
47.27692741935391
 20
-75.59685483870938
 30
0.0
 11
44.24692741935391
 21
-75.59685483870938
 31
0.0
  0
LINE
  5
A8
330
32
100
AcDbEntity
  8
1
  6
Continuous
 62
     7
100
AcDbLine
 10
44.24692741935391
 20
-75.59685483870938
 30
0.0
 11
41.2269274193539
 21
-75.59685483870938
 31
0.0
  0
LINE
  5
A9
330
32
100
AcDbEntity
  8
1
  6
Continuous
 62
     7
100
AcDbLine
 10
41.2269274193539
 20
-75.59685483870938
 30
0.0
 11
38.17692741935389
 21
-75.59685483870938
 31
0.0
  0
LINE
  5
AA
330
32
100
AcDbEntity
  8
1
  6
Continuous
 62
     7
100
AcDbLine
 10
38.17692741935389
 20
-75.59685483870938
 30
0.0
 11
35.14692741935389
 21
-75.59685483870938
 31
0.0
  0
LINE
  5
AB
330
32
100
AcDbEntity
  8
1
  6
Continuous
 62
     7
100
AcDbLine
 10
35.14692741935389
 20
-75.59685483870938
 30
0.0
 11
32.17692741935389
 21
-75.59685483870938
 31
0.0
  0
LINE
  5
AC
330
32
100
AcDbEntity
  8
1
  6
Continuous
 62
     7
100
AcDbLine
 10
29.2269274193539
 20
-75.59685483870938
 30
0.0
 11
26.32692741935389
 21
-75.59685483870938
 31
0.0
  0
LINE
  5
AD
330
32
100
AcDbEntity
  8
1
  6
Continuous
 62
     7
100
AcDbLine
 10
26.32692741935389
 20
-75.59685483870938
 30
0.0
 11
25.2269274193539
 21
-75.59685483870938
 31
0.0
  0
LINE
  5
AE
330
32
100
AcDbEntity
  8
1
  6
Continuous
 62
     7
100
AcDbLine
 10
23.49692741935391
 20
-75.59685483870938
 30
0.0
 11
21.2269274193539
 21
-75.59685483870938
 31
0.0
  0
LINE
  5
AF
330
32
100
AcDbEntity
  8
1
  6
Continuous
 62
     7
100
AcDbLine
 10
-3.17307258064611
 20
-75.59685483870938
 30
0.0
 11
-3.2730725806461
 21
-75.59685483870938
 31
0.0
  0
LINE
  5
B0
330
32
100
AcDbEntity
  8
1
  6
Continuous
 62
     7
100
AcDbLine
 10
31.27692741935391
 20
-77.59685483870938
 30
0.0
 11
31.2269274193539
 21
-77.59685483870938
 31
0.0
  0
LINE
  5
B1
330
32
100
AcDbEntity
  8
1
  6
Continuous
 62
     7
100
AcDbLine
 10
32.17692741935389
 20
-75.59685483870938
 30
0.0
 11
29.2269274193539
 21
-75.59685483870938
 31
0.0
  0
LINE
  5
B2
330
32
100
AcDbEntity
  8
1
  6
Continuous
 62
     7
100
AcDbLine
 10
53.2269274193539
 20
-75.59685483870938
 30
0.0
 11
50.27692741935391
 21
-75.59685483870938
 31
0.0
  0
LINE
  5
B3
330
32
100
AcDbEntity
  8
1
  6
Continuous
 62
     7
100
AcDbLine
 10
21.2269274193539
 20
-75.59685483870938
 30
0.0
 11
21.2269274193539
 21
-77.59685483870938
 31
0.0
  0
LINE
  5
B4
330
32
100
AcDbEntity
  8
1
  6
Continuous
 62
     7
100
AcDbLine
 10
21.2269274193539
 20
-77.59685483870938
 30
0.0
 11
25.2269274193539
 21
-77.59685483870938
 31
0.0
  0
LINE
  5
B5
330
32
100
AcDbEntity
  8
1
  6
Continuous
 62
     7
100
AcDbLine
 10
25.2269274193539
 20
-75.59685483870938
 30
0.0
 11
23.49692741935391
 21
-75.59685483870938
 31
0.0
  0
LINE
  5
B6
330
32
100
AcDbEntity
  8
1
  6
Continuous
 62
     7
100
AcDbLine
 10
25.2269274193539
 20
-77.59685483870938
 30
0.0
 11
26.2269274193539
 21
-77.59685483870938
 31
0.0
  0
LINE
  5
B7
330
32
100
AcDbEntity
  8
1
  6
Continuous
 62
     7
100
AcDbLine
 10
57.2269274193539
 20
-77.59685483870938
 30
0.0
 11
61.2269274193539
 21
-77.59685483870938
 31
0.0
  0
LINE
  5
B8
330
32
100
AcDbEntity
  8
1
  6
Continuous
 62
     7
100
AcDbLine
 10
61.2269274193539
 20
-77.59685483870938
 30
0.0
 11
61.2269274193539
 21
-75.59685483870938
 31
0.0
  0
LINE
  5
B9
330
32
100
AcDbEntity
  8
1
  6
Continuous
 62
     7
100
AcDbLine
 10
61.2269274193539
 20
-75.59685483870938
 30
0.0
 11
58.9469274193539
 21
-75.59685483870938
 31
0.0
  0
LINE
  5
BA
330
32
100
AcDbEntity
  8
1
  6
Continuous
 62
     7
100
AcDbLine
 10
-21.2730725806461
 20
-62.59685483870938
 30
0.0
 11
103.7269274193539
 21
-62.59685483870938
 31
0.0
  0
LINE
  5
BB
330
32
100
AcDbEntity
  8
1
  6
Continuous
 62
     7
100
AcDbLine
 10
103.7269274193539
 20
-62.59685483870938
 30
0.0
 11
103.7269274193539
 21
-75.59685483870938
 31
0.0
  0
LINE
  5
BC
330
32
100
AcDbEntity
  8
1
  6
Continuous
 62
     7
100
AcDbLine
 10
103.7269274193539
 20
-75.59685483870938
 30
0.0
 11
56.12692741935391
 21
-75.59685483870938
 31
0.0
  0
LINE
  5
BD
330
32
100
AcDbEntity
  8
1
  6
Continuous
 62
     7
100
AcDbLine
 10
-21.2730725806461
 20
-75.59685483870938
 30
0.0
 11
-21.2730725806461
 21
-62.59685483870938
 31
0.0
  0
LINE
  5
BE
330
32
100
AcDbEntity
  8
1
  6
Continuous
 62
     7
100
AcDbLine
 10
-21.2730725806461
 20
-62.59685483870938
 30
0.0
 11
-28.7730725806461
 21
-62.59685483870938
 31
0.0
  0
LINE
  5
BF
330
32
100
AcDbEntity
  8
1
  6
Continuous
 62
     7
100
AcDbLine
 10
-28.7730725806461
 20
-62.59685483870938
 30
0.0
 11
-28.7730725806461
 21
-48.59685483870938
 31
0.0
  0
LINE
  5
C0
330
32
100
AcDbEntity
  8
1
  6
Continuous
 62
     7
100
AcDbLine
 10
-28.7730725806461
 20
-48.59685483870938
 30
0.0
 11
-26.2730725806461
 21
-48.59685483870938
 31
0.0
  0
LINE
  5
C1
330
32
100
AcDbEntity
  8
1
  6
Continuous
 62
     7
100
AcDbLine
 10
111.2269274193539
 20
-48.59685483870938
 30
0.0
 11
111.2269274193539
 21
-50.59685483870938
 31
0.0
  0
LINE
  5
C2
330
32
100
AcDbEntity
  8
1
  6
Continuous
 62
     7
100
AcDbLine
 10
111.2269274193539
 20
-62.59685483870938
 30
0.0
 11
103.7269274193539
 21
-62.59685483870938
 31
0.0
  0
LINE
  5
C3
330
32
100
AcDbEntity
  8
1
  6
Continuous
 62
     7
100
AcDbLine
 10
-21.2730725806461
 20
-43.59685483870938
 30
0.0
 11
-21.2730725806461
 21
24.40314516129062
 31
0.0
  0
LINE
  5
C4
330
32
100
AcDbEntity
  8
1
  6
Continuous
 62
     7
100
AcDbLine
 10
-21.2730725806461
 20
-48.59685483870938
 30
0.0
 11
103.7269274193539
 21
-48.59685483870938
 31
0.0
  0
LINE
  5
C5
330
32
100
AcDbEntity
  8
1
  6
Continuous
 62
     7
100
AcDbLine
 10
108.7269274193539
 20
-48.59685483870938
 30
0.0
 11
111.2269274193539
 21
-48.59685483870938
 31
0.0
  0
LINE
  5
C6
330
32
100
AcDbEntity
  8
1
  6
Continuous
 62
     7
100
AcDbLine
 10
-16.2730725806461
 20
29.40314516129062
 30
0.0
 11
-10.2730725806461
 21
29.40314516129063
 31
0.0
  0
LINE
  5
C7
330
32
100
AcDbEntity
  8
1
  6
Continuous
 62
     7
100
AcDbLine
 10
-5.2730725806461
 20
34.40314516129062
 30
0.0
 11
-5.2730725806461
 21
42.40314516129062
 31
0.0
  0
LINE
  5
C8
330
32
100
AcDbEntity
  8
1
  6
Continuous
 62
     7
100
AcDbLine
 10
-0.2730725806461
 20
47.40314516129062
 30
0.0
 11
21.2269274193539
 21
47.40314516129062
 31
0.0
  0
LINE
  5
C9
330
32
100
AcDbEntity
  8
1
  6
Continuous
 62
     7
100
AcDbLine
 10
103.7269274193539
 20
-48.59685483870938
 30
0.0
 11
111.2269274193539
 21
-48.59685483870938
 31
0.0
  0
LINE
  5
CA
330
32
100
AcDbEntity
  8
1
  6
Continuous
 62
     7
100
AcDbLine
 10
-21.2730725806461
 20
-48.59685483870938
 30
0.0
 11
-28.7730725806461
 21
-48.59685483870938
 31
0.0
  0
LINE
  5
CB
330
32
100
AcDbEntity
  8
1
  6
Continuous
 62
     7
100
AcDbLine
 10
156.813204462289
 20
52.40314516129062
 30
0.0
 11
171.7269274193539
 21
52.40314516129062
 31
0.0
  0
LINE
  5
CC
330
32
100
AcDbEntity
  8
1
  6
Continuous
 62
     7
100
AcDbLine
 10
171.7269274193539
 20
52.40314516129062
 30
0.0
 11
171.7269274193539
 21
40.40314516129062
 31
0.0
  0
LINE
  5
CD
330
32
100
AcDbEntity
  8
1
  6
Continuous
 62
     7
100
AcDbLine
 10
171.7269274193539
 20
-62.59685483870938
 30
0.0
 11
156.9508801467602
 21
-62.59685483870938
 31
0.0
  0
LINE
  5
CE
330
32
100
AcDbEntity
  8
1
  6
Continuous
 62
     7
100
AcDbLine
 10
171.7269274193539
 20
40.40314516129062
 30
0.0
 11
155.937068901912
 21
40.40314516129062
 31
0.0
  0
LINE
  5
CF
330
32
100
AcDbEntity
  8
1
  6
Continuous
 62
     7
100
AcDbLine
 10
171.7269274193539
 20
40.40314516129062
 30
0.0
 11
171.7269274193539
 21
-50.59685483870938
 31
0.0
  0
LINE
  5
D0
330
32
100
AcDbEntity
  8
1
  6
Continuous
 62
     7
100
AcDbLine
 10
171.7269274193539
 20
-50.59685483870938
 30
0.0
 11
156.0889959427561
 21
-50.59685483870938
 31
0.0
  0
LINE
  5
D1
330
32
100
AcDbEntity
  8
1
  6
Continuous
 62
     7
100
AcDbLine
 10
171.7269274193539
 20
-50.59685483870938
 30
0.0
 11
171.7269274193539
 21
-62.59685483870938
 31
0.0
  0
LINE
  5
D2
330
32
100
AcDbEntity
  8
1
  6
Continuous
 62
     7
100
AcDbLine
 10
149.8495864471881
 20
-61.69872518112662
 30
0.0
 11
119.2269274193539
 21
-50.59685483870938
 31
0.0
  0
LINE
  5
D3
330
32
100
AcDbEntity
  8
1
  6
Continuous
 62
     7
100
AcDbLine
 10
111.2269274193539
 20
-58.59685483870938
 30
0.0
 11
111.2269274193539
 21
-62.59685483870938
 31
0.0
  0
LINE
  5
D4
330
32
100
AcDbEntity
  8
1
  6
Continuous
 62
     7
100
AcDbLine
 10
111.2269274193539
 20
-50.59685483870938
 30
0.0
 11
111.2269274193539
 21
-58.59685483870938
 31
0.0
  0
LINE
  5
D5
330
32
100
AcDbEntity
  8
1
  6
Continuous
 62
     7
100
AcDbLine
 10
148.5055079631257
 20
-59.99345472254421
 30
0.0
 11
111.9912113105995
 21
-35.11753486194241
 31
0.0
  0
LINE
  5
D6
330
32
100
AcDbEntity
  8
1
  6
Continuous
 62
     7
100
AcDbLine
 10
149.0101397045984
 20
-48.82144535635852
 30
0.0
 11
111.890284962305
 21
-28.95193673517954
 31
0.0
  0
LINE
  5
D7
330
32
100
AcDbEntity
  8
1
  6
Continuous
 62
     7
100
AcDbLine
 10
149.1121209419418
 20
38.76054331151803
 30
0.0
 11
111.8698887148363
 21
19.73166553124514
 31
0.0
  0
LINE
  5
D8
330
32
100
AcDbEntity
  8
1
  6
Continuous
 62
     7
100
AcDbLine
 10
148.5773622631832
 20
49.93992717548502
 30
0.0
 11
111.976840450588
 21
25.89578875845174
 31
0.0
  0
LINE
  5
D9
330
32
100
AcDbEntity
  8
1
  6
Continuous
 62
     7
100
AcDbLine
 10
150.1190190391309
 20
51.70477998019818
 30
0.0
 11
111.6685090953985
 21
39.54281819750911
 31
0.0
  0
LINE
  5
DA
330
32
100
AcDbEntity
  8
1
  6
Continuous
 62
     7
100
AcDbLine
 10
110.7637828051513
 20
39.40314516129062
 30
0.0
 11
90.7269274193539
 21
39.40314516129062
 31
0.0
  0
LINE
  5
DB
330
32
100
AcDbEntity
  8
1
  6
Continuous
 62
     7
100
AcDbLine
 10
90.0002062558794
 20
35.0614593240564
 30
0.0
 11
90.0002062558794
 21
-10.9385406759436
 31
0.0
  0
LINE
  5
DC
330
32
100
AcDbEntity
  8
1
  6
Continuous
 62
     7
100
AcDbLine
 10
110.3296720107669
 20
25.40314516129063
 30
0.0
 11
108.423617976615
 21
25.40314516129062
 31
0.0
  0
LINE
  5
DD
330
32
100
AcDbEntity
  8
1
  6
Continuous
 62
     7
100
AcDbLine
 10
110.5048991228423
 20
19.40314516129063
 30
0.0
 11
108.271358375617
 21
19.40314516129062
 31
0.0
  0
LINE
  5
DE
330
32
100
AcDbEntity
  8
1
  6
Continuous
 62
     7
100
AcDbLine
 10
110.4745137146735
 20
-28.59685483870938
 30
0.0
 11
108.423617976615
 21
-28.59685483870938
 31
0.0
  0
LINE
  5
DF
330
32
100
AcDbEntity
  8
1
  6
Continuous
 62
     7
100
AcDbLine
 10
110.3021368738726
 20
-34.59685483870938
 30
0.0
 11
108.880396779608
 21
-34.59685483870938
 31
0.0
  0
LINE
  5
E0
330
32
100
AcDbEntity
  8
1
  6
Continuous
 62
     7
100
AcDbLine
 10
156.409950291087
 20
52.40314516129062
 30
0.0
 11
154.6426504903668
 21
52.40314516129062
 31
0.0
  0
LINE
  5
E1
330
32
100
AcDbEntity
  8
1
  6
Continuous
 62
     7
100
AcDbLine
 10
154.962046994288
 20
-62.59685483870938
 30
0.0
 11
156.9508801467602
 21
-62.59685483870938
 31
0.0
  0
LINE
  5
E2
330
32
100
AcDbEntity
  8
1
  6
Continuous
 62
     7
100
AcDbLine
 10
-125.037953005712
 20
-62.59685483870938
 30
0.0
 11
-123.0491198532398
 21
-62.59685483870938
 31
0.0
  0
LINE
  5
E3
330
32
100
AcDbEntity
  8
1
  6
Continuous
 62
     7
100
AcDbLine
 10
-123.590049708913
 20
52.40314516129062
 30
0.0
 11
-125.3573495096332
 21
52.40314516129062
 31
0.0
  0
LINE
  5
E4
330
32
100
AcDbEntity
  8
1
  6
Continuous
 62
     7
100
AcDbLine
 10
-169.6978631261273
 20
-34.59685483870938
 30
0.0
 11
-171.119603220392
 21
-34.59685483870938
 31
0.0
  0
LINE
  5
E5
330
32
100
AcDbEntity
  8
1
  6
Continuous
 62
     7
100
AcDbLine
 10
-169.5254862853266
 20
-28.59685483870938
 30
0.0
 11
-171.576382023385
 21
-28.59685483870938
 31
0.0
  0
LINE
  5
E6
330
32
100
AcDbEntity
  8
1
  6
Continuous
 62
     7
100
AcDbLine
 10
-169.4951008771577
 20
19.40314516129063
 30
0.0
 11
-171.728641624383
 21
19.40314516129062
 31
0.0
  0
LINE
  5
E7
330
32
100
AcDbEntity
  8
1
  6
Continuous
 62
     7
100
AcDbLine
 10
-169.6703279892331
 20
25.40314516129063
 30
0.0
 11
-171.576382023385
 21
25.40314516129062
 31
0.0
  0
LINE
  5
E8
330
32
100
AcDbEntity
  8
1
  6
Continuous
 62
     7
100
AcDbLine
 10
-189.9997937441206
 20
35.0614593240564
 30
0.0
 11
-189.9997937441206
 21
-10.9385406759436
 31
0.0
  0
LINE
  5
E9
330
32
100
AcDbEntity
  8
1
  6
Continuous
 62
     7
100
AcDbLine
 10
-169.2362171948487
 20
39.40314516129062
 30
0.0
 11
-189.2730725806461
 21
39.40314516129062
 31
0.0
  0
LINE
  5
EA
330
32
100
AcDbEntity
  8
1
  6
Continuous
 62
     7
100
AcDbLine
 10
-129.8809809608692
 20
51.70477998019818
 30
0.0
 11
-168.3314909046015
 21
39.54281819750911
 31
0.0
  0
LINE
  5
EB
330
32
100
AcDbEntity
  8
1
  6
Continuous
 62
     7
100
AcDbLine
 10
-131.4226377368169
 20
49.93992717548502
 30
0.0
 11
-168.023159549412
 21
25.89578875845174
 31
0.0
  0
LINE
  5
EC
330
32
100
AcDbEntity
  8
1
  6
Continuous
 62
     7
100
AcDbLine
 10
-130.8878790580582
 20
38.76054331151803
 30
0.0
 11
-168.1301112851637
 21
19.73166553124514
 31
0.0
  0
LINE
  5
ED
330
32
100
AcDbEntity
  8
1
  6
Continuous
 62
     7
100
AcDbLine
 10
-130.9898602954016
 20
-48.82144535635852
 30
0.0
 11
-168.109715037695
 21
-28.95193673517954
 31
0.0
  0
LINE
  5
EE
330
32
100
AcDbEntity
  8
1
  6
Continuous
 62
     7
100
AcDbLine
 10
-131.4944920368743
 20
-59.99345472254421
 30
0.0
 11
-168.0087886894005
 21
-35.11753486194241
 31
0.0
  0
LINE
  5
EF
330
32
100
AcDbEntity
  8
1
  6
Continuous
 62
     7
100
AcDbLine
 10
-168.7730725806461
 20
-50.59685483870938
 30
0.0
 11
-168.7730725806461
 21
-58.59685483870938
 31
0.0
  0
LINE
  5
F0
330
32
100
AcDbEntity
  8
1
  6
Continuous
 62
     7
100
AcDbLine
 10
-168.7730725806461
 20
-58.59685483870938
 30
0.0
 11
-168.7730725806461
 21
-62.59685483870938
 31
0.0
  0
LINE
  5
F1
330
32
100
AcDbEntity
  8
1
  6
Continuous
 62
     7
100
AcDbLine
 10
-130.1504135528119
 20
-61.69872518112662
 30
0.0
 11
-160.7730725806461
 21
-50.59685483870938
 31
0.0
  0
LINE
  5
F2
330
32
100
AcDbEntity
  8
1
  6
Continuous
 62
     7
100
AcDbLine
 10
-108.2730725806461
 20
-50.59685483870938
 30
0.0
 11
-108.2730725806461
 21
-62.59685483870938
 31
0.0
  0
LINE
  5
F3
330
32
100
AcDbEntity
  8
1
  6
Continuous
 62
     7
100
AcDbLine
 10
-108.2730725806461
 20
-50.59685483870938
 30
0.0
 11
-123.9110040572439
 21
-50.59685483870938
 31
0.0
  0
LINE
  5
F4
330
32
100
AcDbEntity
  8
1
  6
Continuous
 62
     7
100
AcDbLine
 10
-108.2730725806461
 20
40.40314516129062
 30
0.0
 11
-108.2730725806461
 21
-50.59685483870938
 31
0.0
  0
LINE
  5
F5
330
32
100
AcDbEntity
  8
1
  6
Continuous
 62
     7
100
AcDbLine
 10
-108.2730725806461
 20
40.40314516129062
 30
0.0
 11
-124.062931098088
 21
40.40314516129062
 31
0.0
  0
LINE
  5
F6
330
32
100
AcDbEntity
  8
1
  6
Continuous
 62
     7
100
AcDbLine
 10
-108.2730725806461
 20
-62.59685483870938
 30
0.0
 11
-123.0491198532398
 21
-62.59685483870938
 31
0.0
  0
LINE
  5
F7
330
32
100
AcDbEntity
  8
1
  6
Continuous
 62
     7
100
AcDbLine
 10
-108.2730725806461
 20
52.40314516129062
 30
0.0
 11
-108.2730725806461
 21
40.40314516129062
 31
0.0
  0
LINE
  5
F8
330
32
100
AcDbEntity
  8
1
  6
Continuous
 62
     7
100
AcDbLine
 10
-123.1867955377111
 20
52.40314516129062
 30
0.0
 11
-108.2730725806461
 21
52.40314516129062
 31
0.0
  0
LINE
  5
F9
330
32
100
AcDbEntity
  8
1
  6
Continuous
 62
     7
100
AcDbLine
 10
-301.2730725806461
 20
-48.59685483870938
 30
0.0
 11
-308.7730725806461
 21
-48.59685483870938
 31
0.0
  0
LINE
  5
FA
330
32
100
AcDbEntity
  8
1
  6
Continuous
 62
     7
100
AcDbLine
 10
-176.2730725806461
 20
-48.59685483870938
 30
0.0
 11
-168.7730725806461
 21
-48.59685483870938
 31
0.0
  0
LINE
  5
FB
330
32
100
AcDbEntity
  8
1
  6
Continuous
 62
     7
100
AcDbLine
 10
-280.2730725806461
 20
47.40314516129062
 30
0.0
 11
-258.7730725806461
 21
47.40314516129062
 31
0.0
  0
LINE
  5
FC
330
32
100
AcDbEntity
  8
1
  6
Continuous
 62
     7
100
AcDbLine
 10
-285.2730725806461
 20
34.40314516129062
 30
0.0
 11
-285.2730725806461
 21
42.40314516129062
 31
0.0
  0
LINE
  5
FD
330
32
100
AcDbEntity
  8
1
  6
Continuous
 62
     7
100
AcDbLine
 10
-296.2730725806461
 20
29.40314516129062
 30
0.0
 11
-290.2730725806461
 21
29.40314516129063
 31
0.0
  0
LINE
  5
FE
330
32
100
AcDbEntity
  8
1
  6
Continuous
 62
     7
100
AcDbLine
 10
-171.2730725806461
 20
-48.59685483870938
 30
0.0
 11
-168.7730725806461
 21
-48.59685483870938
 31
0.0
  0
LINE
  5
FF
330
32
100
AcDbEntity
  8
1
  6
Continuous
 62
     7
100
AcDbLine
 10
-301.2730725806461
 20
-48.59685483870938
 30
0.0
 11
-176.2730725806461
 21
-48.59685483870938
 31
0.0
  0
LINE
  5
100
330
32
100
AcDbEntity
  8
1
  6
Continuous
 62
     7
100
AcDbLine
 10
-301.2730725806461
 20
-43.59685483870938
 30
0.0
 11
-301.2730725806461
 21
24.40314516129062
 31
0.0
  0
LINE
  5
101
330
32
100
AcDbEntity
  8
1
  6
Continuous
 62
     7
100
AcDbLine
 10
-168.7730725806461
 20
-62.59685483870938
 30
0.0
 11
-176.2730725806461
 21
-62.59685483870938
 31
0.0
  0
LINE
  5
102
330
32
100
AcDbEntity
  8
1
  6
Continuous
 62
     7
100
AcDbLine
 10
-168.7730725806461
 20
-48.59685483870938
 30
0.0
 11
-168.7730725806461
 21
-50.59685483870938
 31
0.0
  0
LINE
  5
103
330
32
100
AcDbEntity
  8
1
  6
Continuous
 62
     7
100
AcDbLine
 10
-308.7730725806461
 20
-48.59685483870938
 30
0.0
 11
-306.2730725806461
 21
-48.59685483870938
 31
0.0
  0
LINE
  5
104
330
32
100
AcDbEntity
  8
1
  6
Continuous
 62
     7
100
AcDbLine
 10
-308.7730725806461
 20
-62.59685483870938
 30
0.0
 11
-308.7730725806461
 21
-48.59685483870938
 31
0.0
  0
LINE
  5
105
330
32
100
AcDbEntity
  8
1
  6
Continuous
 62
     7
100
AcDbLine
 10
-301.2730725806461
 20
-62.59685483870938
 30
0.0
 11
-308.7730725806461
 21
-62.59685483870938
 31
0.0
  0
LINE
  5
106
330
32
100
AcDbEntity
  8
1
  6
Continuous
 62
     7
100
AcDbLine
 10
-301.2730725806461
 20
-75.59685483870938
 30
0.0
 11
-301.2730725806461
 21
-62.59685483870938
 31
0.0
  0
LINE
  5
107
330
32
100
AcDbEntity
  8
1
  6
Continuous
 62
     7
100
AcDbLine
 10
-176.2730725806461
 20
-75.59685483870938
 30
0.0
 11
-301.2730725806461
 21
-75.59685483870938
 31
0.0
  0
LINE
  5
108
330
32
100
AcDbEntity
  8
1
  6
Continuous
 62
     7
100
AcDbLine
 10
-176.2730725806461
 20
-62.59685483870938
 30
0.0
 11
-176.2730725806461
 21
-75.59685483870938
 31
0.0
  0
LINE
  5
109
330
32
100
AcDbEntity
  8
1
  6
Continuous
 62
     7
100
AcDbLine
 10
-301.2730725806461
 20
-62.59685483870938
 30
0.0
 11
-176.2730725806461
 21
-62.59685483870938
 31
0.0
  0
LINE
  5
10A
330
32
100
AcDbEntity
  8
1
  6
Continuous
 62
     7
100
AcDbLine
 10
-218.7730725806461
 20
-75.59685483870938
 30
0.0
 11
-221.0530725806461
 21
-75.59685483870938
 31
0.0
  0
LINE
  5
10B
330
32
100
AcDbEntity
  8
1
  6
Continuous
 62
     7
100
AcDbLine
 10
-218.7730725806461
 20
-77.59685483870938
 30
0.0
 11
-218.7730725806461
 21
-75.59685483870938
 31
0.0
  0
LINE
  5
10C
330
32
100
AcDbEntity
  8
1
  6
Continuous
 62
     7
100
AcDbLine
 10
-222.7730725806461
 20
-77.59685483870938
 30
0.0
 11
-218.7730725806461
 21
-77.59685483870938
 31
0.0
  0
LINE
  5
10D
330
32
100
AcDbEntity
  8
1
  6
Continuous
 62
     7
100
AcDbLine
 10
-222.7730725806461
 20
-75.59685483870938
 30
0.0
 11
-223.8730725806461
 21
-75.59685483870938
 31
0.0
  0
LINE
  5
10E
330
32
100
AcDbEntity
  8
1
  6
DASHED
 62
     7
100
AcDbLine
 10
-222.7730725806461
 20
-77.59685483870938
 30
0.0
 11
-222.7730725806461
 21
-75.59685483870938
 31
0.0
  0
LINE
  5
10F
330
32
100
AcDbEntity
  8
1
  6
Continuous
 62
     7
100
AcDbLine
 10
-254.7730725806461
 20
-77.59685483870938
 30
0.0
 11
-222.7730725806461
 21
-77.59685483870938
 31
0.0
  0
LINE
  5
110
330
32
100
AcDbEntity
  8
1
  6
Continuous
 62
     7
100
AcDbLine
 10
-254.7730725806461
 20
-75.59685483870938
 30
0.0
 11
-256.5030725806461
 21
-75.59685483870938
 31
0.0
  0
LINE
  5
111
330
32
100
AcDbEntity
  8
1
  6
DASHED
 62
     7
100
AcDbLine
 10
-254.7730725806461
 20
-77.59685483870938
 30
0.0
 11
-254.7730725806461
 21
-75.59685483870938
 31
0.0
  0
LINE
  5
112
330
32
100
AcDbEntity
  8
1
  6
Continuous
 62
     7
100
AcDbLine
 10
-258.7730725806461
 20
-77.59685483870938
 30
0.0
 11
-254.7730725806461
 21
-77.59685483870938
 31
0.0
  0
LINE
  5
113
330
32
100
AcDbEntity
  8
1
  6
Continuous
 62
     7
100
AcDbLine
 10
-258.7730725806461
 20
-75.59685483870938
 30
0.0
 11
-258.7730725806461
 21
-77.59685483870938
 31
0.0
  0
LINE
  5
114
330
32
100
AcDbEntity
  8
1
  6
Continuous
 62
     7
100
AcDbLine
 10
-226.7730725806461
 20
-75.59685483870938
 30
0.0
 11
-229.7230725806461
 21
-75.59685483870938
 31
0.0
  0
LINE
  5
115
330
32
100
AcDbEntity
  8
1
  6
Continuous
 62
     7
100
AcDbLine
 10
-247.8230725806461
 20
-75.59685483870938
 30
0.0
 11
-250.7730725806461
 21
-75.59685483870938
 31
0.0
  0
LINE
  5
116
330
32
100
AcDbEntity
  8
1
  6
Continuous
 62
     7
100
AcDbLine
 10
-248.7230725806461
 20
-77.59685483870938
 30
0.0
 11
-248.7730725806461
 21
-77.59685483870938
 31
0.0
  0
LINE
  5
117
330
32
100
AcDbEntity
  8
1
  6
Continuous
 62
     7
100
AcDbLine
 10
-283.1730725806461
 20
-75.59685483870938
 30
0.0
 11
-283.2730725806461
 21
-75.59685483870938
 31
0.0
  0
LINE
  5
118
330
32
100
AcDbEntity
  8
1
  6
Continuous
 62
     7
100
AcDbLine
 10
-256.5030725806461
 20
-75.59685483870938
 30
0.0
 11
-258.7730725806461
 21
-75.59685483870938
 31
0.0
  0
LINE
  5
119
330
32
100
AcDbEntity
  8
1
  6
Continuous
 62
     7
100
AcDbLine
 10
-253.6730725806461
 20
-75.59685483870938
 30
0.0
 11
-254.7730725806461
 21
-75.59685483870938
 31
0.0
  0
LINE
  5
11A
330
32
100
AcDbEntity
  8
1
  6
Continuous
 62
     7
100
AcDbLine
 10
-250.7730725806461
 20
-75.59685483870938
 30
0.0
 11
-253.6730725806461
 21
-75.59685483870938
 31
0.0
  0
LINE
  5
11B
330
32
100
AcDbEntity
  8
1
  6
Continuous
 62
     7
100
AcDbLine
 10
-244.8530725806461
 20
-75.59685483870938
 30
0.0
 11
-247.8230725806461
 21
-75.59685483870938
 31
0.0
  0
LINE
  5
11C
330
32
100
AcDbEntity
  8
1
  6
Continuous
 62
     7
100
AcDbLine
 10
-241.8230725806461
 20
-75.59685483870938
 30
0.0
 11
-244.8530725806461
 21
-75.59685483870938
 31
0.0
  0
LINE
  5
11D
330
32
100
AcDbEntity
  8
1
  6
Continuous
 62
     7
100
AcDbLine
 10
-238.7730725806461
 20
-75.59685483870938
 30
0.0
 11
-241.8230725806461
 21
-75.59685483870938
 31
0.0
  0
LINE
  5
11E
330
32
100
AcDbEntity
  8
1
  6
Continuous
 62
     7
100
AcDbLine
 10
-235.7530725806461
 20
-75.59685483870938
 30
0.0
 11
-238.7730725806461
 21
-75.59685483870938
 31
0.0
  0
LINE
  5
11F
330
32
100
AcDbEntity
  8
1
  6
Continuous
 62
     7
100
AcDbLine
 10
-232.7230725806461
 20
-75.59685483870938
 30
0.0
 11
-235.7530725806461
 21
-75.59685483870938
 31
0.0
  0
LINE
  5
120
330
32
100
AcDbEntity
  8
1
  6
Continuous
 62
     7
100
AcDbLine
 10
-229.7230725806461
 20
-75.59685483870938
 30
0.0
 11
-232.7230725806461
 21
-75.59685483870938
 31
0.0
  0
LINE
  5
121
330
32
100
AcDbEntity
  8
1
  6
Continuous
 62
     7
100
AcDbLine
 10
-223.8730725806461
 20
-75.59685483870938
 30
0.0
 11
-226.7730725806461
 21
-75.59685483870938
 31
0.0
  0
LINE
  5
122
330
32
100
AcDbEntity
  8
1
  6
Continuous
 62
     7
100
AcDbLine
 10
-221.0530725806461
 20
-75.59685483870938
 30
0.0
 11
-222.7730725806461
 21
-75.59685483870938
 31
0.0
  0
LINE
  5
123
330
32
100
AcDbEntity
  8
1
  6
DOT_CENTER
 62
     2
100
AcDbLine
 10
-27.49651008064607
 20
-5.09685483870938
 30
0.0
 11
173.7269274193539
 21
-5.09685483870938
 31
0.0
  0
LINE
  5
124
330
32
100
AcDbEntity
  8
1
  6
DOT_CENTER
 62
     2
100
AcDbLine
 10
41.2269274193539
 20
-83.9937298387094
 30
0.0
 11
41.22692741935391
 21
91.77286306331307
 31
0.0
  0
LINE
  5
125
330
32
100
AcDbEntity
  8
1
  6
DOT_CENTER
 62
     2
100
AcDbLine
 10
-238.773072580646
 20
-138.873417338709
 30
0.0
 11
-238.7730725806463
 21
118.475020161291
 31
0.0
  0
LINE
  5
126
330
32
100
AcDbEntity
  8
1
  6
DOT_CENTER
 62
     2
100
AcDbLine
 10
-106.2730725806461
 20
-5.09685483870938
 30
0.0
 11
-307.7558850806461
 21
-5.09685483870937
 31
0.0
  0
LINE
  5
127
330
32
100
AcDbEntity
  8
1
  6
Continuous
 62
     7
100
AcDbLine
 10
21.2269274193539
 20
47.40314516129062
 30
0.0
 11
21.2269274193539
 21
49.40314516129062
 31
0.0
  0
LINE
  5
128
330
32
100
AcDbEntity
  8
1
  6
Continuous
 62
     7
100
AcDbLine
 10
21.2269274193539
 20
47.40314516129062
 30
0.0
 11
25.2269274193539
 21
47.40314516129062
 31
0.0
  0
LINE
  5
129
330
32
100
AcDbEntity
  8
1
  6
Continuous
 62
     7
100
AcDbLine
 10
21.2269274193539
 20
49.40314516129062
 30
0.0
 11
22.2269274193539
 21
49.40314516129062
 31
0.0
  0
LINE
  5
12A
330
32
100
AcDbEntity
  8
1
  6
Continuous
 62
     7
100
AcDbLine
 10
61.2269274193539
 20
49.40314516129062
 30
0.0
 11
61.2269274193539
 21
47.40314516129062
 31
0.0
  0
LINE
  5
12B
330
32
100
AcDbEntity
  8
1
  6
Continuous
 62
     7
100
AcDbLine
 10
61.2269274193539
 20
47.40314516129062
 30
0.0
 11
82.7269274193539
 21
47.40314516129062
 31
0.0
  0
LINE
  5
12C
330
32
100
AcDbEntity
  8
1
  6
Continuous
 62
     7
100
AcDbLine
 10
23.2269274193539
 20
55.90314516129062
 30
0.0
 11
23.2269274193539
 21
79.90314516129062
 31
0.0
  0
LINE
  5
12D
330
32
100
AcDbEntity
  8
1
  6
Continuous
 62
     7
100
AcDbLine
 10
59.2269274193539
 20
55.90314516129062
 30
0.0
 11
23.2269274193539
 21
55.90314516129062
 31
0.0
  0
LINE
  5
12E
330
32
100
AcDbEntity
  8
1
  6
Continuous
 62
     7
100
AcDbLine
 10
22.2269274193539
 20
49.40314516129062
 30
0.0
 11
22.2269274193539
 21
55.90314516129062
 31
0.0
  0
LINE
  5
12F
330
32
100
AcDbEntity
  8
1
  6
Continuous
 62
     7
100
AcDbLine
 10
22.2269274193539
 20
49.40314516129062
 30
0.0
 11
60.2269274193539
 21
49.40314516129062
 31
0.0
  0
LINE
  5
130
330
32
100
AcDbEntity
  8
1
  6
Continuous
 62
     7
100
AcDbLine
 10
22.2269274193539
 20
55.90314516129062
 30
0.0
 11
23.2269274193539
 21
55.90314516129062
 31
0.0
  0
LINE
  5
131
330
32
100
AcDbEntity
  8
1
  6
Continuous
 62
     7
100
AcDbLine
 10
59.2269274193539
 20
55.90314516129062
 30
0.0
 11
60.2269274193539
 21
55.90314516129062
 31
0.0
  0
LINE
  5
132
330
32
100
AcDbEntity
  8
1
  6
Continuous
 62
     7
100
AcDbLine
 10
60.2269274193539
 20
55.90314516129062
 30
0.0
 11
60.2269274193539
 21
49.40314516129062
 31
0.0
  0
LINE
  5
133
330
32
100
AcDbEntity
  8
1
  6
Continuous
 62
     7
100
AcDbLine
 10
60.2269274193539
 20
49.40314516129062
 30
0.0
 11
61.2269274193539
 21
49.40314516129062
 31
0.0
  0
LINE
  5
134
330
32
100
AcDbEntity
  8
1
  6
Continuous
 62
     7
100
AcDbLine
 10
25.2269274193539
 20
47.40314516129062
 30
0.0
 11
26.22692741935391
 21
47.40314516129062
 31
0.0
  0
LINE
  5
135
330
32
100
AcDbEntity
  8
1
  6
Continuous
 62
     7
100
AcDbLine
 10
25.2269274193539
 20
81.90314516129062
 30
0.0
 11
26.22692741935391
 21
81.90314516129061
 31
0.0
  0
LINE
  5
136
330
32
100
AcDbEntity
  8
1
  6
Continuous
 62
     7
100
AcDbLine
 10
57.2269274193539
 20
47.40314516129062
 30
0.0
 11
61.2269274193539
 21
47.40314516129062
 31
0.0
  0
LINE
  5
137
330
32
100
AcDbEntity
  8
1
  6
Continuous
 62
     7
100
AcDbLine
 10
57.2269274193539
 20
81.90314516129062
 30
0.0
 11
58.2269274193539
 21
81.90314516129062
 31
0.0
  0
LINE
  5
138
330
32
100
AcDbEntity
  8
1
  6
Continuous
 62
     7
100
AcDbLine
 10
59.2269274193539
 20
79.90314516129062
 30
0.0
 11
58.2269274193539
 21
81.90314516129062
 31
0.0
  0
LINE
  5
139
330
32
100
AcDbEntity
  8
1
  6
Continuous
 62
     7
100
AcDbLine
 10
59.2269274193539
 20
79.90314516129062
 30
0.0
 11
59.2269274193539
 21
55.90314516129062
 31
0.0
  0
LINE
  5
13A
330
32
100
AcDbEntity
  8
1
  6
Continuous
 62
     7
100
AcDbLine
 10
59.2269274193539
 20
79.90314516129062
 30
0.0
 11
23.2269274193539
 21
79.90314516129062
 31
0.0
  0
LINE
  5
13B
330
32
100
AcDbEntity
  8
1
  6
Continuous
 62
     7
100
AcDbLine
 10
23.2269274193539
 20
79.90314516129062
 30
0.0
 11
24.2269274193539
 21
81.90314516129062
 31
0.0
  0
LINE
  5
13C
330
32
100
AcDbEntity
  8
1
  6
Continuous
 62
     7
100
AcDbLine
 10
24.2269274193539
 20
81.90314516129062
 30
0.0
 11
25.2269274193539
 21
81.90314516129062
 31
0.0
  0
LINE
  5
13D
330
32
100
AcDbEntity
  8
1
  6
Continuous
 62
     7
100
AcDbLine
 10
-258.7730725806461
 20
47.40314516129062
 30
0.0
 11
-258.7730725806461
 21
49.40314516129062
 31
0.0
  0
LINE
  5
13E
330
32
100
AcDbEntity
  8
1
  6
Continuous
 62
     7
100
AcDbLine
 10
-258.7730725806461
 20
47.40314516129062
 30
0.0
 11
-218.7730725806461
 21
47.40314516129064
 31
0.0
  0
LINE
  5
13F
330
32
100
AcDbEntity
  8
1
  6
Continuous
 62
     7
100
AcDbLine
 10
-258.7730725806461
 20
49.40314516129062
 30
0.0
 11
-254.773072580646
 21
49.40314516129062
 31
0.0
  0
LINE
  5
140
330
32
100
AcDbEntity
  8
1
  6
Continuous
 62
     7
100
AcDbLine
 10
-218.7730725806461
 20
49.40314516129062
 30
0.0
 11
-218.7730725806461
 21
47.40314516129064
 31
0.0
  0
LINE
  5
141
330
32
100
AcDbEntity
  8
1
  6
Continuous
 62
     7
100
AcDbLine
 10
-218.7730725806461
 20
47.40314516129064
 30
0.0
 11
-197.2730725806461
 21
47.40314516129062
 31
0.0
  0
LINE
  5
142
330
32
100
AcDbEntity
  8
1
  6
Continuous
 62
     7
100
AcDbLine
 10
-222.773072580646
 20
49.40314516129062
 30
0.0
 11
-222.773072580646
 21
99.40314516129062
 31
0.0
  0
LINE
  5
143
330
32
100
AcDbEntity
  8
1
  6
Continuous
 62
     7
100
AcDbLine
 10
-222.773072580646
 20
49.40314516129062
 30
0.0
 11
-218.7730725806461
 21
49.40314516129062
 31
0.0
  0
LINE
  5
144
330
32
100
AcDbEntity
  8
1
  6
Continuous
 62
     7
100
AcDbLine
 10
-222.773072580646
 20
99.40314516129062
 30
0.0
 11
-254.773072580646
 21
99.40314516129062
 31
0.0
  0
LINE
  5
145
330
32
100
AcDbEntity
  8
1
  6
Continuous
 62
     7
100
AcDbLine
 10
-254.773072580646
 20
99.40314516129062
 30
0.0
 11
-254.773072580646
 21
49.40314516129062
 31
0.0
  0
LINE
  5
146
330
32
100
AcDbEntity
  8
1
  6
Continuous
 62
     7
100
AcDbLine
 10
-254.773072580646
 20
49.40314516129062
 30
0.0
 11
-222.773072580646
 21
49.40314516129062
 31
0.0
  0
LINE
  5
147
330
32
100
AcDbEntity
  8
1
  6
Continuous
 62
     7
100
AcDbLine
 10
-254.7730725806461
 20
-77.59685483870938
 30
0.0
 11
-254.773072580646
 21
-127.5968548387094
 31
0.0
  0
LINE
  5
148
330
32
100
AcDbEntity
  8
1
  6
Continuous
 62
     7
100
AcDbLine
 10
-254.773072580646
 20
-127.5968548387094
 30
0.0
 11
-222.773072580646
 21
-127.5968548387094
 31
0.0
  0
LINE
  5
149
330
32
100
AcDbEntity
  8
1
  6
Continuous
 62
     7
100
AcDbLine
 10
-222.773072580646
 20
-127.5968548387094
 30
0.0
 11
-222.7730725806461
 21
-77.59685483870938
 31
0.0
  0
LINE
  5
14A
330
32
100
AcDbEntity
  8
1
  6
Continuous
 62
     7
100
AcDbLine
 10
-243.773072580646
 20
91.90314516129062
 30
0.0
 11
-243.773072580646
 21
56.90314516129062
 31
0.0
  0
LINE
  5
14B
330
32
100
AcDbEntity
  8
1
  6
Continuous
 62
     7
100
AcDbLine
 10
-233.773072580646
 20
91.90314516129062
 30
0.0
 11
-233.773072580646
 21
56.90314516129062
 31
0.0
  0
LINE
  5
14C
330
32
100
AcDbEntity
  8
1
  6
Continuous
 62
     7
100
AcDbLine
 10
-243.773072580646
 20
-85.09685483870938
 30
0.0
 11
-243.773072580646
 21
-120.0968548387094
 31
0.0
  0
LINE
  5
14D
330
32
100
AcDbEntity
  8
1
  6
Continuous
 62
     7
100
AcDbLine
 10
-233.773072580646
 20
-85.09685483870938
 30
0.0
 11
-233.773072580646
 21
-120.0968548387094
 31
0.0
  0
LINE
  5
14E
330
32
100
AcDbEntity
  8
1
  6
DASHED
 62
     7
100
AcDbLine
 10
26.22692741935391
 20
81.90314516129061
 30
0.0
 11
26.22692741935391
 21
47.40314516129062
 31
0.0
  0
LINE
  5
14F
330
32
100
AcDbEntity
  8
1
  6
Continuous
 62
     7
100
AcDbLine
 10
26.22692741935391
 20
47.40314516129062
 30
0.0
 11
56.22692741935391
 21
47.40314516129062
 31
0.0
  0
LINE
  5
150
330
32
100
AcDbEntity
  8
1
  6
Continuous
 62
     7
100
AcDbLine
 10
26.22692741935391
 20
81.90314516129061
 30
0.0
 11
56.22692741935391
 21
81.90314516129064
 31
0.0
  0
LINE
  5
151
330
32
100
AcDbEntity
  8
1
  6
DASHED
 62
     7
100
AcDbLine
 10
56.22692741935391
 20
81.90314516129064
 30
0.0
 11
56.22692741935391
 21
47.40314516129062
 31
0.0
  0
LINE
  5
152
330
32
100
AcDbEntity
  8
1
  6
Continuous
 62
     7
100
AcDbLine
 10
56.22692741935391
 20
47.40314516129062
 30
0.0
 11
57.2269274193539
 21
47.40314516129062
 31
0.0
  0
LINE
  5
153
330
32
100
AcDbEntity
  8
1
  6
Continuous
 62
     7
100
AcDbLine
 10
56.22692741935391
 20
81.90314516129064
 30
0.0
 11
57.2269274193539
 21
81.90314516129062
 31
0.0
  0
LINE
  5
154
330
32
100
AcDbEntity
  8
1
  6
DASHED
 62
     7
100
AcDbLine
 10
26.32692741935389
 20
-75.59685483870938
 30
0.0
 11
26.2269274193539
 21
-77.59685483870938
 31
0.0
  0
LINE
  5
155
330
32
100
AcDbEntity
  8
1
  6
Continuous
 62
     7
100
AcDbLine
 10
26.2269274193539
 20
-77.59685483870938
 30
0.0
 11
56.2269274193539
 21
-77.59685483870938
 31
0.0
  0
LINE
  5
156
330
32
100
AcDbEntity
  8
1
  6
Continuous
 62
     7
100
AcDbLine
 10
26.32692741935389
 20
-75.59685483870938
 30
0.0
 11
-21.2730725806461
 21
-75.59685483870938
 31
0.0
  0
LINE
  5
157
330
32
100
AcDbEntity
  8
1
  6
DASHED
 62
     7
100
AcDbLine
 10
56.12692741935391
 20
-75.59685483870938
 30
0.0
 11
56.2269274193539
 21
-77.59685483870938
 31
0.0
  0
LINE
  5
158
330
32
100
AcDbEntity
  8
1
  6
Continuous
 62
     7
100
AcDbLine
 10
56.12692741935391
 20
-75.59685483870938
 30
0.0
 11
26.32692741935389
 21
-75.59685483870938
 31
0.0
  0
LINE
  5
159
330
32
100
AcDbEntity
  8
1
  6
Continuous
 62
     7
100
AcDbLine
 10
56.2269274193539
 20
-77.59685483870938
 30
0.0
 11
57.2269274193539
 21
-77.59685483870938
 31
0.0
  0
ARC
  5
15A
330
32
100
AcDbEntity
  8
1
  6
Continuous
 62
     7
100
AcDbCircle
 10
90.30473252422377
 20
41.05372632010146
 30
0.0
 40
6.00000000000021
100
AcDbArc
 50
171.7648660057483
 51
-92.90926161367662
  0
ARC
  5
15B
330
32
100
AcDbEntity
  8
1
  6
Continuous
 62
     7
100
AcDbCircle
 10
-189.6952674757762
 20
41.05372632010146
 30
0.0
 40
6.000000000000224
100
AcDbArc
 50
171.7648660057483
 51
-92.90926161367702
  0
ARC
  5
15C
330
32
100
AcDbEntity
  8
1
  6
Continuous
 62
     7
100
AcDbCircle
 10
-238.7730725806465
 20
91.9031451612911
 30
0.0
 40
4.999999999999517
100
AcDbArc
 50
89.99999999999642
 51
-179.9999999999945
  0
ARC
  5
15D
330
32
100
AcDbEntity
  8
1
  6
Continuous
 62
     7
100
AcDbCircle
 10
-238.7730725806466
 20
91.90314516129
 30
0.0
 40
5.000000000000625
100
AcDbArc
 50
0.00000000000717
 51
89.99999999999511
  0
ARC
  5
15E
330
32
100
AcDbEntity
  8
1
  6
Continuous
 62
     7
100
AcDbCircle
 10
-238.7730725806457
 20
56.90314516129099
 30
0.0
 40
5.000000000000284
100
AcDbArc
 50
-179.9999999999957
 51
-90.00000000000325
  0
ARC
  5
15F
330
32
100
AcDbEntity
  8
1
  6
Continuous
 62
     7
100
AcDbCircle
 10
-238.7730725806457
 20
56.90314516129099
 30
0.0
 40
5.000000000000377
100
AcDbArc
 50
-90.00000000000325
 51
-0.00000000000432
  0
ARC
  5
160
330
32
100
AcDbEntity
  8
1
  6
Continuous
 62
     7
100
AcDbCircle
 10
-238.7730725806456
 20
-85.09685483870977
 30
0.0
 40
5.000000000000398
100
AcDbArc
 50
90.00000000000587
 51
179.9999999999955
  0
ARC
  5
161
330
32
100
AcDbEntity
  8
1
  6
Continuous
 62
     7
100
AcDbCircle
 10
-238.7730725806456
 20
-85.09685483870977
 30
0.0
 40
4.999999999999602
100
AcDbArc
 50
0.00000000000456
 51
90.00000000000587
  0
ARC
  5
162
330
32
100
AcDbEntity
  8
1
  6
Continuous
 62
     7
100
AcDbCircle
 10
-238.7730725806464
 20
-120.0968548387097
 30
0.0
 40
4.999999999999574
100
AcDbArc
 50
179.9999999999966
 51
-89.99999999999511
  0
ARC
  5
163
330
32
100
AcDbEntity
  8
1
  6
Continuous
 62
     7
100
AcDbCircle
 10
-238.7730725806464
 20
-120.0968548387097
 30
0.0
 40
4.999999999999702
100
AcDbArc
 50
-89.99999999999511
 51
0.00000000000342
  0
ARC
  5
164
330
32
100
AcDbEntity
  8
1
  6
Continuous
 62
     7
100
AcDbCircle
 10
-10.2730725806461
 20
34.40314516129062
 30
0.0
 40
4.999999999999986
100
AcDbArc
 50
-90.0
 51
0.0
  0
ARC
  5
165
330
32
100
AcDbEntity
  8
1
  6
Continuous
 62
     7
100
AcDbCircle
 10
82.7269274193539
 20
42.40314516129062
 30
0.0
 40
5.0
100
AcDbArc
 50
0.0
 51
90.0
  0
ARC
  5
166
330
32
100
AcDbEntity
  8
1
  6
Continuous
 62
     7
100
AcDbCircle
 10
-0.2730725806461
 20
42.40314516129062
 30
0.0
 40
5.0
100
AcDbArc
 50
90.0
 51
180.0
  0
ARC
  5
167
330
32
100
AcDbEntity
  8
1
  6
Continuous
 62
     7
100
AcDbCircle
 10
-16.2730725806461
 20
24.40314516129062
 30
0.0
 40
5.0
100
AcDbArc
 50
90.0
 51
180.0
  0
ARC
  5
168
330
32
100
AcDbEntity
  8
1
  6
Continuous
 62
     7
100
AcDbCircle
 10
-26.2730725806461
 20
-43.59685483870938
 30
0.0
 40
5.0
100
AcDbArc
 50
-90.0
 51
0.0
  0
ARC
  5
169
330
32
100
AcDbEntity
  8
1
  6
Continuous
 62
     7
100
AcDbCircle
 10
119.2269274193539
 20
-58.59685483870938
 30
0.0
 40
8.0
100
AcDbArc
 50
90.0
 51
180.0
  0
ARC
  5
16A
330
32
100
AcDbEntity
  8
1
  6
Continuous
 62
     7
100
AcDbCircle
 10
90.7269274193539
 20
42.40314516129062
 30
0.0
 40
3.0
100
AcDbArc
 50
180.0
 51
-90.0
  0
ARC
  5
16B
330
32
100
AcDbEntity
  8
1
  6
Continuous
 62
     7
100
AcDbCircle
 10
110.3021368738726
 20
-37.59685483870938
 30
0.0
 40
3.000000000000012
100
AcDbArc
 50
55.73475713274041
 51
90.0
  0
ARC
  5
16C
330
32
100
AcDbEntity
  8
1
  6
Continuous
 62
     7
100
AcDbCircle
 10
110.7637828051513
 20
42.40314516129062
 30
0.0
 40
3.0
100
AcDbArc
 50
-90.0
 51
-72.44774829859213
  0
ARC
  5
16D
330
32
100
AcDbEntity
  8
1
  6
Continuous
 62
     7
100
AcDbCircle
 10
110.3296720107669
 20
28.40314516129063
 30
0.0
 40
3.0
100
AcDbArc
 50
-90.0
 51
-56.69771524668687
  0
ARC
  5
16E
330
32
100
AcDbEntity
  8
1
  6
Continuous
 62
     7
100
AcDbCircle
 10
110.4745137146735
 20
-31.59685483870938
 30
0.0
 40
2.999999999999988
100
AcDbArc
 50
61.8407561141555
 51
90.0
  0
ARC
  5
16F
330
32
100
AcDbEntity
  8
1
  6
Continuous
 62
     7
100
AcDbCircle
 10
110.5048991228423
 20
22.40314516129062
 30
0.0
 40
2.999999999999989
100
AcDbArc
 50
-90.0
 51
-62.93528899405894
  0
ARC
  5
170
330
32
100
AcDbEntity
  8
1
  6
Continuous
 62
     7
100
AcDbCircle
 10
156.0889959427561
 20
-35.59685483870938
 30
0.0
 40
14.99999999999998
100
AcDbArc
 50
-118.1592438858454
 51
-90.0
  0
ARC
  5
171
330
32
100
AcDbEntity
  8
1
  6
Continuous
 62
     7
100
AcDbCircle
 10
156.9508801467602
 20
-47.59685483870938
 30
0.0
 40
15.00000000000003
100
AcDbArc
 50
-124.2652428672597
 51
-90.0
  0
ARC
  5
172
330
32
100
AcDbEntity
  8
1
  6
Continuous
 62
     7
100
AcDbCircle
 10
156.813204462289
 20
37.40314516129062
 30
0.0
 40
15.0
100
AcDbArc
 50
90.0
 51
123.3022847533142
  0
ARC
  5
173
330
32
100
AcDbEntity
  8
1
  6
Continuous
 62
     7
100
AcDbCircle
 10
155.937068901912
 20
25.40314516129062
 30
0.0
 40
15.0
100
AcDbArc
 50
90.0
 51
117.0647110059416
  0
ARC
  5
174
330
32
100
AcDbEntity
  8
1
  6
Continuous
 62
     7
100
AcDbCircle
 10
154.6426504903668
 20
37.40314516129062
 30
0.0
 40
15.0
100
AcDbArc
 50
90.0
 51
107.5522517014072
  0
ARC
  5
175
330
32
100
AcDbEntity
  8
1
  6
Continuous
 62
     7
100
AcDbCircle
 10
154.962046994288
 20
-47.59685483870938
 30
0.0
 40
14.99999999999999
100
AcDbArc
 50
-109.9274930673796
 51
-90.0
  0
ARC
  5
176
330
32
100
AcDbEntity
  8
1
  6
Continuous
 62
     7
100
AcDbCircle
 10
-125.037953005712
 20
-47.59685483870938
 30
0.0
 40
14.99999999999999
100
AcDbArc
 50
-109.9274930673796
 51
-90.0
  0
ARC
  5
177
330
32
100
AcDbEntity
  8
1
  6
Continuous
 62
     7
100
AcDbCircle
 10
-125.3573495096332
 20
37.40314516129062
 30
0.0
 40
15.0
100
AcDbArc
 50
90.0
 51
107.5522517014077
  0
ARC
  5
178
330
32
100
AcDbEntity
  8
1
  6
Continuous
 62
     7
100
AcDbCircle
 10
-124.062931098088
 20
25.40314516129062
 30
0.0
 40
15.0
100
AcDbArc
 50
90.0
 51
117.0647110059416
  0
ARC
  5
179
330
32
100
AcDbEntity
  8
1
  6
Continuous
 62
     7
100
AcDbCircle
 10
-123.1867955377111
 20
37.40314516129062
 30
0.0
 40
15.0
100
AcDbArc
 50
90.0
 51
123.3022847533142
  0
ARC
  5
17A
330
32
100
AcDbEntity
  8
1
  6
Continuous
 62
     7
100
AcDbCircle
 10
-123.0491198532398
 20
-47.59685483870938
 30
0.0
 40
15.00000000000003
100
AcDbArc
 50
-124.2652428672597
 51
-90.0
  0
ARC
  5
17B
330
32
100
AcDbEntity
  8
1
  6
Continuous
 62
     7
100
AcDbCircle
 10
-123.9110040572439
 20
-35.59685483870938
 30
0.0
 40
14.99999999999998
100
AcDbArc
 50
-118.1592438858454
 51
-90.0
  0
ARC
  5
17C
330
32
100
AcDbEntity
  8
1
  6
Continuous
 62
     7
100
AcDbCircle
 10
-169.4951008771577
 20
22.40314516129062
 30
0.0
 40
2.999999999999989
100
AcDbArc
 50
-90.0
 51
-62.93528899405894
  0
ARC
  5
17D
330
32
100
AcDbEntity
  8
1
  6
Continuous
 62
     7
100
AcDbCircle
 10
-169.5254862853266
 20
-31.59685483870938
 30
0.0
 40
3.000000000000035
100
AcDbArc
 50
61.84075611415382
 51
90.0
  0
ARC
  5
17E
330
32
100
AcDbEntity
  8
1
  6
Continuous
 62
     7
100
AcDbCircle
 10
-169.6703279892331
 20
28.40314516129063
 30
0.0
 40
3.0
100
AcDbArc
 50
-90.0
 51
-56.69771524668664
  0
ARC
  5
17F
330
32
100
AcDbEntity
  8
1
  6
Continuous
 62
     7
100
AcDbCircle
 10
-169.2362171948487
 20
42.40314516129062
 30
0.0
 40
3.0
100
AcDbArc
 50
-90.0
 51
-72.44774829859239
  0
ARC
  5
180
330
32
100
AcDbEntity
  8
1
  6
Continuous
 62
     7
100
AcDbCircle
 10
-169.6978631261273
 20
-37.59685483870938
 30
0.0
 40
2.999999999999956
100
AcDbArc
 50
55.73475713274198
 51
90.0
  0
ARC
  5
181
330
32
100
AcDbEntity
  8
1
  6
Continuous
 62
     7
100
AcDbCircle
 10
-189.2730725806461
 20
42.40314516129062
 30
0.0
 40
3.0
100
AcDbArc
 50
180.0
 51
-90.0
  0
ARC
  5
182
330
32
100
AcDbEntity
  8
1
  6
Continuous
 62
     7
100
AcDbCircle
 10
-160.7730725806461
 20
-58.59685483870938
 30
0.0
 40
8.0
100
AcDbArc
 50
90.0
 51
180.0
  0
ARC
  5
183
330
32
100
AcDbEntity
  8
1
  6
Continuous
 62
     7
100
AcDbCircle
 10
-306.2730725806461
 20
-43.59685483870938
 30
0.0
 40
5.0
100
AcDbArc
 50
-90.0
 51
0.0
  0
ARC
  5
184
330
32
100
AcDbEntity
  8
1
  6
Continuous
 62
     7
100
AcDbCircle
 10
-296.2730725806461
 20
24.40314516129062
 30
0.0
 40
5.0
100
AcDbArc
 50
90.0
 51
180.0
  0
ARC
  5
185
330
32
100
AcDbEntity
  8
1
  6
Continuous
 62
     7
100
AcDbCircle
 10
-280.2730725806461
 20
42.40314516129062
 30
0.0
 40
5.0
100
AcDbArc
 50
90.0
 51
180.0
  0
ARC
  5
186
330
32
100
AcDbEntity
  8
1
  6
Continuous
 62
     7
100
AcDbCircle
 10
-197.2730725806461
 20
42.40314516129062
 30
0.0
 40
5.0
100
AcDbArc
 50
0.0
 51
90.0
  0
ARC
  5
187
330
32
100
AcDbEntity
  8
1
  6
Continuous
 62
     7
100
AcDbCircle
 10
-290.2730725806461
 20
34.40314516129062
 30
0.0
 40
4.999999999999986
100
AcDbArc
 50
-90.0
 51
0.0
  0
ENDBLK
  5
34
330
32
100
AcDbEntity
  8
0
100
AcDbBlockEnd
  0
BLOCK
  5
191
330
18A
100
AcDbEntity
  8
0
100
AcDbBlockBegin
  2
*D2
 70
     1
 71
     0
 10
0.0
 20
0.0
 30
0.0
  3
*D2
  1

  0
LINE
  5
18B
330
18A
100
AcDbEntity
  8
1
  6
Continuous
 62
     2
100
AcDbLine
 10
23.2269274193539
 20
118.338061027537
 30
0.0
 11
59.2269274193539
 21
118.338061027537
 31
0.0
  0
LINE
  5
18C
330
18A
100
AcDbEntity
  8
1
  6
Continuous
 62
     2
100
AcDbLine
 10
59.2269274193539
 20
79.90314516129062
 30
0.0
 11
59.2269274193539
 21
120.338061027537
 31
0.0
  0
LINE
  5
18D
330
18A
100
AcDbEntity
  8
1
  6
Continuous
 62
     2
100
AcDbLine
 10
23.2269274193539
 20
79.90314516129062
 30
0.0
 11
23.2269274193539
 21
120.338061027537
 31
0.0
  0
SOLID
  5
18E
330
18A
100
AcDbEntity
  8
1
 62
     2
100
AcDbTrace
 10
30.2269274193539
 20
119.2596285106488
 30
0.0
 11
30.2269274193539
 21
117.4164935444252
 31
0.0
 12
23.2269274193539
 22
118.338061027537
 32
0.0
 13
23.2269274193539
 23
118.338061027537
 33
0.0
  0
SOLID
  5
18F
330
18A
100
AcDbEntity
  8
1
 62
     2
100
AcDbTrace
 10
52.2269274193539
 20
117.4164935444252
 30
0.0
 11
52.2269274193539
 21
119.2596285106488
 31
0.0
 12
59.2269274193539
 22
118.338061027537
 32
0.0
 13
59.2269274193539
 23
118.338061027537
 33
0.0
  0
MTEXT
  5
190
330
18A
100
AcDbEntity
  8
1
 62
     3
100
AcDbMText
 10
24.71235924779033
 20
124.0880331992317
 30
0.0
 40
7.0
 41
0.0
 71
     7
 72
     1
  1
\C3;{\Fgdt;n}\C3;\C3;36\C2;\H4.2;\S^ f7;
  7
CONVERTER_11
 11
0.9999999999970621
 21
2.424068405545307E-6
 31
0.0
 73
     1
 44
0.60024009603842
  0
ENDBLK
  5
192
330
18A
100
AcDbEntity
  8
0
100
AcDbBlockEnd
  0
BLOCK
  5
19E
330
195
100
AcDbEntity
  8
0
100
AcDbBlockBegin
  2
*D3
 70
     1
 71
     0
 10
0.0
 20
0.0
 30
0.0
  3
*D3
  1

  0
LINE
  5
196
330
195
100
AcDbEntity
  8
1
  6
Continuous
 62
     2
100
AcDbLine
 10
-59.89523369928401
 20
-89.59685483870938
 30
0.0
 11
-59.89523369928401
 21
-75.59685483870938
 31
0.0
  0
LINE
  5
197
330
195
100
AcDbEntity
  8
1
  6
Continuous
 62
     2
100
AcDbLine
 10
-59.89523369928401
 20
-75.59685483870938
 30
0.0
 11
-59.89523369928401
 21
-62.59685483870938
 31
0.0
  0
LINE
  5
198
330
195
100
AcDbEntity
  8
1
  6
Continuous
 62
     2
100
AcDbLine
 10
-59.89523369928401
 20
-62.59685483870938
 30
0.0
 11
-59.89523369928401
 21
-48.59685483870938
 31
0.0
  0
LINE
  5
199
330
195
100
AcDbEntity
  8
1
  6
Continuous
 62
     2
100
AcDbLine
 10
-21.27307258064609
 20
-62.59685483870938
 30
0.0
 11
-61.89523369928401
 21
-62.59685483870938
 31
0.0
  0
LINE
  5
19A
330
195
100
AcDbEntity
  8
1
  6
Continuous
 62
     2
100
AcDbLine
 10
-21.27307258064609
 20
-75.59685483870938
 30
0.0
 11
-61.89523369928401
 21
-75.59685483870938
 31
0.0
  0
SOLID
  5
19B
330
195
100
AcDbEntity
  8
1
 62
     2
100
AcDbTrace
 10
-58.97366621617224
 20
-82.59685483870938
 30
0.0
 11
-60.81680118239578
 21
-82.59685483870938
 31
0.0
 12
-59.89523369928401
 22
-75.59685483870938
 32
0.0
 13
-59.89523369928401
 23
-75.59685483870938
 33
0.0
  0
SOLID
  5
19C
330
195
100
AcDbEntity
  8
1
 62
     2
100
AcDbTrace
 10
-60.81680118239578
 20
-55.59685483870938
 30
0.0
 11
-58.97366621617223
 21
-55.59685483870938
 31
0.0
 12
-59.89523369928401
 22
-62.59685483870938
 32
0.0
 13
-59.89523369928401
 23
-62.59685483870938
 33
0.0
  0
MTEXT
  5
19D
330
195
100
AcDbEntity
  8
1
 62
     3
100
AcDbMText
 10
-63.89523369928401
 20
-73.1698605655839
 30
0.0
 40
7.0
 41
0.0
 71
     7
 72
     1
  1
13
  7
CONVERTER_11
 11
0.0
 21
1.0
 31
0.0
 73
     1
 44
0.60024009603842
  0
ENDBLK
  5
19F
330
195
100
AcDbEntity
  8
0
100
AcDbBlockEnd
  0
BLOCK
  5
1AB
330
1A2
100
AcDbEntity
  8
0
100
AcDbBlockBegin
  2
*D4
 70
     1
 71
     0
 10
0.0
 20
0.0
 30
0.0
  3
*D4
  1

  0
LINE
  5
1A3
330
1A2
100
AcDbEntity
  8
1
  6
Continuous
 62
     2
100
AcDbLine
 10
-34.9839943928039
 20
-76.59685483870938
 30
0.0
 11
-34.9839943928039
 21
-62.59685483870938
 31
0.0
  0
LINE
  5
1A4
330
1A2
100
AcDbEntity
  8
1
  6
Continuous
 62
     2
100
AcDbLine
 10
-34.9839943928039
 20
-62.59685483870938
 30
0.0
 11
-34.9839943928039
 21
-48.59685483870938
 31
0.0
  0
LINE
  5
1A5
330
1A2
100
AcDbEntity
  8
1
  6
Continuous
 62
     2
100
AcDbLine
 10
-34.9839943928039
 20
-48.59685483870938
 30
0.0
 11
-34.9839943928039
 21
-34.59685483870938
 31
0.0
  0
LINE
  5
1A6
330
1A2
100
AcDbEntity
  8
1
  6
Continuous
 62
     2
100
AcDbLine
 10
-28.7730725806461
 20
-48.59685483870938
 30
0.0
 11
-36.9839943928039
 21
-48.59685483870938
 31
0.0
  0
LINE
  5
1A7
330
1A2
100
AcDbEntity
  8
1
  6
Continuous
 62
     2
100
AcDbLine
 10
-21.2730725806461
 20
-62.59685483870938
 30
0.0
 11
-36.9839943928039
 21
-62.59685483870938
 31
0.0
  0
SOLID
  5
1A8
330
1A2
100
AcDbEntity
  8
1
 62
     2
100
AcDbTrace
 10
-34.06242690969214
 20
-69.59685483870938
 30
0.0
 11
-35.90556187591567
 21
-69.59685483870938
 31
0.0
 12
-34.9839943928039
 22
-62.59685483870938
 32
0.0
 13
-34.9839943928039
 23
-62.59685483870938
 33
0.0
  0
SOLID
  5
1A9
330
1A2
100
AcDbEntity
  8
1
 62
     2
100
AcDbTrace
 10
-35.90556187591567
 20
-41.59685483870938
 30
0.0
 11
-34.06242690969213
 21
-41.59685483870938
 31
0.0
 12
-34.9839943928039
 22
-48.59685483870938
 32
0.0
 13
-34.9839943928039
 23
-48.59685483870938
 33
0.0
  0
MTEXT
  5
1AA
330
1A2
100
AcDbEntity
  8
1
 62
     3
100
AcDbMText
 10
-38.9839943928039
 20
-58.0339176958239
 30
0.0
 40
7.0
 41
0.0
 71
     7
 72
     1
  1
14
  7
CONVERTER_11
 11
0.0
 21
1.0
 31
0.0
 73
     1
 44
0.60024009603842
  0
ENDBLK
  5
1AC
330
1A2
100
AcDbEntity
  8
0
100
AcDbBlockEnd
  0
BLOCK
  5
1B6
330
1AF
100
AcDbEntity
  8
0
100
AcDbBlockBegin
  2
*D5
 70
     1
 71
     0
 10
0.0
 20
0.0
 30
0.0
  3
*D5
  1

  0
LINE
  5
1B0
330
1AF
100
AcDbEntity
  8
1
  6
Continuous
 62
     2
100
AcDbLine
 10
-59.89523369928401
 20
-62.59685483870937
 30
0.0
 11
-59.89523369928401
 21
47.40314516129063
 31
0.0
  0
LINE
  5
1B1
330
1AF
100
AcDbEntity
  8
1
  6
Continuous
 62
     2
100
AcDbLine
 10
-0.2730725806461
 20
47.40314516129063
 30
0.0
 11
-61.89523369928401
 21
47.40314516129063
 31
0.0
  0
LINE
  5
1B2
330
1AF
100
AcDbEntity
  8
1
  6
Continuous
 62
     2
100
AcDbLine
 10
-21.27307258064609
 20
-62.59685483870937
 30
0.0
 11
-61.89523369928401
 21
-62.59685483870937
 31
0.0
  0
SOLID
  5
1B3
330
1AF
100
AcDbEntity
  8
1
 62
     2
100
AcDbTrace
 10
-60.81680118239578
 20
-55.59685483870937
 30
0.0
 11
-58.97366621617223
 21
-55.59685483870937
 31
0.0
 12
-59.89523369928401
 22
-62.59685483870937
 32
0.0
 13
-59.89523369928401
 23
-62.59685483870937
 33
0.0
  0
SOLID
  5
1B4
330
1AF
100
AcDbEntity
  8
1
 62
     2
100
AcDbTrace
 10
-58.97366621617224
 20
40.40314516129063
 30
0.0
 11
-60.81680118239578
 21
40.40314516129063
 31
0.0
 12
-59.89523369928401
 22
47.40314516129063
 32
0.0
 13
-59.89523369928401
 23
47.40314516129063
 33
0.0
  0
MTEXT
  5
1B5
330
1AF
100
AcDbEntity
  8
1
 62
     3
100
AcDbMText
 10
-63.89523369928401
 20
-10.83743551222362
 30
0.0
 40
7.0
 41
0.0
 71
     7
 72
     1
  1
110
  7
CONVERTER_11
 11
0.0
 21
1.0
 31
0.0
 73
     1
 44
0.60024009603842
  0
ENDBLK
  5
1B7
330
1AF
100
AcDbEntity
  8
0
100
AcDbBlockEnd
  0
BLOCK
  5
1C1
330
1BA
100
AcDbEntity
  8
0
100
AcDbBlockBegin
  2
*D6
 70
     1
 71
     0
 10
0.0
 20
0.0
 30
0.0
  3
*D6
  1

  0
LINE
  5
1BB
330
1BA
100
AcDbEntity
  8
1
  6
Continuous
 62
     2
100
AcDbLine
 10
-34.3533301065638
 20
-5.09685483870937
 30
0.0
 11
-34.3533301065638
 21
81.90314516129064
 31
0.0
  0
LINE
  5
1BC
330
1BA
100
AcDbEntity
  8
1
  6
Continuous
 62
     2
100
AcDbLine
 10
25.2269274193539
 20
81.90314516129064
 30
0.0
 11
-36.3533301065638
 21
81.90314516129064
 31
0.0
  0
LINE
  5
1BD
330
1BA
100
AcDbEntity
  8
1
  6
Continuous
 62
     2
100
AcDbLine
 10
-27.49651008064606
 20
-5.09685483870937
 30
0.0
 11
-36.3533301065638
 21
-5.09685483870937
 31
0.0
  0
SOLID
  5
1BE
330
1BA
100
AcDbEntity
  8
1
 62
     2
100
AcDbTrace
 10
-35.27489758967558
 20
1.90314516129063
 30
0.0
 11
-33.43176262345203
 21
1.90314516129063
 31
0.0
 12
-34.3533301065638
 22
-5.09685483870937
 32
0.0
 13
-34.3533301065638
 23
-5.09685483870937
 33
0.0
  0
SOLID
  5
1BF
330
1BA
100
AcDbEntity
  8
1
 62
     2
100
AcDbTrace
 10
-33.43176262345204
 20
74.90314516129064
 30
0.0
 11
-35.27489758967558
 21
74.90314516129064
 31
0.0
 12
-34.3533301065638
 22
81.90314516129064
 32
0.0
 13
-34.3533301065638
 23
81.90314516129064
 33
0.0
  0
MTEXT
  5
1C0
330
1BA
100
AcDbEntity
  8
1
 62
     3
100
AcDbMText
 10
-38.3533301065638
 20
57.7989752585767
 30
0.0
 40
7.0
 41
0.0
 71
     7
 72
     1
  1
87
  7
CONVERTER_11
 11
0.0
 21
1.0
 31
0.0
 73
     1
 44
0.60024009603842
  0
ENDBLK
  5
1C2
330
1BA
100
AcDbEntity
  8
0
100
AcDbBlockEnd
  0
BLOCK
  5
1CC
330
1C5
100
AcDbEntity
  8
0
100
AcDbBlockBegin
  2
*D7
 70
     1
 71
     0
 10
0.0
 20
0.0
 30
0.0
  3
*D7
  1

  0
LINE
  5
1C6
330
1C5
100
AcDbEntity
  8
1
  6
Continuous
 62
     2
100
AcDbLine
 10
-5.3427729395237
 20
55.90314516129062
 30
0.0
 11
-5.3427729395237
 21
81.90314516129062
 31
0.0
  0
LINE
  5
1C7
330
1C5
100
AcDbEntity
  8
1
  6
Continuous
 62
     2
100
AcDbLine
 10
25.2269274193539
 20
81.90314516129062
 30
0.0
 11
-7.3427729395237
 21
81.90314516129062
 31
0.0
  0
LINE
  5
1C8
330
1C5
100
AcDbEntity
  8
1
  6
Continuous
 62
     2
100
AcDbLine
 10
23.2269274193539
 20
55.90314516129062
 30
0.0
 11
-7.3427729395237
 21
55.90314516129062
 31
0.0
  0
SOLID
  5
1C9
330
1C5
100
AcDbEntity
  8
1
 62
     2
100
AcDbTrace
 10
-6.26434042263547
 20
62.90314516129062
 30
0.0
 11
-4.42120545641193
 21
62.90314516129062
 31
0.0
 12
-5.3427729395237
 22
55.90314516129062
 32
0.0
 13
-5.3427729395237
 23
55.90314516129062
 33
0.0
  0
SOLID
  5
1CA
330
1C5
100
AcDbEntity
  8
1
 62
     2
100
AcDbTrace
 10
-4.42120545641193
 20
74.90314516129062
 30
0.0
 11
-6.26434042263547
 21
74.90314516129062
 31
0.0
 12
-5.3427729395237
 22
81.90314516129062
 32
0.0
 13
-5.3427729395237
 23
81.90314516129062
 33
0.0
  0
MTEXT
  5
1CB
330
1C5
100
AcDbEntity
  8
1
 62
     3
100
AcDbMText
 10
-9.3427729395237
 20
65.0516145503368
 30
0.0
 40
7.0
 41
0.0
 71
     7
 72
     1
  1
26
  7
CONVERTER_11
 11
0.0
 21
1.0
 31
0.0
 73
     1
 44
0.60024009603842
  0
ENDBLK
  5
1CD
330
1C5
100
AcDbEntity
  8
0
100
AcDbBlockEnd
  0
BLOCK
  5
1D7
330
1D0
100
AcDbEntity
  8
0
100
AcDbBlockBegin
  2
*D8
 70
     1
 71
     0
 10
0.0
 20
0.0
 30
0.0
  3
*D8
  1

  0
LINE
  5
1D1
330
1D0
100
AcDbEntity
  8
1
  6
Continuous
 62
     2
100
AcDbLine
 10
26.22692741935391
 20
99.591471724737
 30
0.0
 11
56.22692741935391
 21
99.591471724737
 31
0.0
  0
LINE
  5
1D2
330
1D0
100
AcDbEntity
  8
1
  6
Continuous
 62
     2
100
AcDbLine
 10
56.22692741935391
 20
81.90314516129064
 30
0.0
 11
56.22692741935391
 21
101.591471724737
 31
0.0
  0
LINE
  5
1D3
330
1D0
100
AcDbEntity
  8
1
  6
Continuous
 62
     2
100
AcDbLine
 10
26.22692741935391
 20
81.90314516129061
 30
0.0
 11
26.22692741935391
 21
101.591471724737
 31
0.0
  0
SOLID
  5
1D4
330
1D0
100
AcDbEntity
  8
1
 62
     2
100
AcDbTrace
 10
33.22692741935391
 20
100.5130392078488
 30
0.0
 11
33.22692741935391
 21
98.66990424162523
 31
0.0
 12
26.22692741935391
 22
99.591471724737
 32
0.0
 13
26.22692741935391
 23
99.591471724737
 33
0.0
  0
SOLID
  5
1D5
330
1D0
100
AcDbEntity
  8
1
 62
     2
100
AcDbTrace
 10
49.22692741935391
 20
98.66990424162523
 30
0.0
 11
49.22692741935391
 21
100.5130392078488
 31
0.0
 12
56.22692741935391
 22
99.591471724737
 32
0.0
 13
56.22692741935391
 23
99.591471724737
 33
0.0
  0
MTEXT
  5
1D6
330
1D0
100
AcDbEntity
  8
1
 62
     3
100
AcDbMText
 10
24.04035924779033
 20
105.3414438964317
 30
0.0
 40
7.0
 41
0.0
 71
     7
 72
     1
  1
\C3;{\Fgdt;n}\C3;\C3;30\C2;\H4.2;\SH7^ ;
  7
CONVERTER_11
 11
0.9999999999970621
 21
2.424068405545307E-6
 31
0.0
 73
     1
 44
0.60024009603842
  0
ENDBLK
  5
1D8
330
1D0
100
AcDbEntity
  8
0
100
AcDbBlockEnd
  0
BLOCK
  5
1E2
330
1DB
100
AcDbEntity
  8
0
100
AcDbBlockBegin
  2
*D9
 70
     1
 71
     0
 10
0.0
 20
0.0
 30
0.0
  3
*D9
  1

  0
LINE
  5
1DC
330
1DB
100
AcDbEntity
  8
1
  6
Continuous
 62
     2
100
AcDbLine
 10
26.2269274193539
 20
-100.3291070133441
 30
0.0
 11
56.2269274193539
 21
-100.3291070133441
 31
0.0
  0
LINE
  5
1DD
330
1DB
100
AcDbEntity
  8
1
  6
Continuous
 62
     2
100
AcDbLine
 10
56.2269274193539
 20
-77.59685483870938
 30
0.0
 11
56.2269274193539
 21
-102.3291070133441
 31
0.0
  0
LINE
  5
1DE
330
1DB
100
AcDbEntity
  8
1
  6
Continuous
 62
     2
100
AcDbLine
 10
26.2269274193539
 20
-77.59685483870938
 30
0.0
 11
26.2269274193539
 21
-102.3291070133441
 31
0.0
  0
SOLID
  5
1DF
330
1DB
100
AcDbEntity
  8
1
 62
     2
100
AcDbTrace
 10
33.2269274193539
 20
-99.40753953023233
 30
0.0
 11
33.2269274193539
 21
-101.2506744964559
 31
0.0
 12
26.2269274193539
 22
-100.3291070133441
 32
0.0
 13
26.2269274193539
 23
-100.3291070133441
 33
0.0
  0
SOLID
  5
1E0
330
1DB
100
AcDbEntity
  8
1
 62
     2
100
AcDbTrace
 10
49.2269274193539
 20
-101.2506744964559
 30
0.0
 11
49.2269274193539
 21
-99.40753953023233
 31
0.0
 12
56.2269274193539
 22
-100.3291070133441
 32
0.0
 13
56.2269274193539
 23
-100.3291070133441
 33
0.0
  0
MTEXT
  5
1E1
330
1DB
100
AcDbEntity
  8
1
 62
     3
100
AcDbMText
 10
24.35569139091033
 20
-94.57913484164939
 30
0.0
 40
7.0
 41
0.0
 71
     7
 72
     1
  1
\C3;{\Fgdt;n}\C3;\C3;30\C2;\H4.2;\SH7^ ;
  7
CONVERTER_11
 11
0.9999999999970621
 21
2.424068405545307E-6
 31
0.0
 73
     1
 44
0.60024009603842
  0
ENDBLK
  5
1E3
330
1DB
100
AcDbEntity
  8
0
100
AcDbBlockEnd
  0
BLOCK
  5
1EE
330
1E6
100
AcDbEntity
  8
0
100
AcDbBlockBegin
  2
*D10
 70
     1
 71
     0
 10
0.0
 20
0.0
 30
0.0
  3
*D10
  1

  0
LINE
  5
1E7
330
1E6
100
AcDbEntity
  8
1
  6
Continuous
 62
     2
100
AcDbLine
 10
-285.533262818077
 20
116.213385626293
 30
0.0
 11
-254.773072580646
 21
116.213385626293
 31
0.0
  0
LINE
  5
1E8
330
1E6
100
AcDbEntity
  8
1
  6
Continuous
 62
     2
100
AcDbLine
 10
-254.773072580646
 20
116.213385626293
 30
0.0
 11
-222.773072580646
 21
116.213385626293
 31
0.0
  0
LINE
  5
1E9
330
1E6
100
AcDbEntity
  8
1
  6
Continuous
 62
     2
100
AcDbLine
 10
-222.773072580646
 20
99.40314516129062
 30
0.0
 11
-222.773072580646
 21
118.213385626293
 31
0.0
  0
LINE
  5
1EA
330
1E6
100
AcDbEntity
  8
1
  6
Continuous
 62
     2
100
AcDbLine
 10
-254.773072580646
 20
99.40314516129062
 30
0.0
 11
-254.773072580646
 21
118.213385626293
 31
0.0
  0
SOLID
  5
1EB
330
1E6
100
AcDbEntity
  8
1
 62
     2
100
AcDbTrace
 10
-247.773072580646
 20
117.1349531094048
 30
0.0
 11
-247.773072580646
 21
115.2918181431812
 31
0.0
 12
-254.773072580646
 22
116.213385626293
 32
0.0
 13
-254.773072580646
 23
116.213385626293
 33
0.0
  0
SOLID
  5
1EC
330
1E6
100
AcDbEntity
  8
1
 62
     2
100
AcDbTrace
 10
-229.773072580646
 20
115.2918181431812
 30
0.0
 11
-229.773072580646
 21
117.1349531094048
 31
0.0
 12
-222.773072580646
 22
116.213385626293
 32
0.0
 13
-222.773072580646
 23
116.213385626293
 33
0.0
  0
MTEXT
  5
1ED
330
1E6
100
AcDbEntity
  8
1
 62
     3
100
AcDbMText
 10
-289.5932628180432
 20
121.9633577979877
 30
0.0
 40
7.0
 41
0.0
 71
     7
 72
     1
  1
\C3;{\Fgdt;n}\C3;\C3;32\C2;\H4.2;\S^ k6;
  7
CONVERTER_11
 11
0.9999999999970621
 21
2.424068405545307E-6
 31
0.0
 73
     1
 44
0.60024009603842
  0
ENDBLK
  5
1EF
330
1E6
100
AcDbEntity
  8
0
100
AcDbBlockEnd
  0
BLOCK
  5
1FA
330
1F2
100
AcDbEntity
  8
0
100
AcDbBlockBegin
  2
*D11
 70
     1
 71
     0
 10
0.0
 20
0.0
 30
0.0
  3
*D11
  1

  0
LINE
  5
1F3
330
1F2
100
AcDbEntity
  8
1
  6
Continuous
 62
     2
100
AcDbLine
 10
-289.044781627511
 20
-144.224259406698
 30
0.0
 11
-254.773072580646
 21
-144.224259406698
 31
0.0
  0
LINE
  5
1F4
330
1F2
100
AcDbEntity
  8
1
  6
Continuous
 62
     2
100
AcDbLine
 10
-254.773072580646
 20
-144.224259406698
 30
0.0
 11
-222.773072580646
 21
-144.224259406698
 31
0.0
  0
LINE
  5
1F5
330
1F2
100
AcDbEntity
  8
1
  6
Continuous
 62
     2
100
AcDbLine
 10
-222.773072580646
 20
-127.5968548387094
 30
0.0
 11
-222.773072580646
 21
-146.224259406698
 31
0.0
  0
LINE
  5
1F6
330
1F2
100
AcDbEntity
  8
1
  6
Continuous
 62
     2
100
AcDbLine
 10
-254.773072580646
 20
-127.5968548387094
 30
0.0
 11
-254.773072580646
 21
-146.224259406698
 31
0.0
  0
SOLID
  5
1F7
330
1F2
100
AcDbEntity
  8
1
 62
     2
100
AcDbTrace
 10
-247.773072580646
 20
-143.3026919235862
 30
0.0
 11
-247.773072580646
 21
-145.1458268898098
 31
0.0
 12
-254.773072580646
 22
-144.224259406698
 32
0.0
 13
-254.773072580646
 23
-144.224259406698
 33
0.0
  0
SOLID
  5
1F8
330
1F2
100
AcDbEntity
  8
1
 62
     2
100
AcDbTrace
 10
-229.773072580646
 20
-145.1458268898098
 30
0.0
 11
-229.773072580646
 21
-143.3026919235862
 31
0.0
 12
-222.773072580646
 22
-144.224259406698
 32
0.0
 13
-222.773072580646
 23
-144.224259406698
 33
0.0
  0
MTEXT
  5
1F9
330
1F2
100
AcDbEntity
  8
1
 62
     3
100
AcDbMText
 10
-293.1047816274772
 20
-138.4742872350033
 30
0.0
 40
7.0
 41
0.0
 71
     7
 72
     1
  1
\C3;{\Fgdt;n}\C3;\C3;32\C2;\H4.2;\S^ k6;
  7
CONVERTER_11
 11
0.9999999999970621
 21
2.424068405545307E-6
 31
0.0
 73
     1
 44
0.60024009603842
  0
ENDBLK
  5
1FB
330
1F2
100
AcDbEntity
  8
0
100
AcDbBlockEnd
  0
BLOCK
  5
207
330
1FE
100
AcDbEntity
  8
0
100
AcDbBlockBegin
  2
*D12
 70
     1
 71
     0
 10
0.0
 20
0.0
 30
0.0
  3
*D12
  1

  0
LINE
  5
1FF
330
1FE
100
AcDbEntity
  8
1
  6
Continuous
 62
     2
100
AcDbLine
 10
-268.30923185484
 20
75.6221907960269
 30
0.0
 11
-243.773072580646
 21
75.6221907960269
 31
0.0
  0
LINE
  5
200
330
1FE
100
AcDbEntity
  8
1
  6
Continuous
 62
     2
100
AcDbLine
 10
-243.773072580646
 20
75.6221907960269
 30
0.0
 11
-233.773072580646
 21
75.6221907960269
 31
0.0
  0
LINE
  5
201
330
1FE
100
AcDbEntity
  8
1
  6
Continuous
 62
     2
100
AcDbLine
 10
-233.773072580646
 20
75.6221907960269
 30
0.0
 11
-219.773072580646
 21
75.6221907960269
 31
0.0
  0
LINE
  5
202
330
1FE
100
AcDbEntity
  8
1
  6
Continuous
 62
     2
100
AcDbLine
 10
-233.773072580646
 20
56.90314516129062
 30
0.0
 11
-233.773072580646
 21
77.6221907960269
 31
0.0
  0
LINE
  5
203
330
1FE
100
AcDbEntity
  8
1
  6
Continuous
 62
     2
100
AcDbLine
 10
-243.773072580646
 20
56.90314516129062
 30
0.0
 11
-243.773072580646
 21
77.6221907960269
 31
0.0
  0
SOLID
  5
204
330
1FE
100
AcDbEntity
  8
1
 62
     2
100
AcDbTrace
 10
-250.773072580646
 20
74.70062331291513
 30
0.0
 11
-250.773072580646
 21
76.54375827913867
 31
0.0
 12
-243.773072580646
 22
75.6221907960269
 32
0.0
 13
-243.773072580646
 23
75.6221907960269
 33
0.0
  0
SOLID
  5
205
330
1FE
100
AcDbEntity
  8
1
 62
     2
100
AcDbTrace
 10
-226.773072580646
 20
76.54375827913867
 30
0.0
 11
-226.773072580646
 21
74.70062331291513
 31
0.0
 12
-233.773072580646
 22
75.6221907960269
 32
0.0
 13
-233.773072580646
 23
75.6221907960269
 33
0.0
  0
MTEXT
  5
206
330
1FE
100
AcDbEntity
  8
1
 62
     3
100
AcDbMText
 10
-268.30923185484
 20
79.6221907960269
 30
0.0
 40
7.0
 41
0.0
 71
     7
 72
     1
  1
10
  7
CONVERTER_11
 11
0.9999999999970621
 21
2.424068405545307E-6
 31
0.0
 73
     1
 44
0.60024009603842
  0
ENDBLK
  5
208
330
1FE
100
AcDbEntity
  8
0
100
AcDbBlockEnd
  0
BLOCK
  5
214
330
20B
100
AcDbEntity
  8
0
100
AcDbBlockBegin
  2
*D13
 70
     1
 71
     0
 10
0.0
 20
0.0
 30
0.0
  3
*D13
  1

  0
LINE
  5
20C
330
20B
100
AcDbEntity
  8
1
  6
Continuous
 62
     2
100
AcDbLine
 10
-270.984383064517
 20
-105.2180309781667
 30
0.0
 11
-243.773072580646
 21
-105.2180309781667
 31
0.0
  0
LINE
  5
20D
330
20B
100
AcDbEntity
  8
1
  6
Continuous
 62
     2
100
AcDbLine
 10
-243.773072580646
 20
-105.2180309781667
 30
0.0
 11
-233.773072580646
 21
-105.2180309781667
 31
0.0
  0
LINE
  5
20E
330
20B
100
AcDbEntity
  8
1
  6
Continuous
 62
     2
100
AcDbLine
 10
-233.773072580646
 20
-105.2180309781667
 30
0.0
 11
-219.773072580646
 21
-105.2180309781667
 31
0.0
  0
LINE
  5
20F
330
20B
100
AcDbEntity
  8
1
  6
Continuous
 62
     2
100
AcDbLine
 10
-233.773072580646
 20
-120.0968548387094
 30
0.0
 11
-233.773072580646
 21
-103.2180309781667
 31
0.0
  0
LINE
  5
210
330
20B
100
AcDbEntity
  8
1
  6
Continuous
 62
     2
100
AcDbLine
 10
-243.773072580646
 20
-120.0968548387094
 30
0.0
 11
-243.773072580646
 21
-103.2180309781667
 31
0.0
  0
SOLID
  5
211
330
20B
100
AcDbEntity
  8
1
 62
     2
100
AcDbTrace
 10
-250.773072580646
 20
-106.1395984612785
 30
0.0
 11
-250.773072580646
 21
-104.2964634950549
 31
0.0
 12
-243.773072580646
 22
-105.2180309781667
 32
0.0
 13
-243.773072580646
 23
-105.2180309781667
 33
0.0
  0
SOLID
  5
212
330
20B
100
AcDbEntity
  8
1
 62
     2
100
AcDbTrace
 10
-226.773072580646
 20
-104.2964634950549
 30
0.0
 11
-226.773072580646
 21
-106.1395984612785
 31
0.0
 12
-233.773072580646
 22
-105.2180309781667
 32
0.0
 13
-233.773072580646
 23
-105.2180309781667
 33
0.0
  0
MTEXT
  5
213
330
20B
100
AcDbEntity
  8
1
 62
     3
100
AcDbMText
 10
-270.984383064517
 20
-101.2180309781667
 30
0.0
 40
7.0
 41
0.0
 71
     7
 72
     1
  1
10
  7
CONVERTER_11
 11
0.9999999999970621
 21
2.424068405545307E-6
 31
0.0
 73
     1
 44
0.60024009603842
  0
ENDBLK
  5
215
330
20B
100
AcDbEntity
  8
0
100
AcDbBlockEnd
  0
BLOCK
  5
221
330
218
100
AcDbEntity
  8
0
100
AcDbBlockBegin
  2
*D14
 70
     1
 71
     0
 10
0.0
 20
0.0
 30
0.0
  3
*D14
  1

  0
LINE
  5
219
330
218
100
AcDbEntity
  8
1
  6
Continuous
 62
     2
100
AcDbLine
 10
-343.064990604604
 20
-89.59685483870938
 30
0.0
 11
-343.064990604604
 21
-75.59685483870938
 31
0.0
  0
LINE
  5
21A
330
218
100
AcDbEntity
  8
1
  6
Continuous
 62
     2
100
AcDbLine
 10
-343.064990604604
 20
-75.59685483870938
 30
0.0
 11
-343.064990604604
 21
-62.59685483870938
 31
0.0
  0
LINE
  5
21B
330
218
100
AcDbEntity
  8
1
  6
Continuous
 62
     2
100
AcDbLine
 10
-343.064990604604
 20
-62.59685483870938
 30
0.0
 11
-343.064990604604
 21
-48.59685483870938
 31
0.0
  0
LINE
  5
21C
330
218
100
AcDbEntity
  8
1
  6
Continuous
 62
     2
100
AcDbLine
 10
-301.2730725806461
 20
-62.59685483870938
 30
0.0
 11
-345.064990604604
 21
-62.59685483870938
 31
0.0
  0
LINE
  5
21D
330
218
100
AcDbEntity
  8
1
  6
Continuous
 62
     2
100
AcDbLine
 10
-301.2730725806461
 20
-75.59685483870938
 30
0.0
 11
-345.064990604604
 21
-75.59685483870938
 31
0.0
  0
SOLID
  5
21E
330
218
100
AcDbEntity
  8
1
 62
     2
100
AcDbTrace
 10
-342.1434231214923
 20
-82.59685483870938
 30
0.0
 11
-343.9865580877158
 21
-82.59685483870938
 31
0.0
 12
-343.064990604604
 22
-75.59685483870938
 32
0.0
 13
-343.064990604604
 23
-75.59685483870938
 33
0.0
  0
SOLID
  5
21F
330
218
100
AcDbEntity
  8
1
 62
     2
100
AcDbTrace
 10
-343.9865580877158
 20
-55.59685483870938
 30
0.0
 11
-342.1434231214923
 21
-55.59685483870938
 31
0.0
 12
-343.064990604604
 22
-62.59685483870938
 32
0.0
 13
-343.064990604604
 23
-62.59685483870938
 33
0.0
  0
MTEXT
  5
220
330
218
100
AcDbEntity
  8
1
 62
     3
100
AcDbMText
 10
-347.064990604604
 20
-78.95685483870938
 30
0.0
 40
7.0
 41
0.0
 71
     7
 72
     1
  1
13
  7
CONVERTER_11
 11
0.0
 21
1.0
 31
0.0
 73
     1
 44
0.60024009603842
  0
ENDBLK
  5
222
330
218
100
AcDbEntity
  8
0
100
AcDbBlockEnd
  0
BLOCK
  5
22E
330
225
100
AcDbEntity
  8
0
100
AcDbBlockBegin
  2
*D15
 70
     1
 71
     0
 10
0.0
 20
0.0
 30
0.0
  3
*D15
  1

  0
LINE
  5
226
330
225
100
AcDbEntity
  8
1
  6
Continuous
 62
     2
100
AcDbLine
 10
-317.793390781036
 20
-76.59685483870938
 30
0.0
 11
-317.793390781036
 21
-62.59685483870938
 31
0.0
  0
LINE
  5
227
330
225
100
AcDbEntity
  8
1
  6
Continuous
 62
     2
100
AcDbLine
 10
-317.793390781036
 20
-62.59685483870938
 30
0.0
 11
-317.793390781036
 21
-48.59685483870938
 31
0.0
  0
LINE
  5
228
330
225
100
AcDbEntity
  8
1
  6
Continuous
 62
     2
100
AcDbLine
 10
-317.793390781036
 20
-48.59685483870938
 30
0.0
 11
-317.793390781036
 21
-34.59685483870938
 31
0.0
  0
LINE
  5
229
330
225
100
AcDbEntity
  8
1
  6
Continuous
 62
     2
100
AcDbLine
 10
-301.2730725806461
 20
-48.59685483870938
 30
0.0
 11
-319.793390781036
 21
-48.59685483870938
 31
0.0
  0
LINE
  5
22A
330
225
100
AcDbEntity
  8
1
  6
Continuous
 62
     2
100
AcDbLine
 10
-301.2730725806461
 20
-62.59685483870938
 30
0.0
 11
-319.793390781036
 21
-62.59685483870938
 31
0.0
  0
SOLID
  5
22B
330
225
100
AcDbEntity
  8
1
 62
     2
100
AcDbTrace
 10
-316.8718232979243
 20
-69.59685483870938
 30
0.0
 11
-318.7149582641478
 21
-69.59685483870938
 31
0.0
 12
-317.793390781036
 22
-62.59685483870938
 32
0.0
 13
-317.793390781036
 23
-62.59685483870938
 33
0.0
  0
SOLID
  5
22C
330
225
100
AcDbEntity
  8
1
 62
     2
100
AcDbTrace
 10
-318.7149582641478
 20
-41.59685483870938
 30
0.0
 11
-316.8718232979243
 21
-41.59685483870938
 31
0.0
 12
-317.793390781036
 22
-48.59685483870938
 32
0.0
 13
-317.793390781036
 23
-48.59685483870938
 33
0.0
  0
MTEXT
  5
22D
330
225
100
AcDbEntity
  8
1
 62
     3
100
AcDbMText
 10
-321.793390781036
 20
-56.2890878071321
 30
0.0
 40
7.0
 41
0.0
 71
     7
 72
     1
  1
14
  7
CONVERTER_11
 11
0.0
 21
1.0
 31
0.0
 73
     1
 44
0.60024009603842
  0
ENDBLK
  5
22F
330
225
100
AcDbEntity
  8
0
100
AcDbBlockEnd
  0
BLOCK
  5
239
330
232
100
AcDbEntity
  8
0
100
AcDbBlockBegin
  2
*D16
 70
     1
 71
     0
 10
0.0
 20
0.0
 30
0.0
  3
*D16
  1

  0
LINE
  5
233
330
232
100
AcDbEntity
  8
1
  6
Continuous
 62
     2
100
AcDbLine
 10
-343.064990604604
 20
-62.59685483870937
 30
0.0
 11
-343.064990604604
 21
47.40314516129062
 31
0.0
  0
LINE
  5
234
330
232
100
AcDbEntity
  8
1
  6
Continuous
 62
     2
100
AcDbLine
 10
-280.2730725806461
 20
47.40314516129062
 30
0.0
 11
-345.064990604604
 21
47.40314516129062
 31
0.0
  0
LINE
  5
235
330
232
100
AcDbEntity
  8
1
  6
Continuous
 62
     2
100
AcDbLine
 10
-301.2730725806461
 20
-62.59685483870937
 30
0.0
 11
-345.064990604604
 21
-62.59685483870937
 31
0.0
  0
SOLID
  5
236
330
232
100
AcDbEntity
  8
1
 62
     2
100
AcDbTrace
 10
-343.9865580877158
 20
-55.59685483870937
 30
0.0
 11
-342.1434231214923
 21
-55.59685483870937
 31
0.0
 12
-343.064990604604
 22
-62.59685483870937
 32
0.0
 13
-343.064990604604
 23
-62.59685483870937
 33
0.0
  0
SOLID
  5
237
330
232
100
AcDbEntity
  8
1
 62
     2
100
AcDbTrace
 10
-342.1434231214923
 20
40.40314516129062
 30
0.0
 11
-343.9865580877158
 21
40.40314516129062
 31
0.0
 12
-343.064990604604
 22
47.40314516129062
 32
0.0
 13
-343.064990604604
 23
47.40314516129062
 33
0.0
  0
MTEXT
  5
238
330
232
100
AcDbEntity
  8
1
 62
     3
100
AcDbMText
 10
-347.064990604604
 20
-3.63514818646175
 30
0.0
 40
7.0
 41
0.0
 71
     7
 72
     1
  1
110
  7
CONVERTER_11
 11
0.0
 21
1.0
 31
0.0
 73
     1
 44
0.60024009603842
  0
ENDBLK
  5
23A
330
232
100
AcDbEntity
  8
0
100
AcDbBlockEnd
  0
BLOCK
  5
246
330
23D
100
AcDbEntity
  8
0
100
AcDbBlockBegin
  2
*D17
 70
     1
 71
     0
 10
0.0
 20
0.0
 30
0.0
  3
*D17
  1

  0
LINE
  5
23E
330
23D
100
AcDbEntity
  8
1
  6
Continuous
 62
     2
100
AcDbLine
 10
-151.632621941079
 20
-91.59685483870938
 30
0.0
 11
-151.632621941079
 21
-77.59685483870938
 31
0.0
  0
LINE
  5
23F
330
23D
100
AcDbEntity
  8
1
  6
Continuous
 62
     2
100
AcDbLine
 10
-151.632621941079
 20
-77.59685483870938
 30
0.0
 11
-151.632621941079
 21
-75.59685483870938
 31
0.0
  0
LINE
  5
240
330
23D
100
AcDbEntity
  8
1
  6
Continuous
 62
     2
100
AcDbLine
 10
-151.632621941079
 20
-75.59685483870938
 30
0.0
 11
-151.632621941079
 21
-61.59685483870938
 31
0.0
  0
LINE
  5
241
330
23D
100
AcDbEntity
  8
1
  6
Continuous
 62
     2
100
AcDbLine
 10
-176.2730725806461
 20
-75.59685483870938
 30
0.0
 11
-149.632621941079
 21
-75.59685483870938
 31
0.0
  0
LINE
  5
242
330
23D
100
AcDbEntity
  8
1
  6
Continuous
 62
     2
100
AcDbLine
 10
-222.7730725806461
 20
-77.59685483870938
 30
0.0
 11
-149.632621941079
 21
-77.59685483870938
 31
0.0
  0
SOLID
  5
243
330
23D
100
AcDbEntity
  8
1
 62
     2
100
AcDbTrace
 10
-150.7110544579672
 20
-84.59685483870938
 30
0.0
 11
-152.5541894241908
 21
-84.59685483870938
 31
0.0
 12
-151.632621941079
 22
-77.59685483870938
 32
0.0
 13
-151.632621941079
 23
-77.59685483870938
 33
0.0
  0
SOLID
  5
244
330
23D
100
AcDbEntity
  8
1
 62
     2
100
AcDbTrace
 10
-152.5541894241908
 20
-68.59685483870938
 30
0.0
 11
-150.7110544579672
 21
-68.59685483870938
 31
0.0
 12
-151.632621941079
 22
-75.59685483870938
 32
0.0
 13
-151.632621941079
 23
-75.59685483870938
 33
0.0
  0
MTEXT
  5
245
330
23D
100
AcDbEntity
  8
1
 62
     3
100
AcDbMText
 10
-155.632621941079
 20
-70.40383769686191
 30
0.0
 40
7.0
 41
0.0
 71
     7
 72
     1
  1
2
  7
CONVERTER_11
 11
0.0
 21
1.0
 31
0.0
 73
     1
 44
0.60024009603842
  0
ENDBLK
  5
247
330
23D
100
AcDbEntity
  8
0
100
AcDbBlockEnd
  0
BLOCK
  5
253
330
24A
100
AcDbEntity
  8
0
100
AcDbBlockBegin
  2
*D18
 70
     1
 71
     0
 10
0.0
 20
0.0
 30
0.0
  3
*D18
  1

  0
LINE
  5
24B
330
24A
100
AcDbEntity
  8
1
  6
Continuous
 62
     2
100
AcDbLine
 10
-172.895030209975
 20
33.40314516129064
 30
0.0
 11
-172.895030209975
 21
47.40314516129064
 31
0.0
  0
LINE
  5
24C
330
24A
100
AcDbEntity
  8
1
  6
Continuous
 62
     2
100
AcDbLine
 10
-172.895030209975
 20
47.40314516129064
 30
0.0
 11
-172.895030209975
 21
49.40314516129062
 31
0.0
  0
LINE
  5
24D
330
24A
100
AcDbEntity
  8
1
  6
Continuous
 62
     2
100
AcDbLine
 10
-172.895030209975
 20
49.40314516129062
 30
0.0
 11
-172.895030209975
 21
63.40314516129062
 31
0.0
  0
LINE
  5
24E
330
24A
100
AcDbEntity
  8
1
  6
Continuous
 62
     2
100
AcDbLine
 10
-222.773072580646
 20
49.40314516129062
 30
0.0
 11
-170.895030209975
 21
49.40314516129062
 31
0.0
  0
LINE
  5
24F
330
24A
100
AcDbEntity
  8
1
  6
Continuous
 62
     2
100
AcDbLine
 10
-218.7730725806461
 20
47.40314516129064
 30
0.0
 11
-170.895030209975
 21
47.40314516129064
 31
0.0
  0
SOLID
  5
250
330
24A
100
AcDbEntity
  8
1
 62
     2
100
AcDbTrace
 10
-171.9734627268632
 20
40.40314516129064
 30
0.0
 11
-173.8165976930868
 21
40.40314516129064
 31
0.0
 12
-172.895030209975
 22
47.40314516129064
 32
0.0
 13
-172.895030209975
 23
47.40314516129064
 33
0.0
  0
SOLID
  5
251
330
24A
100
AcDbEntity
  8
1
 62
     2
100
AcDbTrace
 10
-173.8165976930868
 20
56.40314516129062
 30
0.0
 11
-171.9734627268632
 21
56.40314516129062
 31
0.0
 12
-172.895030209975
 22
49.40314516129062
 32
0.0
 13
-172.895030209975
 23
49.40314516129062
 33
0.0
  0
MTEXT
  5
252
330
24A
100
AcDbEntity
  8
1
 62
     3
100
AcDbMText
 10
-176.895030209975
 20
42.1649626361967
 30
0.0
 40
7.0
 41
0.0
 71
     7
 72
     1
  1
2
  7
CONVERTER_11
 11
0.0
 21
1.0
 31
0.0
 73
     1
 44
0.60024009603842
  0
ENDBLK
  5
254
330
24A
100
AcDbEntity
  8
0
100
AcDbBlockEnd
  0
BLOCK
  5
25E
330
257
100
AcDbEntity
  8
0
100
AcDbBlockBegin
  2
*D19
 70
     1
 71
     0
 10
0.0
 20
0.0
 30
0.0
  3
*D19
  1

  0
LINE
  5
258
330
257
100
AcDbEntity
  8
1
  6
Continuous
 62
     2
100
AcDbLine
 10
-127.566008681679
 20
-127.5968548387094
 30
0.0
 11
-127.566008681679
 21
-77.59685483870938
 31
0.0
  0
LINE
  5
259
330
257
100
AcDbEntity
  8
1
  6
Continuous
 62
     2
100
AcDbLine
 10
-222.7730725806461
 20
-77.59685483870938
 30
0.0
 11
-125.566008681679
 21
-77.59685483870938
 31
0.0
  0
LINE
  5
25A
330
257
100
AcDbEntity
  8
1
  6
Continuous
 62
     2
100
AcDbLine
 10
-222.773072580646
 20
-127.5968548387094
 30
0.0
 11
-125.566008681679
 21
-127.5968548387094
 31
0.0
  0
SOLID
  5
25B
330
257
100
AcDbEntity
  8
1
 62
     2
100
AcDbTrace
 10
-128.4875761647908
 20
-120.5968548387094
 30
0.0
 11
-126.6444411985672
 21
-120.5968548387094
 31
0.0
 12
-127.566008681679
 22
-127.5968548387094
 32
0.0
 13
-127.566008681679
 23
-127.5968548387094
 33
0.0
  0
SOLID
  5
25C
330
257
100
AcDbEntity
  8
1
 62
     2
100
AcDbTrace
 10
-126.6444411985672
 20
-84.59685483870938
 30
0.0
 11
-128.4875761647908
 21
-84.59685483870938
 31
0.0
 12
-127.566008681679
 22
-77.59685483870938
 32
0.0
 13
-127.566008681679
 23
-77.59685483870938
 33
0.0
  0
MTEXT
  5
25D
330
257
100
AcDbEntity
  8
1
 62
     3
100
AcDbMText
 10
-131.566008681679
 20
-104.715866930553
 30
0.0
 40
7.0
 41
0.0
 71
     7
 72
     1
  1
50
  7
CONVERTER_11
 11
0.0
 21
1.0
 31
0.0
 73
     1
 44
0.60024009603842
  0
ENDBLK
  5
25F
330
257
100
AcDbEntity
  8
0
100
AcDbBlockEnd
  0
BLOCK
  5
26B
330
262
100
AcDbEntity
  8
0
100
AcDbBlockBegin
  2
*D20
 70
     1
 71
     0
 10
0.0
 20
0.0
 30
0.0
  3
*D20
  1

  0
LINE
  5
263
330
262
100
AcDbEntity
  8
1
  6
Continuous
 62
     2
100
AcDbLine
 10
-190.957727856049
 20
-146.536816685258
 30
0.0
 11
-190.957727856049
 21
-127.5968548387094
 31
0.0
  0
LINE
  5
264
330
262
100
AcDbEntity
  8
1
  6
Continuous
 62
     2
100
AcDbLine
 10
-190.957727856049
 20
-127.5968548387094
 30
0.0
 11
-190.957727856049
 21
-125.0968548387094
 31
0.0
  0
LINE
  5
265
330
262
100
AcDbEntity
  8
1
  6
Continuous
 62
     2
100
AcDbLine
 10
-190.957727856049
 20
-125.0968548387094
 30
0.0
 11
-190.957727856049
 21
-111.0968548387094
 31
0.0
  0
LINE
  5
266
330
262
100
AcDbEntity
  8
1
  6
Continuous
 62
     2
100
AcDbLine
 10
-238.773072580646
 20
-125.0968548387094
 30
0.0
 11
-188.957727856049
 21
-125.0968548387094
 31
0.0
  0
LINE
  5
267
330
262
100
AcDbEntity
  8
1
  6
Continuous
 62
     2
100
AcDbLine
 10
-222.773072580646
 20
-127.5968548387094
 30
0.0
 11
-188.957727856049
 21
-127.5968548387094
 31
0.0
  0
SOLID
  5
268
330
262
100
AcDbEntity
  8
1
 62
     2
100
AcDbTrace
 10
-190.0361603729372
 20
-134.5968548387094
 30
0.0
 11
-191.8792953391608
 21
-134.5968548387094
 31
0.0
 12
-190.957727856049
 22
-127.5968548387094
 32
0.0
 13
-190.957727856049
 23
-127.5968548387094
 33
0.0
  0
SOLID
  5
269
330
262
100
AcDbEntity
  8
1
 62
     2
100
AcDbTrace
 10
-191.8792953391608
 20
-118.0968548387094
 30
0.0
 11
-190.0361603729372
 21
-118.0968548387094
 31
0.0
 12
-190.957727856049
 22
-125.0968548387094
 32
0.0
 13
-190.957727856049
 23
-125.0968548387094
 33
0.0
  0
MTEXT
  5
26A
330
262
100
AcDbEntity
  8
1
 62
     3
100
AcDbMText
 10
-194.957727856049
 20
-146.536816685258
 30
0.0
 40
7.0
 41
0.0
 71
     7
 72
     1
  1
2.5
  7
CONVERTER_11
 11
0.0
 21
1.0
 31
0.0
 73
     1
 44
0.60024009603842
  0
ENDBLK
  5
26C
330
262
100
AcDbEntity
  8
0
100
AcDbBlockEnd
  0
BLOCK
  5
276
330
26F
100
AcDbEntity
  8
0
100
AcDbBlockBegin
  2
*D21
 70
     1
 71
     0
 10
0.0
 20
0.0
 30
0.0
  3
*D21
  1

  0
LINE
  5
270
330
26F
100
AcDbEntity
  8
1
  6
Continuous
 62
     2
100
AcDbLine
 10
-190.957727856049
 20
-125.0968548387094
 30
0.0
 11
-190.957727856049
 21
-80.09685483870938
 31
0.0
  0
LINE
  5
271
330
26F
100
AcDbEntity
  8
1
  6
Continuous
 62
     2
100
AcDbLine
 10
-238.7730725806461
 20
-80.09685483870938
 30
0.0
 11
-188.957727856049
 21
-80.09685483870938
 31
0.0
  0
LINE
  5
272
330
26F
100
AcDbEntity
  8
1
  6
Continuous
 62
     2
100
AcDbLine
 10
-238.773072580646
 20
-125.0968548387094
 30
0.0
 11
-188.957727856049
 21
-125.0968548387094
 31
0.0
  0
SOLID
  5
273
330
26F
100
AcDbEntity
  8
1
 62
     2
100
AcDbTrace
 10
-191.8792953391608
 20
-118.0968548387094
 30
0.0
 11
-190.0361603729372
 21
-118.0968548387094
 31
0.0
 12
-190.957727856049
 22
-125.0968548387094
 32
0.0
 13
-190.957727856049
 23
-125.0968548387094
 33
0.0
  0
SOLID
  5
274
330
26F
100
AcDbEntity
  8
1
 62
     2
100
AcDbTrace
 10
-190.0361603729372
 20
-87.09685483870938
 30
0.0
 11
-191.8792953391608
 21
-87.09685483870938
 31
0.0
 12
-190.957727856049
 22
-80.09685483870938
 32
0.0
 13
-190.957727856049
 23
-80.09685483870938
 33
0.0
  0
MTEXT
  5
275
330
26F
100
AcDbEntity
  8
1
 62
     3
100
AcDbMText
 10
-194.957727856049
 20
-105.525984747478
 30
0.0
 40
7.0
 41
0.0
 71
     7
 72
     1
  1
45
  7
CONVERTER_11
 11
0.0
 21
1.0
 31
0.0
 73
     1
 44
0.60024009603842
  0
ENDBLK
  5
277
330
26F
100
AcDbEntity
  8
0
100
AcDbBlockEnd
  0
BLOCK
  5
281
330
27A
100
AcDbEntity
  8
0
100
AcDbBlockBegin
  2
*D22
 70
     1
 71
     0
 10
0.0
 20
0.0
 30
0.0
  3
*D22
  1

  0
LINE
  5
27B
330
27A
100
AcDbEntity
  8
1
  6
Continuous
 62
     2
100
AcDbLine
 10
-153.731158267154
 20
49.40314516129062
 30
0.0
 11
-153.731158267154
 21
99.40314516129062
 31
0.0
  0
LINE
  5
27C
330
27A
100
AcDbEntity
  8
1
  6
Continuous
 62
     2
100
AcDbLine
 10
-222.773072580646
 20
99.40314516129062
 30
0.0
 11
-151.731158267154
 21
99.40314516129062
 31
0.0
  0
LINE
  5
27D
330
27A
100
AcDbEntity
  8
1
  6
Continuous
 62
     2
100
AcDbLine
 10
-222.773072580646
 20
49.40314516129062
 30
0.0
 11
-151.731158267154
 21
49.40314516129062
 31
0.0
  0
SOLID
  5
27E
330
27A
100
AcDbEntity
  8
1
 62
     2
100
AcDbTrace
 10
-154.6527257502658
 20
56.40314516129062
 30
0.0
 11
-152.8095907840422
 21
56.40314516129062
 31
0.0
 12
-153.731158267154
 22
49.40314516129062
 32
0.0
 13
-153.731158267154
 23
49.40314516129062
 33
0.0
  0
SOLID
  5
27F
330
27A
100
AcDbEntity
  8
1
 62
     2
100
AcDbTrace
 10
-152.8095907840422
 20
92.40314516129062
 30
0.0
 11
-154.6527257502658
 21
92.40314516129062
 31
0.0
 12
-153.731158267154
 22
99.40314516129062
 32
0.0
 13
-153.731158267154
 23
99.40314516129062
 33
0.0
  0
MTEXT
  5
280
330
27A
100
AcDbEntity
  8
1
 62
     3
100
AcDbMText
 10
-157.731158267154
 20
70.4574626226937
 30
0.0
 40
7.0
 41
0.0
 71
     7
 72
     1
  1
50
  7
CONVERTER_11
 11
0.0
 21
1.0
 31
0.0
 73
     1
 44
0.60024009603842
  0
ENDBLK
  5
282
330
27A
100
AcDbEntity
  8
0
100
AcDbBlockEnd
  0
BLOCK
  5
28E
330
285
100
AcDbEntity
  8
0
100
AcDbBlockBegin
  2
*D23
 70
     1
 71
     0
 10
0.0
 20
0.0
 30
0.0
  3
*D23
  1

  0
LINE
  5
286
330
285
100
AcDbEntity
  8
1
  6
Continuous
 62
     2
100
AcDbLine
 10
-198.071097272113
 20
121.289185165473
 30
0.0
 11
-198.071097272113
 21
99.40314516129062
 31
0.0
  0
LINE
  5
287
330
285
100
AcDbEntity
  8
1
  6
Continuous
 62
     2
100
AcDbLine
 10
-198.071097272113
 20
99.40314516129062
 30
0.0
 11
-198.071097272113
 21
96.90314516129062
 31
0.0
  0
LINE
  5
288
330
285
100
AcDbEntity
  8
1
  6
Continuous
 62
     2
100
AcDbLine
 10
-198.071097272113
 20
96.90314516129062
 30
0.0
 11
-198.071097272113
 21
82.90314516129062
 31
0.0
  0
LINE
  5
289
330
285
100
AcDbEntity
  8
1
  6
Continuous
 62
     2
100
AcDbLine
 10
-238.7730725806462
 20
96.90314516129062
 30
0.0
 11
-196.071097272113
 21
96.90314516129062
 31
0.0
  0
LINE
  5
28A
330
285
100
AcDbEntity
  8
1
  6
Continuous
 62
     2
100
AcDbLine
 10
-222.773072580646
 20
99.40314516129062
 30
0.0
 11
-196.071097272113
 21
99.40314516129062
 31
0.0
  0
SOLID
  5
28B
330
285
100
AcDbEntity
  8
1
 62
     2
100
AcDbTrace
 10
-198.9926647552248
 20
106.4031451612906
 30
0.0
 11
-197.1495297890012
 21
106.4031451612906
 31
0.0
 12
-198.071097272113
 22
99.40314516129062
 32
0.0
 13
-198.071097272113
 23
99.40314516129062
 33
0.0
  0
SOLID
  5
28C
330
285
100
AcDbEntity
  8
1
 62
     2
100
AcDbTrace
 10
-197.1495297890012
 20
89.90314516129062
 30
0.0
 11
-198.9926647552248
 21
89.90314516129062
 31
0.0
 12
-198.071097272113
 22
96.90314516129062
 32
0.0
 13
-198.071097272113
 23
96.90314516129062
 33
0.0
  0
MTEXT
  5
28D
330
285
100
AcDbEntity
  8
1
 62
     3
100
AcDbMText
 10
-202.071097272113
 20
111.069185165473
 30
0.0
 40
7.0
 41
0.0
 71
     7
 72
     1
  1
2.5
  7
CONVERTER_11
 11
0.0
 21
1.0
 31
0.0
 73
     1
 44
0.60024009603842
  0
ENDBLK
  5
28F
330
285
100
AcDbEntity
  8
0
100
AcDbBlockEnd
  0
BLOCK
  5
299
330
292
100
AcDbEntity
  8
0
100
AcDbBlockBegin
  2
*D24
 70
     1
 71
     0
 10
0.0
 20
0.0
 30
0.0
  3
*D24
  1

  0
LINE
  5
293
330
292
100
AcDbEntity
  8
1
  6
Continuous
 62
     2
100
AcDbLine
 10
-198.071097272113
 20
96.90314516129062
 30
0.0
 11
-198.071097272113
 21
51.90314516129062
 31
0.0
  0
LINE
  5
294
330
292
100
AcDbEntity
  8
1
  6
Continuous
 62
     2
100
AcDbLine
 10
-238.773072580646
 20
51.90314516129062
 30
0.0
 11
-196.071097272113
 21
51.90314516129062
 31
0.0
  0
LINE
  5
295
330
292
100
AcDbEntity
  8
1
  6
Continuous
 62
     2
100
AcDbLine
 10
-238.7730725806462
 20
96.90314516129062
 30
0.0
 11
-196.071097272113
 21
96.90314516129062
 31
0.0
  0
SOLID
  5
296
330
292
100
AcDbEntity
  8
1
 62
     2
100
AcDbTrace
 10
-197.1495297890012
 20
89.90314516129062
 30
0.0
 11
-198.9926647552248
 21
89.90314516129062
 31
0.0
 12
-198.071097272113
 22
96.90314516129062
 32
0.0
 13
-198.071097272113
 23
96.90314516129062
 33
0.0
  0
SOLID
  5
297
330
292
100
AcDbEntity
  8
1
 62
     2
100
AcDbTrace
 10
-198.9926647552248
 20
58.90314516129062
 30
0.0
 11
-197.1495297890012
 21
58.90314516129062
 31
0.0
 12
-198.071097272113
 22
51.90314516129062
 32
0.0
 13
-198.071097272113
 23
51.90314516129062
 33
0.0
  0
MTEXT
  5
298
330
292
100
AcDbEntity
  8
1
 62
     3
100
AcDbMText
 10
-202.071097272113
 20
67.07560286807819
 30
0.0
 40
7.0
 41
0.0
 71
     7
 72
     1
  1
45
  7
CONVERTER_11
 11
0.0
 21
1.0
 31
0.0
 73
     1
 44
0.60024009603842
  0
ENDBLK
  5
29A
330
292
100
AcDbEntity
  8
0
100
AcDbBlockEnd
  0
ENDSEC
  0
SECTION
  2
ENTITIES
  0
INSERT
  5
35
330
1F
100
AcDbEntity
  8
0
100
AcDbBlockReference
  2
TOP
 10
-271.6530725806461
 20
-140.9664999999998
 30
0.0
  0
MTEXT
  5
189
330
1F
100
AcDbEntity
  8
1
 62
     3
100
AcDbMText
 10
155.637285067726
 20
-110.393627740663
 30
0.0
 40
7.0
 41
0.0
 71
     5
 72
     1
  1
K3017
  7
CONVERTER_11
 73
     1
 44
1.32052821128451
  0
DIMENSION
  5
194
330
1F
100
AcDbEntity
  8
1
100
AcDbDimension
  2
*D2
 10
23.2269274193539
 20
118.338061027537
 30
0.0
 11
40.4483592477566
 21
127.588061027537
 31
0.0
 70
    32
  1
<>
 71
     5
 42
-1.0
 53
0.00013888888889
  3
ME10_DIM_10
100
AcDbAlignedDimension
 13
59.2269274193539
 23
79.90314516129062
 33
0.0
 14
23.2269274193539
 24
79.90314516129062
 34
0.0
100
AcDbRotatedDimension
  0
DIMENSION
  5
1A1
330
1F
100
AcDbEntity
  8
1
100
AcDbDimension
  2
*D3
 10
-59.89523369928401
 20
-75.59685483870938
 30
0.0
 11
-67.395233699284
 21
-69.8098605655839
 31
0.0
 70
    32
  1
<>
 71
     5
 42
-1.0
 53
90.0
  3
ME10_DIM_11
100
AcDbAlignedDimension
 13
-21.2730725806461
 23
-62.59685483870938
 33
0.0
 14
-21.2730725806461
 24
-75.59685483870938
 34
0.0
 50
90.0
100
AcDbRotatedDimension
  0
DIMENSION
  5
1AE
330
1F
100
AcDbEntity
  8
1
100
AcDbDimension
  2
*D4
 10
-34.9839943928039
 20
-62.59685483870938
 30
0.0
 11
-42.4839943928039
 21
-54.6739176958239
 31
0.0
 70
    32
  1
<>
 71
     5
 42
-1.0
 53
90.0
  3
ME10_DIM_12
100
AcDbAlignedDimension
 13
-28.7730725806461
 23
-48.59685483870938
 33
0.0
 14
-21.2730725806461
 24
-62.59685483870938
 34
0.0
 50
90.0
100
AcDbRotatedDimension
  0
DIMENSION
  5
1B9
330
1F
100
AcDbEntity
  8
1
100
AcDbDimension
  2
*D5
 10
-59.89523369928401
 20
-62.59685483870937
 30
0.0
 11
-67.395233699284
 21
-5.79743551222362
 31
0.0
 70
    32
  1
<>
 71
     5
 42
-1.0
 53
90.0
  3
ME10_DIM_13
100
AcDbAlignedDimension
 13
-0.2730725806461
 23
47.40314516129062
 33
0.0
 14
-21.2730725806461
 24
-62.59685483870938
 34
0.0
 50
90.0
100
AcDbRotatedDimension
  0
DIMENSION
  5
1C4
330
1F
100
AcDbEntity
  8
1
100
AcDbDimension
  2
*D6
 10
-34.3533301065638
 20
-5.09685483870937
 30
0.0
 11
-41.8533301065638
 21
61.9989752585767
 31
0.0
 70
    32
  1
<>
 71
     5
 42
-1.0
 53
90.0
  3
ME10_DIM_14
100
AcDbAlignedDimension
 13
25.2269274193539
 23
81.90314516129062
 33
0.0
 14
-27.49651008064607
 24
-5.09685483870938
 34
0.0
 50
90.0
100
AcDbRotatedDimension
  0
DIMENSION
  5
1CF
330
1F
100
AcDbEntity
  8
1
100
AcDbDimension
  2
*D7
 10
-5.3427729395237
 20
55.90314516129062
 30
0.0
 11
-12.8427729395237
 21
69.2516145503368
 31
0.0
 70
    32
  1
<>
 71
     5
 42
-1.0
 53
90.0
  3
ME10_DIM_15
100
AcDbAlignedDimension
 13
25.2269274193539
 23
81.90314516129062
 33
0.0
 14
23.2269274193539
 24
55.90314516129062
 34
0.0
 50
90.0
100
AcDbRotatedDimension
  0
DIMENSION
  5
1DA
330
1F
100
AcDbEntity
  8
1
100
AcDbDimension
  2
*D8
 10
26.22692741935391
 20
99.591471724737
 30
0.0
 11
40.4483592477566
 21
108.841471724737
 31
0.0
 70
    32
  1
<>
 71
     5
 42
-1.0
 53
0.00013888888889
  3
ME10_DIM_16
100
AcDbAlignedDimension
 13
56.22692741935391
 23
81.90314516129064
 33
0.0
 14
26.22692741935391
 24
81.90314516129061
 34
0.0
100
AcDbRotatedDimension
  0
DIMENSION
  5
1E5
330
1F
100
AcDbEntity
  8
1
100
AcDbDimension
  2
*D9
 10
26.2269274193539
 20
-100.3291070133441
 30
0.0
 11
40.7636913908766
 21
-91.0791070133441
 31
0.0
 70
    32
  1
<>
 71
     5
 42
-1.0
 53
0.00013888888889
  3
ME10_DIM_17
100
AcDbAlignedDimension
 13
56.2269274193539
 23
-77.59685483870938
 33
0.0
 14
26.2269274193539
 24
-77.59685483870938
 34
0.0
100
AcDbRotatedDimension
  0
DIMENSION
  5
1F1
330
1F
100
AcDbEntity
  8
1
100
AcDbDimension
  2
*D10
 10
-254.773072580646
 20
116.213385626293
 30
0.0
 11
-273.353262818077
 21
125.463385626293
 31
0.0
 70
    32
  1
<>
 71
     5
 42
-1.0
 53
0.00013888888889
  3
ME10_DIM_18
100
AcDbAlignedDimension
 13
-222.773072580646
 23
99.40314516129062
 33
0.0
 14
-254.773072580646
 24
99.40314516129062
 34
0.0
100
AcDbRotatedDimension
  0
DIMENSION
  5
1FD
330
1F
100
AcDbEntity
  8
1
100
AcDbDimension
  2
*D11
 10
-254.773072580646
 20
-144.224259406698
 30
0.0
 11
-276.864781627511
 21
-134.974259406698
 31
0.0
 70
    32
  1
<>
 71
     5
 42
-1.0
 53
0.00013888888889
  3
ME10_DIM_19
100
AcDbAlignedDimension
 13
-222.773072580646
 23
-127.5968548387094
 33
0.0
 14
-254.773072580646
 24
-127.5968548387094
 34
0.0
100
AcDbRotatedDimension
  0
DIMENSION
  5
20A
330
1F
100
AcDbEntity
  8
1
100
AcDbDimension
  2
*D12
 10
-243.773072580646
 20
75.6221907960269
 30
0.0
 11
-264.94923185484
 21
83.1221907960269
 31
0.0
 70
    32
  1
<>
 71
     5
 42
-1.0
 53
0.00013888888889
  3
ME10_DIM_20
100
AcDbAlignedDimension
 13
-233.773072580646
 23
56.90314516129062
 33
0.0
 14
-243.773072580646
 24
56.90314516129062
 34
0.0
100
AcDbRotatedDimension
  0
DIMENSION
  5
217
330
1F
100
AcDbEntity
  8
1
100
AcDbDimension
  2
*D13
 10
-243.773072580646
 20
-105.2180309781667
 30
0.0
 11
-267.624383064517
 21
-97.7180309781667
 31
0.0
 70
    32
  1
<>
 71
     5
 42
-1.0
 53
0.00013888888889
  3
ME10_DIM_21
100
AcDbAlignedDimension
 13
-233.773072580646
 23
-120.0968548387094
 33
0.0
 14
-243.773072580646
 24
-120.0968548387094
 34
0.0
100
AcDbRotatedDimension
  0
DIMENSION
  5
224
330
1F
100
AcDbEntity
  8
1
100
AcDbDimension
  2
*D14
 10
-343.064990604604
 20
-75.59685483870938
 30
0.0
 11
-350.564990604604
 21
-75.59685483870938
 31
0.0
 70
    32
  1
<>
 71
     5
 42
-1.0
 53
90.0
  3
ME10_DIM_22
100
AcDbAlignedDimension
 13
-301.2730725806461
 23
-62.59685483870938
 33
0.0
 14
-301.2730725806461
 24
-75.59685483870938
 34
0.0
 50
90.0
100
AcDbRotatedDimension
  0
DIMENSION
  5
231
330
1F
100
AcDbEntity
  8
1
100
AcDbDimension
  2
*D15
 10
-317.793390781036
 20
-62.59685483870938
 30
0.0
 11
-325.293390781036
 21
-52.9290878071321
 31
0.0
 70
    32
  1
<>
 71
     5
 42
-1.0
 53
90.0
  3
ME10_DIM_23
100
AcDbAlignedDimension
 13
-301.2730725806461
 23
-48.59685483870938
 33
0.0
 14
-301.2730725806461
 24
-62.59685483870938
 34
0.0
 50
90.0
100
AcDbRotatedDimension
  0
DIMENSION
  5
23C
330
1F
100
AcDbEntity
  8
1
100
AcDbDimension
  2
*D16
 10
-343.064990604604
 20
-62.59685483870937
 30
0.0
 11
-350.564990604604
 21
1.40485181353825
 31
0.0
 70
    32
  1
<>
 71
     5
 42
-1.0
 53
90.0
  3
ME10_DIM_24
100
AcDbAlignedDimension
 13
-280.2730725806461
 23
47.40314516129062
 33
0.0
 14
-301.2730725806461
 24
-62.59685483870938
 34
0.0
 50
90.0
100
AcDbRotatedDimension
  0
DIMENSION
  5
249
330
1F
100
AcDbEntity
  8
1
100
AcDbDimension
  2
*D17
 10
-151.632621941079
 20
-77.59685483870938
 30
0.0
 11
-159.132621941079
 21
-68.7238376968619
 31
0.0
 70
    32
  1
<>
 71
     5
 42
-1.0
 53
90.0
  3
ME10_DIM_25
100
AcDbAlignedDimension
 13
-176.2730725806461
 23
-75.59685483870938
 33
0.0
 14
-222.7730725806461
 24
-77.59685483870938
 34
0.0
 50
90.0
100
AcDbRotatedDimension
  0
DIMENSION
  5
256
330
1F
100
AcDbEntity
  8
1
100
AcDbDimension
  2
*D18
 10
-172.895030209975
 20
47.40314516129064
 30
0.0
 11
-180.395030209975
 21
43.8449626361967
 31
0.0
 70
    32
  1
<>
 71
     5
 42
-1.0
 53
90.0
  3
ME10_DIM_26
100
AcDbAlignedDimension
 13
-222.773072580646
 23
49.40314516129062
 33
0.0
 14
-218.7730725806461
 24
47.40314516129064
 34
0.0
 50
90.0
100
AcDbRotatedDimension
  0
DIMENSION
  5
261
330
1F
100
AcDbEntity
  8
1
100
AcDbDimension
  2
*D19
 10
-127.566008681679
 20
-127.5968548387094
 30
0.0
 11
-135.066008681679
 21
-100.515866930553
 31
0.0
 70
    32
  1
<>
 71
     5
 42
-1.0
 53
90.0
  3
ME10_DIM_27
100
AcDbAlignedDimension
 13
-222.7730725806461
 23
-77.59685483870938
 33
0.0
 14
-222.773072580646
 24
-127.5968548387094
 34
0.0
 50
90.0
100
AcDbRotatedDimension
  0
DIMENSION
  5
26E
330
1F
100
AcDbEntity
  8
1
100
AcDbDimension
  2
*D20
 10
-190.957727856049
 20
-127.5968548387094
 30
0.0
 11
-198.457727856049
 21
-141.426816685258
 31
0.0
 70
    32
  1
<>
 71
     5
 42
-1.0
 53
90.0
  3
ME10_DIM_28
100
AcDbAlignedDimension
 13
-238.773072580646
 23
-125.0968548387094
 33
0.0
 14
-222.773072580646
 24
-127.5968548387094
 34
0.0
 50
90.0
100
AcDbRotatedDimension
  0
DIMENSION
  5
279
330
1F
100
AcDbEntity
  8
1
100
AcDbDimension
  2
*D21
 10
-190.957727856049
 20
-125.0968548387094
 30
0.0
 11
-198.457727856049
 21
-101.325984747478
 31
0.0
 70
    32
  1
<>
 71
     5
 42
-1.0
 53
90.0
  3
ME10_DIM_29
100
AcDbAlignedDimension
 13
-238.7730725806461
 23
-80.09685483870938
 33
0.0
 14
-238.773072580646
 24
-125.0968548387094
 34
0.0
 50
90.0
100
AcDbRotatedDimension
  0
DIMENSION
  5
284
330
1F
100
AcDbEntity
  8
1
100
AcDbDimension
  2
*D22
 10
-153.731158267154
 20
49.40314516129062
 30
0.0
 11
-161.231158267154
 21
74.6574626226937
 31
0.0
 70
    32
  1
<>
 71
     5
 42
-1.0
 53
90.0
  3
ME10_DIM_30
100
AcDbAlignedDimension
 13
-222.773072580646
 23
99.40314516129062
 33
0.0
 14
-222.773072580646
 24
49.40314516129062
 34
0.0
 50
90.0
100
AcDbRotatedDimension
  0
DIMENSION
  5
291
330
1F
100
AcDbEntity
  8
1
100
AcDbDimension
  2
*D23
 10
-198.071097272113
 20
99.40314516129062
 30
0.0
 11
-205.571097272113
 21
116.179185165473
 31
0.0
 70
    32
  1
<>
 71
     5
 42
-1.0
 53
90.0
  3
ME10_DIM_31
100
AcDbAlignedDimension
 13
-238.7730725806462
 23
96.90314516129062
 33
0.0
 14
-222.773072580646
 24
99.40314516129062
 34
0.0
 50
90.0
100
AcDbRotatedDimension
  0
DIMENSION
  5
29C
330
1F
100
AcDbEntity
  8
1
100
AcDbDimension
  2
*D24
 10
-198.071097272113
 20
96.90314516129062
 30
0.0
 11
-205.571097272113
 21
71.2756028680782
 31
0.0
 70
    32
  1
<>
 71
     5
 42
-1.0
 53
90.0
  3
ME10_DIM_32
100
AcDbAlignedDimension
 13
-238.773072580646
 23
51.90314516129062
 33
0.0
 14
-238.7730725806462
 24
96.90314516129062
 34
0.0
 50
90.0
100
AcDbRotatedDimension
  0
ENDSEC
  0
SECTION
  2
OBJECTS
  0
DICTIONARY
  5
C
330
0
100
AcDbDictionary
281
     1
  3
ACAD_GROUP
350
D
  3
ACAD_LAYOUT
350
1A
  3
ACAD_MLINESTYLE
350
17
  3
ACAD_PLOTSETTINGS
350
19
  3
ACAD_PLOTSTYLENAME
350
E
  0
DICTIONARY
  5
D
102
{ACAD_REACTORS
330
C
102
}
330
C
100
AcDbDictionary
281
     1
  0
DICTIONARY
  5
1A
102
{ACAD_REACTORS
330
C
102
}
330
C
100
AcDbDictionary
281
     1
  3
Layout1
350
1E
  3
Layout2
350
26
  3
Model
350
22
  0
DICTIONARY
  5
17
102
{ACAD_REACTORS
330
C
102
}
330
C
100
AcDbDictionary
281
     1
  3
Standard
350
18
  0
DICTIONARY
  5
19
102
{ACAD_REACTORS
330
C
102
}
330
C
100
AcDbDictionary
281
     1
  0
ACDBDICTIONARYWDFLT
  5
E
102
{ACAD_REACTORS
330
C
102
}
330
C
100
AcDbDictionary
281
     1
  3
Normal
350
F
100
AcDbDictionaryWithDefault
340
F
  0
LAYOUT
  5
1E
102
{ACAD_REACTORS
330
1A
102
}
330
1A
100
AcDbPlotSettings
  1

  2

  4

  6

 40
0.0
 41
0.0
 42
0.0
 43
0.0
 44
0.0
 45
0.0
 46
0.0
 47
0.0
 48
0.0
 49
0.0
140
0.0
141
0.0
142
1.0
143
1.0
 70
   688
 72
     0
 73
     0
 74
     5
  7

 75
    16
 76
     0
 77
     2
 78
   300
147
1.0
148
0.0
149
0.0
100
AcDbLayout
  1
Layout1
 70
     1
 71
     1
 10
0.0
 20
0.0
 11
0.0
 21
0.0
 12
0.0
 22
0.0
 32
0.0
 14
0.0
 24
0.0
 34
0.0
 15
0.0
 25
0.0
 35
0.0
146
0.0
 13
0.0
 23
0.0
 33
0.0
 16
1.0
 26
0.0
 36
0.0
 17
0.0
 27
1.0
 37
0.0
 76
     0
330
1B
  0
LAYOUT
  5
26
102
{ACAD_REACTORS
330
1A
102
}
330
1A
100
AcDbPlotSettings
  1

  2

  4

  6

 40
0.0
 41
0.0
 42
0.0
 43
0.0
 44
0.0
 45
0.0
 46
0.0
 47
0.0
 48
0.0
 49
0.0
140
0.0
141
0.0
142
1.0
143
1.0
 70
   688
 72
     0
 73
     0
 74
     5
  7

 75
    16
 76
     0
 77
     2
 78
   300
147
1.0
148
0.0
149
0.0
100
AcDbLayout
  1
Layout2
 70
     1
 71
     2
 10
0.0
 20
0.0
 11
0.0
 21
0.0
 12
0.0
 22
0.0
 32
0.0
 14
0.0
 24
0.0
 34
0.0
 15
0.0
 25
0.0
 35
0.0
146
0.0
 13
0.0
 23
0.0
 33
0.0
 16
1.0
 26
0.0
 36
0.0
 17
0.0
 27
1.0
 37
0.0
 76
     0
330
23
  0
LAYOUT
  5
22
102
{ACAD_REACTORS
330
1A
102
}
330
1A
100
AcDbPlotSettings
  1

  2

  4

  6

 40
0.0
 41
0.0
 42
0.0
 43
0.0
 44
0.0
 45
0.0
 46
0.0
 47
0.0
 48
0.0
 49
0.0
140
0.0
141
0.0
142
1.0
143
1.0
 70
  1712
 72
     0
 73
     0
 74
     0
  7

 75
     0
 76
     0
 77
     2
 78
   300
147
1.0
148
0.0
149
0.0
100
AcDbLayout
  1
Model
 70
     1
 71
     0
 10
0.0
 20
0.0
 11
0.0
 21
0.0
 12
0.0
 22
0.0
 32
0.0
 14
-354.064990604604
 24
-146.536816685258
 34
0.0
 15
173.7269274193539
 25
132.838061027537
 35
0.0
146
0.0
 13
0.0
 23
0.0
 33
0.0
 16
1.0
 26
0.0
 36
0.0
 17
0.0
 27
1.0
 37
0.0
 76
     0
330
1F
  0
MLINESTYLE
  5
18
102
{ACAD_REACTORS
330
17
102
}
330
17
100
AcDbMlineStyle
  2
Standard
 70
     0
  3

 62
   256
 51
90.0
 52
90.0
 71
     2
 49
0.5
 62
   256
  6
BYLAYER
 49
-0.5
 62
   256
  6
BYLAYER
  0
ACDBPLACEHOLDER
  5
F
102
{ACAD_REACTORS
330
E
102
}
330
E
  0
ENDSEC
  0
EOF
