  0
SECTION
  2
HEADER
  9
$ACADVER
  1
AC1018
  9
$ACADMAINTVER
 70
     0
  9
$DWGCODEPAGE
  3
ANSI_1252
  9
$INSBASE
 10
0.0
 20
0.0
 30
0.0
  9
$EXTMIN
 10
-198.880000000001
 20
-142.5
 30
0.0
  9
$EXTMAX
 10
205.0
 20
142.0
 30
0.0
  9
$LIMMIN
 10
0.0
 20
0.0
  9
$LIMMAX
 10
12.0
 20
9.0
  9
$ORTHOMODE
 70
     0
  9
$REGENMODE
 70
     1
  9
$FILLMODE
 70
     1
  9
$QTEXTMODE
 70
     0
  9
$MIRRTEXT
 70
     1
  9
$LTSCALE
 40
1.0
  9
$ATTMODE
 70
     1
  9
$TEXTSIZE
 40
0.2
  9
$TRACEWID
 40
0.05
  9
$TEXTSTYLE
  7
Standard
  9
$CLAYER
  8
0
  9
$CELTYPE
  6
ByLayer
  9
$CECOLOR
 62
   256
  9
$CELTSCALE
 40
1.0
  9
$DISPSILH
 70
     0
  9
$DIMSCALE
 40
1.0
  9
$DIMASZ
 40
0.18
  9
$DIMEXO
 40
0.0625
  9
$DIMDLI
 40
0.38
  9
$DIMRND
 40
0.0
  9
$DIMDLE
 40
0.0
  9
$DIMEXE
 40
0.18
  9
$DIMTP
 40
0.0
  9
$DIMTM
 40
0.0
  9
$DIMTXT
 40
0.18
  9
$DIMCEN
 40
0.09
  9
$DIMTSZ
 40
0.0
  9
$DIMTOL
 70
     0
  9
$DIMLIM
 70
     0
  9
$DIMTIH
 70
     1
  9
$DIMTOH
 70
     1
  9
$DIMSE1
 70
     0
  9
$DIMSE2
 70
     0
  9
$DIMTAD
 70
     0
  9
$DIMZIN
 70
     0
  9
$DIMBLK
  1

  9
$DIMASO
 70
     1
  9
$DIMSHO
 70
     1
  9
$DIMPOST
  1

  9
$DIMAPOST
  1

  9
$DIMALT
 70
     0
  9
$DIMALTD
 70
     2
  9
$DIMALTF
 40
25.4
  9
$DIMLFAC
 40
1.0
  9
$DIMTOFL
 70
     0
  9
$DIMTVP
 40
0.0
  9
$DIMTIX
 70
     0
  9
$DIMSOXD
 70
     0
  9
$DIMSAH
 70
     0
  9
$DIMBLK1
  1

  9
$DIMBLK2
  1

  9
$DIMSTYLE
  2
Standard
  9
$DIMCLRD
 70
     0
  9
$DIMCLRE
 70
     0
  9
$DIMCLRT
 70
     0
  9
$DIMTFAC
 40
1.0
  9
$DIMGAP
 40
0.09
  9
$DIMJUST
 70
     0
  9
$DIMSD1
 70
     0
  9
$DIMSD2
 70
     0
  9
$DIMTOLJ
 70
     1
  9
$DIMTZIN
 70
     0
  9
$DIMALTZ
 70
     0
  9
$DIMALTTZ
 70
     0
  9
$DIMUPT
 70
     0
  9
$DIMDEC
 70
     4
  9
$DIMTDEC
 70
     4
  9
$DIMALTU
 70
     2
  9
$DIMALTTD
 70
     2
  9
$DIMTXSTY
  7
Standard
  9
$DIMAUNIT
 70
     0
  9
$DIMADEC
 70
     0
  9
$DIMALTRND
 40
0.0
  9
$DIMAZIN
 70
     0
  9
$DIMDSEP
 70
    46
  9
$DIMATFIT
 70
     3
  9
$DIMFRAC
 70
     0
  9
$DIMLDRBLK
  1

  9
$DIMLUNIT
 70
     2
  9
$DIMLWD
 70
    -2
  9
$DIMLWE
 70
    -2
  9
$DIMTMOVE
 70
     0
  9
$LUNITS
 70
     2
  9
$LUPREC
 70
     4
  9
$SKETCHINC
 40
0.1
  9
$FILLETRAD
 40
0.5
  9
$AUNITS
 70
     0
  9
$AUPREC
 70
     0
  9
$MENU
  1
.
  9
$ELEVATION
 40
0.0
  9
$PELEVATION
 40
0.0
  9
$THICKNESS
 40
0.0
  9
$LIMCHECK
 70
     0
  9
$CHAMFERA
 40
0.5
  9
$CHAMFERB
 40
0.5
  9
$CHAMFERC
 40
1.0
  9
$CHAMFERD
 40
0.0
  9
$SKPOLY
 70
     0
  9
$TDCREATE
 40
2454966.440356389
  9
$TDUCREATE
 40
2454966.357023056
  9
$TDUPDATE
 40
2454966.4403564
  9
$TDUUPDATE
 40
2454966.357023067
  9
$TDINDWG
 40
0.0000000116
  9
$TDUSRTIMER
 40
0.0000000116
  9
$USRTIMER
 70
     1
  9
$ANGBASE
 50
0.0
  9
$ANGDIR
 70
     0
  9
$PDMODE
 70
     0
  9
$PDSIZE
 40
0.0
  9
$PLINEWID
 40
0.0
  9
$SPLFRAME
 70
     0
  9
$SPLINETYPE
 70
     6
  9
$SPLINESEGS
 70
     8
  9
$HANDSEED
  5
51F
  9
$SURFTAB1
 70
     6
  9
$SURFTAB2
 70
     6
  9
$SURFTYPE
 70
     6
  9
$SURFU
 70
     6
  9
$SURFV
 70
     6
  9
$UCSBASE
  2

  9
$UCSNAME
  2

  9
$UCSORG
 10
0.0
 20
0.0
 30
0.0
  9
$UCSXDIR
 10
1.0
 20
0.0
 30
0.0
  9
$UCSYDIR
 10
0.0
 20
1.0
 30
0.0
  9
$UCSORTHOREF
  2

  9
$UCSORTHOVIEW
 70
     0
  9
$UCSORGTOP
 10
0.0
 20
0.0
 30
0.0
  9
$UCSORGBOTTOM
 10
0.0
 20
0.0
 30
0.0
  9
$UCSORGLEFT
 10
0.0
 20
0.0
 30
0.0
  9
$UCSORGRIGHT
 10
0.0
 20
0.0
 30
0.0
  9
$UCSORGFRONT
 10
0.0
 20
0.0
 30
0.0
  9
$UCSORGBACK
 10
0.0
 20
0.0
 30
0.0
  9
$PUCSBASE
  2

  9
$PUCSNAME
  2

  9
$PUCSORG
 10
0.0
 20
0.0
 30
0.0
  9
$PUCSXDIR
 10
1.0
 20
0.0
 30
0.0
  9
$PUCSYDIR
 10
0.0
 20
1.0
 30
0.0
  9
$PUCSORTHOREF
  2

  9
$PUCSORTHOVIEW
 70
     0
  9
$PUCSORGTOP
 10
0.0
 20
0.0
 30
0.0
  9
$PUCSORGBOTTOM
 10
0.0
 20
0.0
 30
0.0
  9
$PUCSORGLEFT
 10
0.0
 20
0.0
 30
0.0
  9
$PUCSORGRIGHT
 10
0.0
 20
0.0
 30
0.0
  9
$PUCSORGFRONT
 10
0.0
 20
0.0
 30
0.0
  9
$PUCSORGBACK
 10
0.0
 20
0.0
 30
0.0
  9
$USERI1
 70
     0
  9
$USERI2
 70
     0
  9
$USERI3
 70
     0
  9
$USERI4
 70
     0
  9
$USERI5
 70
     0
  9
$USERR1
 40
14.5
  9
$USERR2
 40
0.0
  9
$USERR3
 40
0.0
  9
$USERR4
 40
0.0
  9
$USERR5
 40
0.0
  9
$WORLDVIEW
 70
     1
  9
$SHADEDGE
 70
     3
  9
$SHADEDIF
 70
    70
  9
$TILEMODE
 70
     1
  9
$MAXACTVP
 70
    64
  9
$PINSBASE
 10
0.0
 20
0.0
 30
0.0
  9
$PLIMCHECK
 70
     0
  9
$PEXTMIN
 10
1.00000000000000E+20
 20
1.00000000000000E+20
 30
1.00000000000000E+20
  9
$PEXTMAX
 10
-1.00000000000000E+20
 20
-1.00000000000000E+20
 30
-1.00000000000000E+20
  9
$PLIMMIN
 10
0.0
 20
0.0
  9
$PLIMMAX
 10
12.0
 20
9.0
  9
$UNITMODE
 70
     0
  9
$VISRETAIN
 70
     1
  9
$PLINEGEN
 70
     0
  9
$PSLTSCALE
 70
     1
  9
$TREEDEPTH
 70
  3020
  9
$CMLSTYLE
  2
Standard
  9
$CMLJUST
 70
     0
  9
$CMLSCALE
 40
1.0
  9
$PROXYGRAPHICS
 70
     1
  9
$MEASUREMENT
 70
     1
  9
$CELWEIGHT
370
    -1
  9
$ENDCAPS
280
     0
  9
$JOINSTYLE
280
     0
  9
$LWDISPLAY
290
     0
  9
$INSUNITS
 70
     1
  9
$HYPERLINKBASE
  1

  9
$STYLESHEET
  1

  9
$XEDIT
290
     1
  9
$CEPSNTYPE
380
     0
  9
$PSTYLEMODE
290
     1
  9
$FINGERPRINTGUID
  2
{0420D706-445B-49CA-9ADB-45D6DEE2B4E2}
  9
$VERSIONGUID
  2
{FAEB1C32-E019-11D5-929B-00C0DF256EC4}
  9
$EXTNAMES
290
     1
  9
$PSVPSCALE
 40
0.0
  9
$OLESTARTUP
290
     0
  9
$SORTENTS
280
   127
  9
$INDEXCTL
280
     0
  9
$HIDETEXT
280
     1
  9
$XCLIPFRAME
290
     0
  9
$HALOGAP
280
     0
  9
$OBSCOLOR
 70
   257
  9
$OBSLTYPE
280
     0
  9
$INTERSECTIONDISPLAY
280
     0
  9
$INTERSECTIONCOLOR
 70
   257
  9
$DIMASSOC
280
     2
  9
$PROJECTNAME
  1

  0
ENDSEC
  0
SECTION
  2
CLASSES
  0
CLASS
  1
ACDBDICTIONARYWDFLT
  2
AcDbDictionaryWithDefault
  3
ObjectDBX Classes
 90
        0
 91
        3
280
     0
281
     0
  0
CLASS
  1

  2
exOdDbCircle
  3

 90
        0
 91
        3
280
     0
281
     1
  0
ENDSEC
  0
SECTION
  2
TABLES
  0
TABLE
  2
VPORT
  5
8
330
0
100
AcDbSymbolTable
 70
     1
  0
VPORT
  5
29
330
8
100
AcDbSymbolTableRecord
100
AcDbViewportTableRecord
  2
*Active
 70
     0
 10
0.0
 20
0.0
 11
1.0
 21
1.0
 12
3.0599999999995
 22
-0.25
 13
0.0
 23
0.0
 14
0.5
 24
0.5
 15
0.5
 25
0.5
 16
0.0
 26
0.0
 36
1.0
 17
0.0
 27
0.0
 37
0.0
 40
312.95
 41
1.60267857142857
 42
50.0
 43
0.0
 44
0.0
 50
0.0
 51
0.0
 71
     0
 72
   100
 73
     1
 74
     3
 75
     0
 76
     0
 77
     0
 78
     0
281
     0
 65
     1
110
0.0
120
0.0
130
0.0
111
1.0
121
0.0
131
0.0
112
0.0
122
1.0
132
0.0
 79
     0
146
0.0
  0
ENDTAB
  0
TABLE
  2
LTYPE
  5
5
330
0
100
AcDbSymbolTable
 70
     8
  0
LTYPE
  5
14
330
5
100
AcDbSymbolTableRecord
100
AcDbLinetypeTableRecord
  2
ByBlock
 70
     0
  3

 72
    65
 73
     0
 40
0.0
  0
LTYPE
  5
15
330
5
100
AcDbSymbolTableRecord
100
AcDbLinetypeTableRecord
  2
ByLayer
 70
     0
  3

 72
    65
 73
     0
 40
0.0
  0
LTYPE
  5
16
330
5
100
AcDbSymbolTableRecord
100
AcDbLinetypeTableRecord
  2
Continuous
 70
     0
  3
Solid line
 72
    65
 73
     0
 40
0.0
  0
LTYPE
  5
2A
330
5
100
AcDbSymbolTableRecord
100
AcDbLinetypeTableRecord
  2
DASHED
 70
     0
  3
Dashed
 72
    65
 73
     2
 40
15.0
 49
7.0
 74
     0
 49
-8.0
 74
     0
  0
LTYPE
  5
2B
330
5
100
AcDbSymbolTableRecord
100
AcDbLinetypeTableRecord
  2
DOTTED
 70
     0
  3
Dotted
 72
    65
 73
     2
 40
1.0
 49
0.0
 74
     0
 49
-1.0
 74
     0
  0
LTYPE
  5
2C
330
5
100
AcDbSymbolTableRecord
100
AcDbLinetypeTableRecord
  2
DOT_CENTER
 70
     0
  3
Dot_Center
 72
    65
 73
     4
 40
14.0
 49
12.0
 74
     0
 49
-1.0
 74
     0
 49
0.0
 74
     0
 49
-1.0
 74
     0
  0
LTYPE
  5
2D
330
5
100
AcDbSymbolTableRecord
100
AcDbLinetypeTableRecord
  2
LONG_DASHED
 70
     0
  3
Long_Dashed
 72
    65
 73
     2
 40
15.0
 49
10.0
 74
     0
 49
-5.0
 74
     0
  0
LTYPE
  5
2E
330
5
100
AcDbSymbolTableRecord
100
AcDbLinetypeTableRecord
  2
DASH_CENTER
 70
     0
  3
Dash_Center
 72
    65
 73
     4
 40
14.0
 49
11.0
 74
     0
 49
-1.0
 74
     0
 49
1.0
 74
     0
 49
-1.0
 74
     0
  0
LTYPE
  5
2F
330
5
100
AcDbSymbolTableRecord
100
AcDbLinetypeTableRecord
  2
PHANTOM
 70
     0
  3
Phantom
 72
    65
 73
     6
 40
13.0
 49
10.0
 74
     0
 49
-1.0
 74
     0
 49
0.0
 74
     0
 49
-1.0
 74
     0
 49
0.0
 74
     0
 49
-1.0
 74
     0
  0
LTYPE
  5
30
330
5
100
AcDbSymbolTableRecord
100
AcDbLinetypeTableRecord
  2
CENTER_DASH_DASH
 70
     0
  3
Center_Dash_Dash
 72
    65
 73
     6
 40
14.0
 49
9.0
 74
     0
 49
-1.0
 74
     0
 49
1.0
 74
     0
 49
-1.0
 74
     0
 49
1.0
 74
     0
 49
-1.0
 74
     0
  0
ENDTAB
  0
TABLE
  2
LAYER
  5
2
330
0
100
AcDbSymbolTable
 70
     3
  0
LAYER
  5
10
330
2
100
AcDbSymbolTableRecord
100
AcDbLayerTableRecord
  2
0
 70
     0
 62
     7
  6
Continuous
370
    -3
390
F
  0
LAYER
  5
31
330
2
100
AcDbSymbolTableRecord
100
AcDbLayerTableRecord
  2
1
 70
     0
 62
     7
  6
Continuous
370
    -3
390
F
  0
LAYER
  5
32
330
2
100
AcDbSymbolTableRecord
100
AcDbLayerTableRecord
  2
AM_VIS
 70
     0
 62
     7
  6
Continuous
370
    -3
390
F
  0
ENDTAB
  0
TABLE
  2
STYLE
  5
3
330
0
100
AcDbSymbolTable
 70
     6
  0
STYLE
  5
11
330
3
100
AcDbSymbolTableRecord
100
AcDbTextStyleTableRecord
  2
Standard
 70
     0
 40
0.0
 41
1.0
 50
0.0
 71
     0
 42
0.2
  3
txt
  4

  0
STYLE
  5
348
330
3
100
AcDbSymbolTableRecord
100
AcDbTextStyleTableRecord
  2
CONVERTER_11
 70
     0
 40
0.0
 41
0.855
 50
0.0
 71
     0
 42
0.2
  3
complex.shx
  4

  0
STYLE
  5
34A
330
3
100
AcDbSymbolTableRecord
100
AcDbTextStyleTableRecord
  2
CONVERTER_12
 70
     0
 40
0.0
 41
0.9
 50
0.0
 71
     0
 42
0.2
  3
txt.shx
  4

  0
STYLE
  5
352
330
3
100
AcDbSymbolTableRecord
100
AcDbTextStyleTableRecord
  2
CONVERTER_13
 70
     0
 40
0.0
 41
0.765
 50
0.0
 71
     0
 42
0.2
  3
txt.shx
  4

  0
STYLE
  5
355
330
3
100
AcDbSymbolTableRecord
100
AcDbTextStyleTableRecord
  2
CONVERTER_14
 70
     0
 40
0.0
 41
0.81
 50
0.0
 71
     0
 42
0.2
  3
txt.shx
  4

  0
STYLE
  5
359
330
3
100
AcDbSymbolTableRecord
100
AcDbTextStyleTableRecord
  2
CONVERTER_15
 70
     0
 40
0.0
 41
0.72
 50
0.0
 71
     0
 42
0.2
  3
txt.shx
  4

  0
ENDTAB
  0
TABLE
  2
VIEW
  5
6
330
0
100
AcDbSymbolTable
 70
     0
  0
ENDTAB
  0
TABLE
  2
UCS
  5
7
330
0
100
AcDbSymbolTable
 70
     0
  0
ENDTAB
  0
TABLE
  2
APPID
  5
9
330
0
100
AcDbSymbolTable
 70
     1
  0
APPID
  5
12
330
9
100
AcDbSymbolTableRecord
100
AcDbRegAppTableRecord
  2
ACAD
 70
     0
  0
ENDTAB
  0
TABLE
  2
DIMSTYLE
  5
A
330
0
100
AcDbSymbolTable
 70
    17
100
AcDbDimStyleTable
  0
DIMSTYLE
105
27
330
A
100
AcDbSymbolTableRecord
100
AcDbDimStyleTableRecord
  2
Standard
 70
     0
340
11
  0
DIMSTYLE
105
446
102
{ACAD_REACTORS
330
447
102
}
330
A
100
AcDbSymbolTableRecord
100
AcDbDimStyleTableRecord
  2
ME10_DIM_10
 70
     0
 41
3.5
 42
0.0
 44
1.0
 73
     0
 74
     0
 77
     1
 78
     8
140
3.5
147
2.0
172
     1
173
     1
176
     2
177
     2
178
     3
271
     2
340
359
  0
DIMSTYLE
105
451
102
{ACAD_REACTORS
330
452
102
}
330
A
100
AcDbSymbolTableRecord
100
AcDbDimStyleTableRecord
  2
ME10_DIM_11
 70
     0
 41
3.5
 42
0.0
 44
1.0
 73
     0
 74
     0
 77
     1
 78
     8
140
3.5
147
2.0
172
     1
173
     1
176
     2
177
     2
178
     3
271
     3
340
359
  0
DIMSTYLE
105
45E
102
{ACAD_REACTORS
330
45F
102
}
330
A
100
AcDbSymbolTableRecord
100
AcDbDimStyleTableRecord
  2
ME10_DIM_12
 70
     0
 41
3.5
 42
0.0
 44
1.0
 73
     0
 74
     0
 77
     1
 78
     8
140
3.5
147
2.0
172
     1
173
     1
176
     2
177
     2
178
     3
271
     3
340
359
  0
DIMSTYLE
105
469
102
{ACAD_REACTORS
330
46A
102
}
330
A
100
AcDbSymbolTableRecord
100
AcDbDimStyleTableRecord
  2
ME10_DIM_13
 70
     0
 41
3.5
 42
0.0
 44
1.0
 73
     0
 74
     0
 77
     1
 78
     8
140
3.5
147
2.0
172
     1
173
     1
176
     2
177
     2
178
     3
271
     3
340
359
  0
DIMSTYLE
105
474
102
{ACAD_REACTORS
330
475
102
}
330
A
100
AcDbSymbolTableRecord
100
AcDbDimStyleTableRecord
  2
ME10_DIM_14
 70
     0
 41
3.5
 42
0.0
 44
1.0
 73
     0
 74
     0
 77
     1
 78
     8
140
3.5
147
2.0
172
     1
173
     1
176
     2
177
     2
178
     3
271
     3
340
359
  0
DIMSTYLE
105
47F
102
{ACAD_REACTORS
330
480
102
}
330
A
100
AcDbSymbolTableRecord
100
AcDbDimStyleTableRecord
  2
ME10_DIM_15
 70
     0
  3
{\Fgdt;n}<>
 41
3.5
 42
0.0
 44
1.0
 73
     0
 74
     0
 77
     1
 78
     8
140
3.5
147
2.0
172
     1
173
     1
176
     2
177
     2
178
     3
271
     3
340
359
  0
DIMSTYLE
105
48C
102
{ACAD_REACTORS
330
48D
102
}
330
A
100
AcDbSymbolTableRecord
100
AcDbDimStyleTableRecord
  2
ME10_DIM_16
 70
     0
 41
3.5
 42
0.0
 44
1.0
 73
     0
 74
     0
 77
     1
 78
     8
140
3.5
147
2.0
172
     1
173
     1
176
     2
177
     2
178
     3
271
     3
340
359
  0
DIMSTYLE
105
499
102
{ACAD_REACTORS
330
49A
102
}
330
A
100
AcDbSymbolTableRecord
100
AcDbDimStyleTableRecord
  2
ME10_DIM_17
 70
     0
 41
3.5
 42
0.0
 44
1.0
 73
     0
 74
     0
 77
     1
 78
     8
140
3.5
147
2.0
172
     1
173
     1
176
     2
177
     2
178
     3
271
     3
340
359
  0
DIMSTYLE
105
4A6
102
{ACAD_REACTORS
330
4A7
102
}
330
A
100
AcDbSymbolTableRecord
100
AcDbDimStyleTableRecord
  2
ME10_DIM_18
 70
     0
 41
3.5
 42
0.0
 44
1.0
 73
     0
 74
     0
 77
     1
 78
     8
140
3.5
147
2.0
172
     1
173
     1
176
     2
177
     2
178
     3
271
     3
340
359
  0
DIMSTYLE
105
4B1
102
{ACAD_REACTORS
330
4B2
102
}
330
A
100
AcDbSymbolTableRecord
100
AcDbDimStyleTableRecord
  2
ME10_DIM_19
 70
     0
 41
3.5
 42
0.0
 44
1.0
 73
     0
 74
     0
 77
     1
 78
     8
140
3.5
147
2.0
172
     1
173
     1
176
     2
177
     2
178
     3
271
     3
340
359
  0
DIMSTYLE
105
4BC
102
{ACAD_REACTORS
330
4BD
102
}
330
A
100
AcDbSymbolTableRecord
100
AcDbDimStyleTableRecord
  2
ME10_DIM_20
 70
     0
 41
3.5
 42
0.0
 44
1.0
 73
     0
 74
     0
 77
     1
 78
     8
140
3.5
147
2.0
172
     1
173
     1
176
     2
177
     2
178
     3
271
     3
340
359
  0
DIMSTYLE
105
4C7
102
{ACAD_REACTORS
330
4C8
102
}
330
A
100
AcDbSymbolTableRecord
100
AcDbDimStyleTableRecord
  2
ME10_DIM_21
 70
     0
  3
{\Fgdt;n}<>
 41
3.5
 42
0.0
 44
1.0
 48
-6.0
 71
     1
 73
     0
 74
     0
 77
     1
 78
     8
140
3.5
146
0.6
147
2.0
172
     1
173
     1
176
     2
177
     2
178
     3
271
     3
272
     0
340
359
  0
DIMSTYLE
105
4D2
102
{ACAD_REACTORS
330
4D3
102
}
330
A
100
AcDbSymbolTableRecord
100
AcDbDimStyleTableRecord
  2
ME10_DIM_22
 70
     0
  3
{\Fgdt;n}<>
 41
3.5
 42
0.0
 44
1.0
 48
-6.0
 71
     1
 73
     0
 74
     0
 77
     1
 78
     8
140
3.5
146
0.6
147
2.0
172
     1
173
     1
176
     2
177
     2
178
     3
271
     3
272
     0
340
359
  0
DIMSTYLE
105
4DD
102
{ACAD_REACTORS
330
4DE
102
}
330
A
100
AcDbSymbolTableRecord
100
AcDbDimStyleTableRecord
  2
ME10_DIM_23
 70
     0
 41
3.5
 42
0.0
 44
1.0
 73
     0
 74
     0
 77
     1
 78
     8
140
3.5
147
2.0
172
     1
173
     1
176
     2
177
     2
178
     3
271
     3
340
359
  0
DIMSTYLE
105
510
102
{ACAD_REACTORS
330
511
102
}
330
A
100
AcDbSymbolTableRecord
100
AcDbDimStyleTableRecord
  2
ME10_DIM_24
 70
     0
 41
3.5
 42
0.0
 44
1.0
 73
     0
 74
     0
 77
     1
 78
     8
140
3.5
147
2.0
172
     1
173
     1
176
     2
177
     2
178
     3
271
     3
340
359
  0
DIMSTYLE
105
51D
102
{ACAD_REACTORS
330
51E
102
}
330
A
100
AcDbSymbolTableRecord
100
AcDbDimStyleTableRecord
  2
ME10_DIM_25
 70
     0
 41
3.5
 42
0.0
 44
1.0
 73
     0
 74
     0
 77
     1
 78
     8
140
3.5
147
2.0
172
     1
173
     1
176
     2
177
     2
178
     3
271
     3
340
359
  0
ENDTAB
  0
TABLE
  2
BLOCK_RECORD
  5
1
330
0
100
AcDbSymbolTable
 70
    31
  0
BLOCK_RECORD
  5
1F
330
1
100
AcDbSymbolTableRecord
100
AcDbBlockTableRecord
  2
*Model_Space
340
22
  0
BLOCK_RECORD
  5
1B
330
1
100
AcDbSymbolTableRecord
100
AcDbBlockTableRecord
  2
*Paper_Space
340
1E
  0
BLOCK_RECORD
  5
23
330
1
100
AcDbSymbolTableRecord
100
AcDbBlockTableRecord
  2
*Paper_Space0
340
26
  0
BLOCK_RECORD
  5
33
330
1
100
AcDbSymbolTableRecord
100
AcDbBlockTableRecord
  2
M3x10_DIN_84
340
0
102
{BLKREFS
331
52
102
}
  0
BLOCK_RECORD
  5
36
330
1
100
AcDbSymbolTableRecord
100
AcDbBlockTableRecord
  2
O-Ring
340
0
102
{BLKREFS
331
3A
102
}
  0
BLOCK_RECORD
  5
39
330
1
100
AcDbSymbolTableRecord
100
AcDbBlockTableRecord
  2
Winkelflanschdose_8-polig_drehbar
340
0
102
{BLKREFS
331
53
102
}
  0
BLOCK_RECORD
  5
3D
330
1
100
AcDbSymbolTableRecord
100
AcDbBlockTableRecord
  2
M2_5x6_DIN_7985
340
0
102
{BLKREFS
331
54
102
}
  0
BLOCK_RECORD
  5
40
330
1
100
AcDbSymbolTableRecord
100
AcDbBlockTableRecord
  2
Steckerplatte
340
0
102
{BLKREFS
331
55
102
}
  0
BLOCK_RECORD
  5
43
330
1
100
AcDbSymbolTableRecord
100
AcDbBlockTableRecord
  2
Abschlu_deckel
340
0
102
{BLKREFS
331
56
102
}
  0
BLOCK_RECORD
  5
46
330
1
100
AcDbSymbolTableRecord
100
AcDbBlockTableRecord
  2
Lagerschild_B-Seite
340
0
102
{BLKREFS
331
57
102
}
  0
BLOCK_RECORD
  5
49
330
1
100
AcDbSymbolTableRecord
100
AcDbBlockTableRecord
  2
Geh_use
340
0
102
{BLKREFS
331
58
102
}
  0
BLOCK_RECORD
  5
4C
330
1
100
AcDbSymbolTableRecord
100
AcDbBlockTableRecord
  2
Winkelflanschdose_12-polig_drehbar
340
0
102
{BLKREFS
331
59
102
}
  0
BLOCK_RECORD
  5
4F
330
1
100
AcDbSymbolTableRecord
100
AcDbBlockTableRecord
  2
tb_frame_A3
340
0
102
{BLKREFS
331
5A
102
}
  0
BLOCK_RECORD
  5
43D
330
1
100
AcDbSymbolTableRecord
100
AcDbBlockTableRecord
  2
*D11
340
0
  0
BLOCK_RECORD
  5
448
330
1
100
AcDbSymbolTableRecord
100
AcDbBlockTableRecord
  2
*D12
340
0
  0
BLOCK_RECORD
  5
453
330
1
100
AcDbSymbolTableRecord
100
AcDbBlockTableRecord
  2
*D13
340
0
  0
BLOCK_RECORD
  5
460
330
1
100
AcDbSymbolTableRecord
100
AcDbBlockTableRecord
  2
*D14
340
0
  0
BLOCK_RECORD
  5
46B
330
1
100
AcDbSymbolTableRecord
100
AcDbBlockTableRecord
  2
*D15
340
0
  0
BLOCK_RECORD
  5
476
330
1
100
AcDbSymbolTableRecord
100
AcDbBlockTableRecord
  2
*D16
340
0
  0
BLOCK_RECORD
  5
481
330
1
100
AcDbSymbolTableRecord
100
AcDbBlockTableRecord
  2
*D17
340
0
  0
BLOCK_RECORD
  5
48E
330
1
100
AcDbSymbolTableRecord
100
AcDbBlockTableRecord
  2
*D18
340
0
  0
BLOCK_RECORD
  5
49B
330
1
100
AcDbSymbolTableRecord
100
AcDbBlockTableRecord
  2
*D19
340
0
  0
BLOCK_RECORD
  5
4A8
330
1
100
AcDbSymbolTableRecord
100
AcDbBlockTableRecord
  2
*D20
340
0
  0
BLOCK_RECORD
  5
4B3
330
1
100
AcDbSymbolTableRecord
100
AcDbBlockTableRecord
  2
*D21
340
0
  0
BLOCK_RECORD
  5
4BE
330
1
100
AcDbSymbolTableRecord
100
AcDbBlockTableRecord
  2
*D22
340
0
  0
BLOCK_RECORD
  5
4C9
330
1
100
AcDbSymbolTableRecord
100
AcDbBlockTableRecord
  2
*D23
340
0
  0
BLOCK_RECORD
  5
4D4
330
1
100
AcDbSymbolTableRecord
100
AcDbBlockTableRecord
  2
*D24
340
0
  0
BLOCK_RECORD
  5
4DF
330
1
100
AcDbSymbolTableRecord
100
AcDbBlockTableRecord
  2
*D25
340
0
102
{BLKREFS
331
4E6
102
}
  0
BLOCK_RECORD
  5
4E7
330
1
100
AcDbSymbolTableRecord
100
AcDbBlockTableRecord
  2
*D26
340
0
102
{BLKREFS
331
4EE
102
}
  0
BLOCK_RECORD
  5
4EF
330
1
100
AcDbSymbolTableRecord
100
AcDbBlockTableRecord
  2
*D27
340
0
102
{BLKREFS
331
4F8
102
}
  0
BLOCK_RECORD
  5
4F9
330
1
100
AcDbSymbolTableRecord
100
AcDbBlockTableRecord
  2
*D28
340
0
102
{BLKREFS
331
504
102
}
  0
BLOCK_RECORD
  5
505
330
1
100
AcDbSymbolTableRecord
100
AcDbBlockTableRecord
  2
*D29
340
0
  0
BLOCK_RECORD
  5
512
330
1
100
AcDbSymbolTableRecord
100
AcDbBlockTableRecord
  2
*D30
340
0
  0
ENDTAB
  0
ENDSEC
  0
SECTION
  2
BLOCKS
  0
BLOCK
  5
20
330
1F
100
AcDbEntity
  8
0
100
AcDbBlockBegin
  2
*Model_Space
 70
     0
 71
     0
 10
0.0
 20
0.0
 30
0.0
  3
*Model_Space
  1

  0
ENDBLK
  5
21
330
1F
100
AcDbEntity
  8
0
100
AcDbBlockEnd
  0
BLOCK
  5
1C
330
1B
100
AcDbEntity
 67
     1
  8
0
100
AcDbBlockBegin
  2
*Paper_Space
 70
     0
 71
     0
 10
0.0
 20
0.0
 30
0.0
  3
*Paper_Space
  1

  0
ENDBLK
  5
1D
330
1B
100
AcDbEntity
 67
     1
  8
0
100
AcDbBlockEnd
  0
BLOCK
  5
24
330
23
100
AcDbEntity
  8
0
100
AcDbBlockBegin
  2
*Paper_Space0
 70
     0
 71
     0
 10
0.0
 20
0.0
 30
0.0
  3
*Paper_Space0
  1

  0
ENDBLK
  5
25
330
23
100
AcDbEntity
  8
0
100
AcDbBlockEnd
  0
BLOCK
  5
34
330
33
100
AcDbEntity
  8
0
100
AcDbBlockBegin
  2
M3x10_DIN_84
 70
     0
 71
     0
 10
18.09287
 20
63.3689149604873
 30
0.0
  3
M3x10_DIN_84
  1

  0
LINE
  5
5B
330
33
100
AcDbEntity
  8
1
  6
DOT_CENTER
 62
     2
100
AcDbLine
 10
20.89284888367686
 20
68.34740151857761
 30
0.0
 11
20.89287918052327
 21
63.3689149604873
 31
0.0
  0
LINE
  5
5C
330
33
100
AcDbEntity
  8
1
  6
DOT_CENTER
 62
     2
100
AcDbLine
 10
170.0662460000001
 20
68.3523041989387
 30
0.0
 11
170.0662459999999
 21
63.368932
 31
0.0
  0
LINE
  5
5D
330
33
100
AcDbEntity
  8
1
  6
DOT_CENTER
 62
     2
100
AcDbLine
 10
110.0662515
 20
68.347385
 30
0.0
 11
110.0662515
 21
63.368932
 31
0.0
  0
LINE
  5
5E
330
33
100
AcDbEntity
  8
1
  6
Continuous
 62
     7
100
AcDbLine
 10
42.17846299999999
 20
66.347385
 30
0.0
 11
42.09287
 21
65.368932
 31
0.0
  0
LINE
  5
5F
330
33
100
AcDbEntity
  8
1
  6
Continuous
 62
     7
100
AcDbLine
 10
45.292857
 20
66.46893800000001
 30
0.0
 11
45.292857
 21
67.16894300000001
 31
0.0
  0
LINE
  5
60
330
33
100
AcDbEntity
  8
1
  6
Continuous
 62
     7
100
AcDbLine
 10
44.49285699999999
 20
66.46893800000001
 30
0.0
 11
45.292857
 21
66.46893800000001
 31
0.0
  0
LINE
  5
61
330
33
100
AcDbEntity
  8
1
  6
Continuous
 62
     7
100
AcDbLine
 10
44.49285699999999
 20
67.16894300000001
 30
0.0
 11
44.49285699999999
 21
66.46893800000001
 31
0.0
  0
LINE
  5
62
330
33
100
AcDbEntity
  8
1
  6
Continuous
 62
     7
100
AcDbLine
 10
47.69285500000001
 20
65.368932
 30
0.0
 11
47.60727399999999
 21
66.347385
 31
0.0
  0
LINE
  5
63
330
33
100
AcDbEntity
  8
1
  6
Continuous
 62
     7
100
AcDbLine
 10
45.292857
 20
67.16894300000001
 30
0.0
 11
46.71069600000001
 21
67.16894300000001
 31
0.0
  0
LINE
  5
64
330
33
100
AcDbEntity
  8
1
  6
Continuous
 62
     7
100
AcDbLine
 10
43.075041
 20
67.16894300000001
 30
0.0
 11
44.49285699999999
 21
67.16894300000001
 31
0.0
  0
LINE
  5
65
330
33
100
AcDbEntity
  8
1
  6
Continuous
 62
     7
100
AcDbLine
 10
18.17846299999999
 20
66.347385
 30
0.0
 11
18.09287
 21
65.368932
 31
0.0
  0
LINE
  5
66
330
33
100
AcDbEntity
  8
1
  6
Continuous
 62
     7
100
AcDbLine
 10
23.69286700000001
 20
65.368932
 30
0.0
 11
23.60726199999999
 21
66.347385
 31
0.0
  0
LINE
  5
67
330
33
100
AcDbEntity
  8
1
  6
Continuous
 62
     7
100
AcDbLine
 10
21.292868
 20
66.46893800000001
 30
0.0
 11
21.292868
 21
67.16894300000001
 31
0.0
  0
LINE
  5
68
330
33
100
AcDbEntity
  8
1
  6
Continuous
 62
     7
100
AcDbLine
 10
20.49286900000001
 20
66.46893800000001
 30
0.0
 11
21.292868
 21
66.46893800000001
 31
0.0
  0
LINE
  5
69
330
33
100
AcDbEntity
  8
1
  6
Continuous
 62
     7
100
AcDbLine
 10
21.292868
 20
67.16894300000001
 30
0.0
 11
22.71068399999999
 21
67.16894300000001
 31
0.0
  0
LINE
  5
6A
330
33
100
AcDbEntity
  8
1
  6
Continuous
 62
     7
100
AcDbLine
 10
19.075041
 20
67.16894300000001
 30
0.0
 11
20.49286900000001
 21
67.16894300000001
 31
0.0
  0
LINE
  5
6B
330
33
100
AcDbEntity
  8
1
  6
Continuous
 62
     7
100
AcDbLine
 10
20.49286900000001
 20
67.16894300000001
 30
0.0
 11
20.49286900000001
 21
66.46893800000001
 31
0.0
  0
LINE
  5
6C
330
33
100
AcDbEntity
  8
1
  6
Continuous
 62
     7
100
AcDbLine
 10
167.266247
 20
65.368932
 30
0.0
 11
172.866245
 21
65.368932
 31
0.0
  0
LINE
  5
6D
330
33
100
AcDbEntity
  8
1
  6
Continuous
 62
     7
100
AcDbLine
 10
168.525206
 20
67.16894300000001
 30
0.0
 11
168.931044
 21
67.16894300000001
 31
0.0
  0
LINE
  5
6E
330
33
100
AcDbEntity
  8
1
  6
Continuous
 62
     7
100
AcDbLine
 10
170.066246
 20
67.16894300000001
 30
0.0
 11
170.667711
 21
67.16894300000001
 31
0.0
  0
LINE
  5
6F
330
33
100
AcDbEntity
  8
1
  6
Continuous
 62
     7
100
AcDbLine
 10
171.607286
 20
67.16894300000001
 30
0.0
 11
171.839515
 21
67.16894300000001
 31
0.0
  0
LINE
  5
70
330
33
100
AcDbEntity
  8
1
  6
Continuous
 62
     7
100
AcDbLine
 10
171.839515
 20
67.16894300000001
 30
0.0
 11
171.963829
 21
67.160708
 31
0.0
  0
LINE
  5
71
330
33
100
AcDbEntity
  8
1
  6
Continuous
 62
     7
100
AcDbLine
 10
172.515394
 20
66.87673699999999
 30
0.0
 11
172.681881
 21
66.62115700000001
 31
0.0
  0
LINE
  5
72
330
33
100
AcDbEntity
  8
1
  6
Continuous
 62
     7
100
AcDbLine
 10
167.515142
 20
66.743945
 30
0.0
 11
167.62313
 21
66.88315700000001
 31
0.0
  0
LINE
  5
73
330
33
100
AcDbEntity
  8
1
  6
Continuous
 62
     7
100
AcDbLine
 10
168.160161
 20
67.15954500000001
 30
0.0
 11
168.292977
 21
67.16894300000001
 31
0.0
  0
LINE
  5
74
330
33
100
AcDbEntity
  8
1
  6
Continuous
 62
     7
100
AcDbLine
 10
172.866245
 20
65.368932
 30
0.0
 11
172.7839738676955
 21
66.30926838082311
 31
0.0
  0
LINE
  5
75
330
33
100
AcDbEntity
  8
1
  6
Continuous
 62
     7
100
AcDbLine
 10
168.292977
 20
67.16894300000001
 30
0.0
 11
168.525206
 21
67.16894300000001
 31
0.0
  0
LINE
  5
76
330
33
100
AcDbEntity
  8
1
  6
Continuous
 62
     7
100
AcDbLine
 10
169.464757
 20
67.16894300000001
 30
0.0
 11
170.066246
 21
67.16894300000001
 31
0.0
  0
LINE
  5
77
330
33
100
AcDbEntity
  8
1
  6
Continuous
 62
     7
100
AcDbLine
 10
171.201448
 20
67.16894300000001
 30
0.0
 11
171.607286
 21
67.16894300000001
 31
0.0
  0
LINE
  5
78
330
33
100
AcDbEntity
  8
1
  6
Continuous
 62
     7
100
AcDbLine
 10
172.267953
 20
67.064977
 30
0.0
 11
172.515394
 21
66.87673699999999
 31
0.0
  0
LINE
  5
79
330
33
100
AcDbEntity
  8
1
  6
Continuous
 62
     7
100
AcDbLine
 10
167.3522833864819
 20
66.3523041989387
 30
0.0
 11
167.515142
 21
66.743945
 31
0.0
  0
LINE
  5
7A
330
33
100
AcDbEntity
  8
1
  6
Continuous
 62
     7
100
AcDbLine
 10
167.868294
 20
67.066915
 30
0.0
 11
168.160161
 21
67.15954500000001
 31
0.0
  0
LINE
  5
7B
330
33
100
AcDbEntity
  8
1
  6
Continuous
 62
     7
100
AcDbLine
 10
167.3522833864819
 20
66.3523041989387
 30
0.0
 11
167.266247
 21
65.368932
 31
0.0
  0
LINE
  5
7C
330
33
100
AcDbEntity
  8
1
  6
Continuous
 62
     7
100
AcDbLine
 10
168.931044
 20
67.16894300000001
 30
0.0
 11
169.464757
 21
67.16894300000001
 31
0.0
  0
LINE
  5
7D
330
33
100
AcDbEntity
  8
1
  6
Continuous
 62
     7
100
AcDbLine
 10
170.667711
 20
67.16894300000001
 30
0.0
 11
171.201448
 21
67.16894300000001
 31
0.0
  0
LINE
  5
7E
330
33
100
AcDbEntity
  8
1
  6
Continuous
 62
     7
100
AcDbLine
 10
171.963829
 20
67.160708
 30
0.0
 11
172.267953
 21
67.064977
 31
0.0
  0
LINE
  5
7F
330
33
100
AcDbEntity
  8
1
  6
Continuous
 62
     7
100
AcDbLine
 10
172.681881
 20
66.62115700000001
 30
0.0
 11
172.7839738676955
 21
66.30926838082311
 31
0.0
  0
LINE
  5
80
330
33
100
AcDbEntity
  8
1
  6
Continuous
 62
     7
100
AcDbLine
 10
167.62313
 20
66.88315700000001
 30
0.0
 11
167.868294
 21
67.066915
 31
0.0
  0
LINE
  5
81
330
33
100
AcDbEntity
  8
1
  6
Continuous
 62
     7
100
AcDbLine
 10
107.266253
 20
65.368932
 30
0.0
 11
112.86625
 21
65.368932
 31
0.0
  0
LINE
  5
82
330
33
100
AcDbEntity
  8
1
  6
Continuous
 62
     7
100
AcDbLine
 10
112.515399
 20
66.87673699999999
 30
0.0
 11
112.7682986601934
 21
66.48850191166139
 31
0.0
  0
LINE
  5
83
330
33
100
AcDbEntity
  8
1
  6
Continuous
 62
     7
100
AcDbLine
 10
107.868275
 20
67.066915
 30
0.0
 11
108.160142
 21
67.15954500000001
 31
0.0
  0
LINE
  5
84
330
33
100
AcDbEntity
  8
1
  6
Continuous
 62
     7
100
AcDbLine
 10
108.525212
 20
67.16894300000001
 30
0.0
 11
108.931049
 21
67.16894300000001
 31
0.0
  0
LINE
  5
85
330
33
100
AcDbEntity
  8
1
  6
Continuous
 62
     7
100
AcDbLine
 10
109.464762
 20
67.16894300000001
 30
0.0
 11
110.066251
 21
67.16894300000001
 31
0.0
  0
LINE
  5
86
330
33
100
AcDbEntity
  8
1
  6
Continuous
 62
     7
100
AcDbLine
 10
112.267934
 20
67.064977
 30
0.0
 11
112.515399
 21
66.87673699999999
 31
0.0
  0
LINE
  5
87
330
33
100
AcDbEntity
  8
1
  6
Continuous
 62
     7
100
AcDbLine
 10
107.351858
 20
66.347385
 30
0.0
 11
107.266253
 21
65.368932
 31
0.0
  0
LINE
  5
88
330
33
100
AcDbEntity
  8
1
  6
Continuous
 62
     7
100
AcDbLine
 10
107.3522974848379
 20
66.352408249321
 30
0.0
 11
107.515147
 21
66.743945
 31
0.0
  0
LINE
  5
89
330
33
100
AcDbEntity
  8
1
  6
Continuous
 62
     7
100
AcDbLine
 10
107.515147
 20
66.743945
 30
0.0
 11
107.623135
 21
66.88315700000001
 31
0.0
  0
LINE
  5
8A
330
33
100
AcDbEntity
  8
1
  6
Continuous
 62
     7
100
AcDbLine
 10
108.160142
 20
67.15954500000001
 30
0.0
 11
108.292983
 21
67.16894300000001
 31
0.0
  0
LINE
  5
8B
330
33
100
AcDbEntity
  8
1
  6
Continuous
 62
     7
100
AcDbLine
 10
108.931049
 20
67.16894300000001
 30
0.0
 11
109.464762
 21
67.16894300000001
 31
0.0
  0
LINE
  5
8C
330
33
100
AcDbEntity
  8
1
  6
Continuous
 62
     7
100
AcDbLine
 10
111.963834
 20
67.160708
 30
0.0
 11
112.267934
 21
67.064977
 31
0.0
  0
LINE
  5
8D
330
33
100
AcDbEntity
  8
1
  6
Continuous
 62
     7
100
AcDbLine
 10
112.86625
 20
65.368932
 30
0.0
 11
112.7682986601934
 21
66.48850191166139
 31
0.0
  0
LINE
  5
8E
330
33
100
AcDbEntity
  8
1
  6
Continuous
 62
     7
100
AcDbLine
 10
108.292983
 20
67.16894300000001
 30
0.0
 11
108.525212
 21
67.16894300000001
 31
0.0
  0
LINE
  5
8F
330
33
100
AcDbEntity
  8
1
  6
Continuous
 62
     7
100
AcDbLine
 10
107.623135
 20
66.88315700000001
 30
0.0
 11
107.868275
 21
67.066915
 31
0.0
  0
LINE
  5
90
330
33
100
AcDbEntity
  8
1
  6
Continuous
 62
     7
100
AcDbLine
 10
110.066251
 20
67.16894300000001
 30
0.0
 11
110.667717
 21
67.16894300000001
 31
0.0
  0
ARC
  5
91
330
33
100
AcDbEntity
  8
1
  6
Continuous
 62
     7
100
AcDbCircle
 10
46.71069600000001
 20
66.26894999999999
 30
0.0
 40
0.9000000000000178
100
AcDbArc
 50
5.00000000000187
 51
90.0
  0
ARC
  5
92
330
33
100
AcDbEntity
  8
1
  6
Continuous
 62
     7
100
AcDbCircle
 10
43.075041
 20
66.26894999999999
 30
0.0
 40
0.9000000000000057
100
AcDbArc
 50
90.0
 51
174.9999999999981
  0
ARC
  5
93
330
33
100
AcDbEntity
  8
1
  6
Continuous
 62
     7
100
AcDbCircle
 10
19.075041
 20
66.26894999999999
 30
0.0
 40
0.9000000000000057
100
AcDbArc
 50
90.0
 51
174.9999999999982
  0
ARC
  5
94
330
33
100
AcDbEntity
  8
1
  6
Continuous
 62
     7
100
AcDbCircle
 10
22.71068399999999
 20
66.26894999999999
 30
0.0
 40
0.8999999999999327
100
AcDbArc
 50
5.00000000000235
 51
90.0
  0
ENDBLK
  5
35
330
33
100
AcDbEntity
  8
0
100
AcDbBlockEnd
  0
BLOCK
  5
37
330
36
100
AcDbEntity
  8
0
100
AcDbBlockBegin
  2
O-Ring
 70
     0
 71
     0
 10
339.071811098809
 20
17.0257383953884
 30
0.0
  3
O-Ring
  1

  0
LINE
  5
95
330
36
100
AcDbEntity
  8
1
  6
Continuous
 62
     7
100
AcDbLine
 10
57.95616849999999
 20
79.74139100970191
 30
0.0
 11
57.95616849999999
 21
80.3163910097019
 31
0.0
  0
LINE
  5
96
330
36
100
AcDbEntity
  8
1
  6
Continuous
 62
     7
100
AcDbLine
 10
57.95616849999999
 20
101.916391009702
 30
0.0
 11
57.95616849999999
 21
102.4913910097019
 31
0.0
  0
ARC
  5
97
102
{ACAD_REACTORS
330
9A
330
9A
102
}
330
36
100
AcDbEntity
  8
1
  6
Continuous
 62
     7
100
AcDbCircle
 10
57.15616849999992
 20
102.4913910097019
 30
0.0
 40
0.8000000000000682
100
AcDbArc
 50
0.0
 51
180.0
  0
ARC
  5
98
102
{ACAD_REACTORS
330
9A
330
9A
102
}
330
36
100
AcDbEntity
  8
1
  6
Continuous
 62
     7
100
AcDbCircle
 10
57.15616849999992
 20
102.4913910097019
 30
0.0
 40
0.7999999999999545
100
AcDbArc
 50
180.0
 51
0.0
  0
CIRCLE
  5
99
102
{ACAD_REACTORS
330
9B
330
9B
102
}
330
36
100
AcDbEntity
  8
1
  6
Continuous
 62
     7
100
AcDbCircle
 10
57.15616849999992
 20
79.74139100970191
 30
0.0
 40
0.8000000000000682
  0
HATCH
  5
9A
330
36
100
AcDbEntity
  8
1
  6
Continuous
 62
     2
100
AcDbHatch
 10
0.0
 20
0.0
 30
0.0
210
0.0
220
0.0
230
1.0
  2
CUSTOM0
 70
     0
 71
     1
 91
        1
 92
        1
 93
        2
 72
     2
 10
57.15616849999992
 20
102.4913910097019
 40
0.8000000000000682
 50
0.0
 51
180.0
 73
     1
 72
     2
 10
57.15616849999992
 20
102.4913910097019
 40
0.7999999999999545
 50
180.0
 51
360.0
 73
     1
 97
        2
330
97
330
98
 75
     1
 76
     2
 52
45.0
 41
0.5
 77
     0
 78
     2
 53
45.0
 43
0.0
 44
0.0
 45
-0.7071067811865475
 46
0.0000000000000001
 79
     0
 53
135.0
 43
0.0
 44
0.0
 45
0.0000000000000003
 46
-0.7071067811865475
 79
     0
 98
        1
 10
0.0
 20
0.0
  0
HATCH
  5
9B
330
36
100
AcDbEntity
  8
1
  6
Continuous
 62
     2
100
AcDbHatch
 10
0.0
 20
0.0
 30
0.0
210
0.0
220
0.0
230
1.0
  2
CUSTOM1
 70
     0
 71
     1
 91
        1
 92
        1
 93
        1
 72
     2
 10
57.15616849999992
 20
79.74139100970191
 40
0.8000000000000682
 50
0.0
 51
360.0
 73
     1
 97
        1
330
99
 75
     1
 76
     2
 52
45.0
 41
0.5
 77
     0
 78
     2
 53
45.0
 43
0.0
 44
0.0
 45
-0.7071067811865475
 46
0.0000000000000001
 79
     0
 53
135.0
 43
0.0
 44
0.0
 45
0.0000000000000003
 46
-0.7071067811865475
 79
     0
 98
        1
 10
0.0
 20
0.0
  0
ENDBLK
  5
38
330
36
100
AcDbEntity
  8
0
100
AcDbBlockEnd
  0
BLOCK
  5
3B
330
39
100
AcDbEntity
  8
0
100
AcDbBlockBegin
  2
Winkelflanschdose_8-polig_drehbar
 70
     0
 71
     0
 10
406.746688887328
 20
135.800892248901
 30
0.0
  3
Winkelflanschdose_8-polig_drehbar
  1

  0
INSERT
  5
3A
330
39
100
AcDbEntity
  8
1
100
AcDbBlockReference
  2
O-Ring
 10
339.071811098809
 20
17.0257383953884
 30
0.0
  0
POINT
  5
9C
330
39
100
AcDbEntity
  8
1
 62
     3
 60
     1
100
AcDbPoint
 10
114.0650613215079
 20
78.1189187191097
 30
0.0
  0
POINT
  5
9D
330
39
100
AcDbEntity
  8
1
 62
     3
 60
     1
100
AcDbPoint
 10
113.2150613215078
 20
78.1189187191097
 30
0.0
  0
POINT
  5
9E
330
39
100
AcDbEntity
  8
1
 62
     3
 60
     1
100
AcDbPoint
 10
113.2150613215078
 20
68.1189187191097
 30
0.0
  0
POINT
  5
9F
330
39
100
AcDbEntity
  8
1
 62
     3
 60
     1
100
AcDbPoint
 10
45.74286849999999
 20
74.61893184134621
 30
0.0
  0
POINT
  5
A0
330
39
100
AcDbEntity
  8
1
 62
     3
 60
     1
100
AcDbPoint
 10
45.74286849999999
 20
74.618931
 30
0.0
  0
POINT
  5
A1
330
39
100
AcDbEntity
  8
1
 62
     3
 60
     1
100
AcDbPoint
 10
45.74286849999999
 20
78.618931
 30
0.0
  0
POINT
  5
A2
330
39
100
AcDbEntity
  8
1
 62
     3
 60
     1
100
AcDbPoint
 10
138.0650613215079
 20
74.6189187191097
 30
0.0
  0
POINT
  5
A3
330
39
100
AcDbEntity
  8
1
 62
     3
 60
     1
100
AcDbPoint
 10
114.0650613215079
 20
74.6189187191097
 30
0.0
  0
LINE
  5
A4
330
39
100
AcDbEntity
  8
1
  6
Continuous
 62
     7
100
AcDbLine
 10
71.75616850000011
 20
101.9189309999999
 30
0.0
 11
71.75616850000011
 21
80.31893099999999
 31
0.0
  0
LINE
  5
A5
330
39
100
AcDbEntity
  8
AM_VIS
  6
Continuous
 62
     7
100
AcDbLine
 10
55.55616850000001
 20
104.118931
 30
0.0
 11
55.55616850000001
 21
102.6689309999999
 31
0.0
  0
LINE
  5
A6
330
39
100
AcDbEntity
  8
AM_VIS
  6
Continuous
 62
     7
100
AcDbLine
 10
114.0650613215079
 20
78.1189187191097
 30
0.0
 11
114.0650613215079
 21
74.6189187191097
 31
0.0
  0
LINE
  5
A7
330
39
100
AcDbEntity
  8
1
  6
Continuous
 62
     7
100
AcDbLine
 10
113.2150613215078
 20
78.1189187191097
 30
0.0
 11
114.0650613215079
 21
78.1189187191097
 31
0.0
  0
LINE
  5
A8
330
39
100
AcDbEntity
  8
1
  6
Continuous
 62
     7
100
AcDbLine
 10
113.2150613215078
 20
68.1189187191097
 30
0.0
 11
113.2150613215078
 21
78.1189187191097
 31
0.0
  0
LINE
  5
A9
330
39
100
AcDbEntity
  8
1
  6
Continuous
 62
     7
100
AcDbLine
 10
45.74286849999999
 20
74.618931
 30
0.0
 11
45.74286849999999
 21
74.61893184134621
 31
0.0
  0
LINE
  5
AA
330
39
100
AcDbEntity
  8
1
  6
Continuous
 62
     7
100
AcDbLine
 10
45.74286849999999
 20
74.61893184134621
 30
0.0
 11
44.89286849999996
 21
74.61893184134621
 31
0.0
  0
LINE
  5
AB
330
39
100
AcDbEntity
  8
AM_VIS
  6
Continuous
 62
     7
100
AcDbLine
 10
44.89286849999996
 20
78.618931
 30
0.0
 11
45.74286849999999
 21
78.618931
 31
0.0
  0
LINE
  5
AC
330
39
100
AcDbEntity
  8
1
  6
Continuous
 62
     7
100
AcDbLine
 10
45.74286849999999
 20
74.61893184134621
 30
0.0
 11
45.74286849999999
 21
78.618931
 31
0.0
  0
LINE
  5
AD
330
39
100
AcDbEntity
  8
AM_VIS
  6
Continuous
 62
     2
100
AcDbLine
 10
55.55616850000001
 20
98.63522900000001
 30
0.0
 11
44.51012550000007
 21
98.63522900000001
 31
0.0
  0
LINE
  5
AE
330
39
100
AcDbEntity
  8
AM_VIS
  6
Continuous
 62
     2
100
AcDbLine
 10
55.55616850000001
 20
97.47005100000001
 30
0.0
 11
45.18751150000003
 21
97.4700510000001
 31
0.0
  0
LINE
  5
AF
330
39
100
AcDbEntity
  8
AM_VIS
  6
Continuous
 62
     2
100
AcDbLine
 10
55.55616850000001
 20
96.542291
 30
0.0
 11
45.43765449999989
 21
96.542291
 31
0.0
  0
LINE
  5
B0
330
39
100
AcDbEntity
  8
AM_VIS
  6
Continuous
 62
     2
100
AcDbLine
 10
55.55616850000001
 20
95.247614
 30
0.0
 11
45.59924049579581
 21
95.247614
 31
0.0
  0
LINE
  5
B1
330
39
100
AcDbEntity
  8
AM_VIS
  6
Continuous
 62
     2
100
AcDbLine
 10
55.55616850000001
 20
94.240937
 30
0.0
 11
45.6474915
 21
94.240937
 31
0.0
  0
LINE
  5
B2
330
39
100
AcDbEntity
  8
AM_VIS
  6
Continuous
 62
     2
100
AcDbLine
 10
55.55616850000001
 20
92.86651499999991
 30
0.0
 11
45.66544149999993
 21
92.86651499999999
 31
0.0
  0
LINE
  5
B3
330
39
100
AcDbEntity
  8
AM_VIS
  6
Continuous
 62
     2
100
AcDbLine
 10
55.55616850000001
 20
90.41825700000001
 30
0.0
 11
45.65971134603274
 21
90.41825700000001
 31
0.0
  0
LINE
  5
B4
330
39
100
AcDbEntity
  8
AM_VIS
  6
Continuous
 62
     2
100
AcDbLine
 10
55.55616850000001
 20
91.819605
 30
0.0
 11
45.66202517289321
 21
91.819605
 31
0.0
  0
LINE
  5
B5
330
39
100
AcDbEntity
  8
1
  6
DOT_CENTER
 62
     2
100
AcDbLine
 10
56.55616850000001
 20
91.118931
 30
0.0
 11
67.85616849999997
 21
91.118931
 31
0.0
  0
LINE
  5
B6
330
39
100
AcDbEntity
  8
AM_VIS
  6
Continuous
 62
     7
100
AcDbLine
 10
58.55616850000001
 20
102.6689309999999
 30
0.0
 11
57.95616849999999
 21
102.6689309999999
 31
0.0
  0
LINE
  5
B7
330
39
100
AcDbEntity
  8
AM_VIS
  6
Continuous
 62
     7
100
AcDbLine
 10
57.95616849999999
 20
101.693931
 30
0.0
 11
56.35616849999997
 21
101.693931
 31
0.0
  0
LINE
  5
B8
330
39
100
AcDbEntity
  8
AM_VIS
  6
Continuous
 62
     7
100
AcDbLine
 10
56.35616849999997
 20
102.6689309999999
 30
0.0
 11
55.55616850000001
 21
102.6689309999999
 31
0.0
  0
LINE
  5
B9
330
39
100
AcDbEntity
  8
AM_VIS
  6
Continuous
 62
     7
100
AcDbLine
 10
65.85616849999997
 20
102.618931
 30
0.0
 11
58.55616850000001
 21
102.618931
 31
0.0
  0
LINE
  5
BA
330
39
100
AcDbEntity
  8
AM_VIS
  6
Continuous
 62
     7
100
AcDbLine
 10
66.55616850000001
 20
101.9189309999999
 30
0.0
 11
65.85616849999997
 21
102.618931
 31
0.0
  0
LINE
  5
BB
330
39
100
AcDbEntity
  8
AM_VIS
  6
Continuous
 62
     7
100
AcDbLine
 10
66.55616850000001
 20
80.31893099999999
 30
0.0
 11
66.55616850000001
 21
91.118931
 31
0.0
  0
LINE
  5
BC
330
39
100
AcDbEntity
  8
AM_VIS
  6
Continuous
 62
     7
100
AcDbLine
 10
66.55616850000001
 20
80.31893099999999
 30
0.0
 11
71.75616850000011
 21
80.31893099999999
 31
0.0
  0
LINE
  5
BD
330
39
100
AcDbEntity
  8
AM_VIS
  6
Continuous
 62
     7
100
AcDbLine
 10
65.85616849999997
 20
79.618931
 30
0.0
 11
65.85616849999997
 21
87.16798199999991
 31
0.0
  0
LINE
  5
BE
330
39
100
AcDbEntity
  8
AM_VIS
  6
Continuous
 62
     7
100
AcDbLine
 10
58.55616850000001
 20
95.213134
 30
0.0
 11
58.55616850000001
 21
95.06988000000001
 31
0.0
  0
LINE
  5
BF
330
39
100
AcDbEntity
  8
AM_VIS
  6
Continuous
 62
     7
100
AcDbLine
 10
57.95616849999999
 20
95.213134
 30
0.0
 11
58.55616850000001
 21
95.213134
 31
0.0
  0
LINE
  5
C0
330
39
100
AcDbEntity
  8
AM_VIS
  6
Continuous
 62
     7
100
AcDbLine
 10
57.95616849999999
 20
87.02472800000001
 30
0.0
 11
57.95616849999999
 21
95.213134
 31
0.0
  0
LINE
  5
C1
330
39
100
AcDbEntity
  8
AM_VIS
  6
Continuous
 62
     7
100
AcDbLine
 10
58.55616850000001
 20
87.02472800000001
 30
0.0
 11
57.95616849999999
 21
87.02472800000001
 31
0.0
  0
LINE
  5
C2
330
39
100
AcDbEntity
  8
AM_VIS
  6
Continuous
 62
     7
100
AcDbLine
 10
58.55616850000001
 20
87.16798199999991
 30
0.0
 11
58.55616850000001
 21
87.02472800000001
 31
0.0
  0
LINE
  5
C3
330
39
100
AcDbEntity
  8
AM_VIS
  6
Continuous
 62
     7
100
AcDbLine
 10
57.95616849999999
 20
79.56893099999999
 30
0.0
 11
57.95616849999999
 21
80.5439309999999
 31
0.0
  0
LINE
  5
C4
330
39
100
AcDbEntity
  8
AM_VIS
  6
Continuous
 62
     7
100
AcDbLine
 10
58.55616850000001
 20
79.56893099999999
 30
0.0
 11
58.55616850000001
 21
79.618931
 31
0.0
  0
LINE
  5
C5
330
39
100
AcDbEntity
  8
AM_VIS
  6
Continuous
 62
     7
100
AcDbLine
 10
57.95616849999999
 20
79.56893099999999
 30
0.0
 11
58.55616850000001
 21
79.56893099999999
 31
0.0
  0
LINE
  5
C6
330
39
100
AcDbEntity
  8
AM_VIS
  6
Continuous
 62
     7
100
AcDbLine
 10
56.35616849999997
 20
80.5439309999999
 30
0.0
 11
57.95616849999999
 21
80.5439309999999
 31
0.0
  0
LINE
  5
C7
330
39
100
AcDbEntity
  8
AM_VIS
  6
Continuous
 62
     7
100
AcDbLine
 10
55.55616850000001
 20
79.56893099999999
 30
0.0
 11
56.35616849999997
 21
79.56893099999999
 31
0.0
  0
LINE
  5
C8
330
39
100
AcDbEntity
  8
AM_VIS
  6
Continuous
 62
     7
100
AcDbLine
 10
58.55616850000001
 20
95.06988000000001
 30
0.0
 11
65.85616849999997
 21
95.06988000000001
 31
0.0
  0
LINE
  5
C9
330
39
100
AcDbEntity
  8
AM_VIS
  6
Continuous
 62
     7
100
AcDbLine
 10
65.85616849999997
 20
87.16798199999991
 30
0.0
 11
58.55616850000001
 21
87.16798199999991
 31
0.0
  0
LINE
  5
CA
330
39
100
AcDbEntity
  8
AM_VIS
  6
Continuous
 62
     7
100
AcDbLine
 10
58.55616850000001
 20
79.618931
 30
0.0
 11
65.85616849999997
 21
79.618931
 31
0.0
  0
LINE
  5
CB
330
39
100
AcDbEntity
  8
AM_VIS
  6
Continuous
 62
     7
100
AcDbLine
 10
66.38256449999994
 20
89.17470900000001
 30
0.0
 11
65.85616849999997
 21
87.16798199999991
 31
0.0
  0
LINE
  5
CC
330
39
100
AcDbEntity
  8
AM_VIS
  6
Continuous
 62
     7
100
AcDbLine
 10
66.55616850000001
 20
91.118931
 30
0.0
 11
66.38256449999994
 21
89.17470900000001
 31
0.0
  0
LINE
  5
CD
330
39
100
AcDbEntity
  8
AM_VIS
  6
Continuous
 62
     7
100
AcDbLine
 10
66.38256449999994
 20
93.06315299999989
 30
0.0
 11
66.55616850000001
 21
91.118931
 31
0.0
  0
LINE
  5
CE
330
39
100
AcDbEntity
  8
AM_VIS
  6
Continuous
 62
     7
100
AcDbLine
 10
65.85616849999997
 20
95.06988000000001
 30
0.0
 11
66.38256449999994
 21
93.06315299999989
 31
0.0
  0
LINE
  5
CF
330
39
100
AcDbEntity
  8
AM_VIS
  6
Continuous
 62
     7
100
AcDbLine
 10
65.85616849999997
 20
79.618931
 30
0.0
 11
66.55616850000001
 21
80.31893099999999
 31
0.0
  0
LINE
  5
D0
330
39
100
AcDbEntity
  8
AM_VIS
  6
Continuous
 62
     7
100
AcDbLine
 10
57.95616849999999
 20
95.213134
 30
0.0
 11
57.95616849999999
 21
101.693931
 31
0.0
  0
LINE
  5
D1
330
39
100
AcDbEntity
  8
AM_VIS
  6
Continuous
 62
     7
100
AcDbLine
 10
58.55616850000001
 20
95.213134
 30
0.0
 11
58.55616850000001
 21
102.618931
 31
0.0
  0
LINE
  5
D2
330
39
100
AcDbEntity
  8
AM_VIS
  6
Continuous
 62
     7
100
AcDbLine
 10
65.85616849999997
 20
95.06988000000001
 30
0.0
 11
65.85616849999997
 21
102.618931
 31
0.0
  0
LINE
  5
D3
330
39
100
AcDbEntity
  8
AM_VIS
  6
Continuous
 62
     7
100
AcDbLine
 10
66.55616850000001
 20
91.118931
 30
0.0
 11
66.55616850000001
 21
101.9189309999999
 31
0.0
  0
LINE
  5
D4
330
39
100
AcDbEntity
  8
AM_VIS
  6
Continuous
 62
     7
100
AcDbLine
 10
56.35616849999997
 20
79.56893099999999
 30
0.0
 11
56.35616849999997
 21
80.5439309999999
 31
0.0
  0
LINE
  5
D5
330
39
100
AcDbEntity
  8
AM_VIS
  6
Continuous
 62
     7
100
AcDbLine
 10
55.55616850000001
 20
104.118931
 30
0.0
 11
20.05616850000001
 21
104.118931
 31
0.0
  0
LINE
  5
D6
330
39
100
AcDbEntity
  8
AM_VIS
  6
Continuous
 62
     2
100
AcDbLine
 10
55.55616850000001
 20
101.331017
 30
0.0
 11
22.26698850000002
 21
101.331017
 31
0.0
  0
LINE
  5
D7
330
39
100
AcDbEntity
  8
AM_VIS
  6
Continuous
 62
     2
100
AcDbLine
 10
55.55616850000001
 20
100.438593
 30
0.0
 11
22.93279349999989
 21
100.438593
 31
0.0
  0
LINE
  5
D8
330
39
100
AcDbEntity
  8
AM_VIS
  6
Continuous
 62
     2
100
AcDbLine
 10
55.55616850000001
 20
81.798542
 30
0.0
 11
41.53113549999989
 21
81.798542
 31
0.0
  0
LINE
  5
D9
330
39
100
AcDbEntity
  8
AM_VIS
  6
Continuous
 62
     2
100
AcDbLine
 10
55.55616850000001
 20
82.789444
 30
0.0
 11
43.13375450000001
 21
82.789444
 31
0.0
  0
LINE
  5
DA
330
39
100
AcDbEntity
  8
AM_VIS
  6
Continuous
 62
     7
100
AcDbLine
 10
55.55616850000001
 20
89.90351799999999
 30
0.0
 11
45.66438749999998
 21
89.90351799999999
 31
0.0
  0
LINE
  5
DB
330
39
100
AcDbEntity
  8
AM_VIS
  6
Continuous
 62
     2
100
AcDbLine
 10
55.55616850000001
 20
89.37134699999999
 30
0.0
 11
45.66544149999993
 21
89.37134699999999
 31
0.0
  0
LINE
  5
DC
330
39
100
AcDbEntity
  8
AM_VIS
  6
Continuous
 62
     2
100
AcDbLine
 10
55.55616850000001
 20
87.996925
 30
0.0
 11
45.6474915
 21
87.996925
 31
0.0
  0
LINE
  5
DD
330
39
100
AcDbEntity
  8
AM_VIS
  6
Continuous
 62
     2
100
AcDbLine
 10
55.55616850000001
 20
86.99024700000001
 30
0.0
 11
45.59924049999995
 21
86.99024700000001
 31
0.0
  0
LINE
  5
DE
330
39
100
AcDbEntity
  8
AM_VIS
  6
Continuous
 62
     2
100
AcDbLine
 10
55.55616850000001
 20
85.695571
 30
0.0
 11
45.43765449999989
 21
85.695571
 31
0.0
  0
LINE
  5
DF
330
39
100
AcDbEntity
  8
AM_VIS
  6
Continuous
 62
     2
100
AcDbLine
 10
55.55616850000001
 20
84.76781099999991
 30
0.0
 11
45.18751150000003
 21
84.76781099999991
 31
0.0
  0
LINE
  5
E0
330
39
100
AcDbEntity
  8
AM_VIS
  6
Continuous
 62
     2
100
AcDbLine
 10
55.55616850000001
 20
83.602633
 30
0.0
 11
44.51012550000007
 21
83.602633
 31
0.0
  0
LINE
  5
E1
330
39
100
AcDbEntity
  8
AM_VIS
  6
Continuous
 62
     2
100
AcDbLine
 10
55.55616850000001
 20
81.13117500000001
 30
0.0
 11
42.24729350000007
 21
81.13117500000001
 31
0.0
  0
LINE
  5
E2
330
39
100
AcDbEntity
  8
AM_VIS
  6
Continuous
 62
     2
100
AcDbLine
 10
55.55616850000001
 20
80.35262800000001
 30
0.0
 11
43.07438549999984
 21
80.35262800000001
 31
0.0
  0
LINE
  5
E3
330
39
100
AcDbEntity
  8
AM_VIS
  6
Continuous
 62
     2
100
AcDbLine
 10
55.55616850000001
 20
79.85673
 30
0.0
 11
43.59740850000003
 21
79.85673
 31
0.0
  0
LINE
  5
E4
330
39
100
AcDbEntity
  8
AM_VIS
  6
Continuous
 62
     2
100
AcDbLine
 10
55.55616850000001
 20
79.01508499999991
 30
0.0
 11
44.47963249999987
 21
79.01508499999991
 31
0.0
  0
LINE
  5
E5
330
39
100
AcDbEntity
  8
AM_VIS
  6
Continuous
 62
     2
100
AcDbLine
 10
55.55616850000001
 20
78.63858400000001
 30
0.0
 11
44.87239550000004
 21
78.63858400000001
 31
0.0
  0
LINE
  5
E6
330
39
100
AcDbEntity
  8
AM_VIS
  6
Continuous
 62
     7
100
AcDbLine
 10
45.74286849999999
 20
78.618931
 30
0.0
 11
55.55616850000001
 21
78.618931
 31
0.0
  0
LINE
  5
E7
330
39
100
AcDbEntity
  8
AM_VIS
  6
Continuous
 62
     7
100
AcDbLine
 10
57.95616849999999
 20
80.5439309999999
 30
0.0
 11
57.95616849999999
 21
87.02472800000001
 31
0.0
  0
LINE
  5
E8
330
39
100
AcDbEntity
  8
AM_VIS
  6
Continuous
 62
     7
100
AcDbLine
 10
56.35616849999997
 20
80.5439309999999
 30
0.0
 11
56.35616849999997
 21
101.693931
 31
0.0
  0
LINE
  5
E9
330
39
100
AcDbEntity
  8
AM_VIS
  6
Continuous
 62
     7
100
AcDbLine
 10
56.35616849999997
 20
101.693931
 30
0.0
 11
56.35616849999997
 21
102.6689309999999
 31
0.0
  0
LINE
  5
EA
330
39
100
AcDbEntity
  8
AM_VIS
  6
Continuous
 62
     7
100
AcDbLine
 10
57.95616849999999
 20
101.693931
 30
0.0
 11
57.95616849999999
 21
102.6689309999999
 31
0.0
  0
LINE
  5
EB
330
39
100
AcDbEntity
  8
AM_VIS
  6
Continuous
 62
     7
100
AcDbLine
 10
55.55616850000001
 20
102.6689309999999
 30
0.0
 11
55.55616850000001
 21
79.56893099999999
 31
0.0
  0
LINE
  5
EC
330
39
100
AcDbEntity
  8
AM_VIS
  6
Continuous
 62
     7
100
AcDbLine
 10
58.55616850000001
 20
102.618931
 30
0.0
 11
58.55616850000001
 21
102.6689309999999
 31
0.0
  0
LINE
  5
ED
330
39
100
AcDbEntity
  8
AM_VIS
  6
Continuous
 62
     7
100
AcDbLine
 10
55.55616850000001
 20
78.618931
 30
0.0
 11
55.55616850000001
 21
79.56893099999999
 31
0.0
  0
LINE
  5
EE
330
39
100
AcDbEntity
  8
AM_VIS
  6
Continuous
 62
     7
100
AcDbLine
 10
58.55616850000001
 20
79.618931
 30
0.0
 11
58.55616850000001
 21
87.02472800000001
 31
0.0
  0
LINE
  5
EF
330
39
100
AcDbEntity
  8
1
  6
DOT_CENTER
 62
     2
100
AcDbLine
 10
126.064829952566
 20
63.61828323175689
 30
0.0
 11
126.0669913112087
 21
105.667641882972
 31
0.0
  0
LINE
  5
F0
330
39
100
AcDbEntity
  8
AM_VIS
  6
Continuous
 62
     7
100
AcDbLine
 10
113.2150613215078
 20
68.1189187191097
 30
0.0
 11
113.2150613215078
 21
65.6189437191097
 31
0.0
  0
LINE
  5
F1
330
39
100
AcDbEntity
  8
AM_VIS
  6
Continuous
 62
     7
100
AcDbLine
 10
138.9148043215079
 20
65.6189437191097
 30
0.0
 11
138.9150613215079
 21
68.1189187191097
 31
0.0
  0
LINE
  5
F2
330
39
100
AcDbEntity
  8
AM_VIS
  6
Continuous
 62
     7
100
AcDbLine
 10
138.9015423215079
 20
65.6189437191097
 30
0.0
 11
138.9148043215079
 21
65.6189437191097
 31
0.0
  0
LINE
  5
F3
330
39
100
AcDbEntity
  8
AM_VIS
  6
Continuous
 62
     7
100
AcDbLine
 10
135.8746083215079
 20
80.20713371910969
 30
0.0
 11
135.8746056937725
 21
69.61892371910969
 31
0.0
  0
LINE
  5
F4
330
39
100
AcDbEntity
  8
AM_VIS
  6
Continuous
 62
     7
100
AcDbLine
 10
132.9768513215079
 20
68.1189187191097
 30
0.0
 11
132.9768463215079
 21
77.30937171910969
 31
0.0
  0
LINE
  5
F5
330
39
100
AcDbEntity
  8
AM_VIS
  6
Continuous
 62
     7
100
AcDbLine
 10
138.0650613215079
 20
68.1189187191097
 30
0.0
 11
138.0650613215079
 21
74.6189187191097
 31
0.0
  0
LINE
  5
F6
330
39
100
AcDbEntity
  8
AM_VIS
  6
Continuous
 62
     7
100
AcDbLine
 10
114.0650613215079
 20
87.6189310000002
 30
0.0
 11
114.0650613215079
 21
78.1189187191097
 31
0.0
  0
LINE
  5
F7
330
39
100
AcDbEntity
  8
AM_VIS
  6
Continuous
 62
     7
100
AcDbLine
 10
113.2150613215078
 20
65.6189437191097
 30
0.0
 11
138.9015423215079
 21
65.6189437191097
 31
0.0
  0
LINE
  5
F8
330
39
100
AcDbEntity
  8
AM_VIS
  6
Continuous
 62
     7
100
AcDbLine
 10
119.1532713215079
 20
77.30937471910971
 30
0.0
 11
119.1532713215079
 21
68.1189187191097
 31
0.0
  0
LINE
  5
F9
330
39
100
AcDbEntity
  8
1
  6
Continuous
 62
     7
100
AcDbLine
 10
138.9150613215079
 20
68.1189187191097
 30
0.0
 11
138.0650613215079
 21
68.1189187191097
 31
0.0
  0
LINE
  5
FA
330
39
100
AcDbEntity
  8
AM_VIS
  6
Continuous
 62
     7
100
AcDbLine
 10
116.2567303215079
 20
80.69891871910971
 30
0.0
 11
116.2567303215079
 21
83.3995157191097
 31
0.0
  0
LINE
  5
FB
330
39
100
AcDbEntity
  8
AM_VIS
  6
Continuous
 62
     7
100
AcDbLine
 10
116.2555133215079
 20
80.20713371910969
 30
0.0
 11
116.2555133215079
 21
80.69891871910971
 31
0.0
  0
LINE
  5
FC
330
39
100
AcDbEntity
  8
AM_VIS
  6
Continuous
 62
     7
100
AcDbLine
 10
116.2555133215079
 20
80.69891871910971
 30
0.0
 11
116.2567303215079
 21
80.69891871910971
 31
0.0
  0
LINE
  5
FD
330
39
100
AcDbEntity
  8
AM_VIS
  6
Continuous
 62
     7
100
AcDbLine
 10
119.1532173215079
 20
80.6989577191097
 30
0.0
 11
119.1532713215079
 21
77.30937471910971
 31
0.0
  0
LINE
  5
FE
330
39
100
AcDbEntity
  8
AM_VIS
  6
Continuous
 62
     7
100
AcDbLine
 10
132.9768463215079
 20
80.69891871910971
 30
0.0
 11
135.8733913215079
 21
80.69891871910971
 31
0.0
  0
LINE
  5
FF
330
39
100
AcDbEntity
  8
AM_VIS
  6
Continuous
 62
     7
100
AcDbLine
 10
135.8733913215079
 20
83.3995157191097
 30
0.0
 11
135.8733913215079
 21
80.69891871910971
 31
0.0
  0
LINE
  5
100
330
39
100
AcDbEntity
  8
AM_VIS
  6
Continuous
 62
     7
100
AcDbLine
 10
135.8733913215079
 20
80.69891871910971
 30
0.0
 11
135.8746083215079
 21
80.69891871910971
 31
0.0
  0
LINE
  5
101
330
39
100
AcDbEntity
  8
AM_VIS
  6
Continuous
 62
     7
100
AcDbLine
 10
135.8746083215079
 20
80.69891871910971
 30
0.0
 11
135.8746083215079
 21
80.20713371910969
 31
0.0
  0
LINE
  5
102
330
39
100
AcDbEntity
  8
AM_VIS
  6
Continuous
 62
     7
100
AcDbLine
 10
132.9768463215079
 20
77.30937171910969
 30
0.0
 11
132.9768463215079
 21
80.69891871910971
 31
0.0
  0
LINE
  5
103
330
39
100
AcDbEntity
  8
AM_VIS
  6
Continuous
 62
     7
100
AcDbLine
 10
133.8538453215079
 20
79.33013471910971
 30
0.0
 11
135.8746083215079
 21
80.20713371910969
 31
0.0
  0
LINE
  5
104
330
39
100
AcDbEntity
  8
AM_VIS
  6
Continuous
 62
     7
100
AcDbLine
 10
132.9768463215079
 20
77.30937171910969
 30
0.0
 11
133.8538453215079
 21
79.33013471910971
 31
0.0
  0
LINE
  5
105
330
39
100
AcDbEntity
  8
AM_VIS
  6
Continuous
 62
     7
100
AcDbLine
 10
116.2567303215079
 20
80.69891871910971
 30
0.0
 11
119.1532173215079
 21
80.6989577191097
 31
0.0
  0
LINE
  5
106
330
39
100
AcDbEntity
  8
AM_VIS
  6
Continuous
 62
     7
100
AcDbLine
 10
118.2762773215079
 20
79.33013471910971
 30
0.0
 11
119.1532713215079
 21
77.30937471910971
 31
0.0
  0
LINE
  5
107
330
39
100
AcDbEntity
  8
AM_VIS
  6
Continuous
 62
     7
100
AcDbLine
 10
116.2555133215079
 20
80.20713371910969
 30
0.0
 11
118.2762773215079
 21
79.33013471910971
 31
0.0
  0
LINE
  5
108
330
39
100
AcDbEntity
  8
1
  6
DOT_CENTER
 62
     2
100
AcDbLine
 10
139.5129164684803
 20
91.118931
 30
0.0
 11
112.314027969127
 21
91.118931
 31
0.0
  0
LINE
  5
109
330
39
100
AcDbEntity
  8
AM_VIS
  6
Continuous
 62
     2
100
AcDbLine
 10
20.05616850000001
 20
78.618931
 30
0.0
 11
20.05648436059209
 21
78.618931
 31
0.0
  0
LINE
  5
10A
330
39
100
AcDbEntity
  8
1
  6
Continuous
 62
     3
100
AcDbLine
 10
28.7500624999999
 20
85.695571
 30
0.0
 11
30.70288449999998
 21
86.99024700000001
 31
0.0
  0
LINE
  5
10B
330
39
100
AcDbEntity
  8
AM_VIS
  6
Continuous
 62
     2
100
AcDbLine
 10
39.28504650000002
 20
87.996925
 30
0.0
 11
27.57729649999999
 21
87.996925
 31
0.0
  0
LINE
  5
10C
330
39
100
AcDbEntity
  8
1
  6
Continuous
 62
     3
100
AcDbLine
 10
35.08285249999994
 20
86.99024700000001
 30
0.0
 11
37.03567449999991
 21
85.695571
 31
0.0
  0
LINE
  5
10D
330
39
100
AcDbEntity
  8
1
  6
Continuous
 62
     3
100
AcDbLine
 10
20.05616850000001
 20
104.118931
 30
0.0
 11
21.05600249999998
 21
103.9066079999999
 31
0.0
  0
LINE
  5
10E
330
39
100
AcDbEntity
  8
1
  6
Continuous
 62
     3
100
AcDbLine
 10
20.05648436059209
 20
78.618931
 30
0.0
 11
22.34210350000001
 21
81.13117500000001
 31
0.0
  0
LINE
  5
10F
330
39
100
AcDbEntity
  8
1
  6
Continuous
 62
     3
100
AcDbLine
 10
23.78694090124668
 20
99.44841799999989
 30
0.0
 11
26.99522149999996
 21
95.247614
 31
0.0
  0
LINE
  5
110
330
39
100
AcDbEntity
  8
1
  6
Continuous
 62
     3
100
AcDbLine
 10
39.28504650000002
 20
87.996925
 30
0.0
 11
39.28504650000002
 21
94.240937
 31
0.0
  0
LINE
  5
111
330
39
100
AcDbEntity
  8
1
  6
Continuous
 62
     3
100
AcDbLine
 10
45.6474915
 20
87.996925
 30
0.0
 11
45.6474915
 21
94.240937
 31
0.0
  0
LINE
  5
112
330
39
100
AcDbEntity
  8
AM_VIS
  6
Continuous
 62
     7
100
AcDbLine
 10
44.89286849999996
 20
68.11893099999989
 30
0.0
 11
44.89286849999996
 21
74.61893184134621
 31
0.0
  0
LINE
  5
113
330
39
100
AcDbEntity
  8
1
  6
Continuous
 62
     7
100
AcDbLine
 10
27.98107849999997
 20
74.61894858087251
 30
0.0
 11
44.89286849999996
 21
74.61893184134621
 31
0.0
  0
LINE
  5
114
330
39
100
AcDbEntity
  8
1
  6
DOT_CENTER
 62
     2
100
AcDbLine
 10
42.8029724999999
 20
64.74911406090291
 30
0.0
 11
42.8029724999999
 21
68.69228048094189
 31
0.0
  0
LINE
  5
115
330
39
100
AcDbEntity
  8
AM_VIS
  6
Continuous
 62
     7
100
AcDbLine
 10
45.74286849999987
 20
68.11893099999989
 30
0.0
 11
44.89286849999996
 21
68.11893099999989
 31
0.0
  0
LINE
  5
116
330
39
100
AcDbEntity
  8
AM_VIS
  6
Continuous
 62
     7
100
AcDbLine
 10
20.04286850000005
 20
68.1189310000016
 30
0.0
 11
20.04286850000005
 21
67.41894300000001
 31
0.0
  0
LINE
  5
117
330
39
100
AcDbEntity
  8
AM_VIS
  6
Continuous
 62
     7
100
AcDbLine
 10
23.08332150000001
 20
68.11893099999989
 30
0.0
 11
22.8692135
 21
68.11893099999989
 31
0.0
  0
LINE
  5
118
330
39
100
AcDbEntity
  8
AM_VIS
  6
Continuous
 62
     7
100
AcDbLine
 10
44.89286849999996
 20
68.11893099999989
 30
0.0
 11
42.91652449999992
 21
68.118931
 31
0.0
  0
LINE
  5
119
330
39
100
AcDbEntity
  8
1
  6
Continuous
 62
     2
100
AcDbLine
 10
23.78694090124668
 20
99.44841799999989
 30
0.0
 11
55.55616850000001
 21
99.44841799999989
 31
0.0
  0
LINE
  5
11A
330
39
100
AcDbEntity
  8
1
  6
Continuous
 62
     2
100
AcDbLine
 10
26.99522149999996
 20
95.247614
 30
0.0
 11
39.33329649999996
 21
95.247615
 31
0.0
  0
LINE
  5
11B
330
39
100
AcDbEntity
  8
AM_VIS
  6
Continuous
 62
     2
100
AcDbLine
 10
39.26815050000005
 20
91.819605
 30
0.0
 11
28.40923350000003
 21
91.819605
 31
0.0
  0
LINE
  5
11C
330
39
100
AcDbEntity
  8
AM_VIS
  6
Continuous
 62
     2
100
AcDbLine
 10
39.26709649999998
 20
92.86651499999999
 30
0.0
 11
28.16598750000003
 21
92.86651499999999
 31
0.0
  0
LINE
  5
11D
330
39
100
AcDbEntity
  8
AM_VIS
  6
Continuous
 62
     2
100
AcDbLine
 10
39.28504650000002
 20
94.240937
 30
0.0
 11
27.57729649999999
 21
94.240937
 31
0.0
  0
LINE
  5
11E
330
39
100
AcDbEntity
  8
AM_VIS
  6
Continuous
 62
     2
100
AcDbLine
 10
39.49488350000001
 20
96.542291
 30
0.0
 11
26.1121885
 21
96.542291
 31
0.0
  0
LINE
  5
11F
330
39
100
AcDbEntity
  8
AM_VIS
  6
Continuous
 62
     2
100
AcDbLine
 10
39.7450255
 20
97.47005100000001
 30
0.0
 11
25.41143250000005
 21
97.47005100000001
 31
0.0
  0
LINE
  5
120
330
39
100
AcDbEntity
  8
AM_VIS
  6
Continuous
 62
     2
100
AcDbLine
 10
40.42241149999995
 20
98.63522900000001
 30
0.0
 11
24.47350749999998
 21
98.63522900000001
 31
0.0
  0
LINE
  5
121
330
39
100
AcDbEntity
  8
AM_VIS
  6
Continuous
 62
     2
100
AcDbLine
 10
39.26815050000005
 20
90.41825700000001
 30
0.0
 11
28.40923350000003
 21
90.41825700000001
 31
0.0
  0
LINE
  5
122
330
39
100
AcDbEntity
  8
AM_VIS
  6
Continuous
 62
     2
100
AcDbLine
 10
28.7500624999999
 20
85.695571
 30
0.0
 11
26.09116296341324
 21
85.695571
 31
0.0
  0
LINE
  5
123
330
39
100
AcDbEntity
  8
AM_VIS
  6
Continuous
 62
     2
100
AcDbLine
 10
27.56217473973186
 20
84.767811
 30
0.0
 11
25.42437507578518
 21
84.767811
 31
0.0
  0
LINE
  5
124
330
39
100
AcDbEntity
  8
AM_VIS
  6
Continuous
 62
     2
100
AcDbLine
 10
26.14572232118269
 20
83.602633
 30
0.0
 11
24.52283268250176
 21
83.602633
 31
0.0
  0
LINE
  5
125
330
39
100
AcDbEntity
  8
AM_VIS
  6
Continuous
 62
     7
100
AcDbLine
 10
20.05616850000001
 20
104.118931
 30
0.0
 11
20.05616850000001
 21
78.618931
 31
0.0
  0
LINE
  5
126
330
39
100
AcDbEntity
  8
AM_VIS
  6
Continuous
 62
     7
100
AcDbLine
 10
35.67745550000041
 20
89.90351799999999
 30
0.0
 11
20.89286849999996
 21
75.118931
 31
0.0
  0
LINE
  5
127
330
39
100
AcDbEntity
  8
AM_VIS
  6
Continuous
 62
     7
100
AcDbLine
 10
25.98107849999997
 20
77.11893099999989
 30
0.0
 11
25.98107849999985
 21
68.118931
 31
0.0
  0
LINE
  5
128
330
39
100
AcDbEntity
  8
AM_VIS
  6
Continuous
 62
     2
100
AcDbLine
 10
20.05616850000001
 20
78.618931
 30
0.0
 11
20.05648436059209
 21
78.618931
 31
0.0
  0
LINE
  5
129
330
39
100
AcDbEntity
  8
AM_VIS
  6
Continuous
 62
     2
100
AcDbLine
 10
24.10087175969056
 20
81.798542
 30
0.0
 11
22.97027891332334
 21
81.798542
 31
0.0
  0
LINE
  5
12A
330
39
100
AcDbEntity
  8
AM_VIS
  6
Continuous
 62
     2
100
AcDbLine
 10
23.38593269416185
 20
81.13117500000001
 30
0.0
 11
22.34210350000001
 21
81.13117500000001
 31
0.0
  0
LINE
  5
12B
330
39
100
AcDbEntity
  8
AM_VIS
  6
Continuous
 62
     2
100
AcDbLine
 10
22.57804559254544
 20
80.35262800000001
 30
0.0
 11
21.63378777743139
 21
80.35262800000001
 31
0.0
  0
LINE
  5
12C
330
39
100
AcDbEntity
  8
AM_VIS
  6
Continuous
 62
     2
100
AcDbLine
 10
22.0775096200889
 20
79.85673
 30
0.0
 11
21.18262381406078
 21
79.85673
 31
0.0
  0
LINE
  5
12D
330
39
100
AcDbEntity
  8
AM_VIS
  6
Continuous
 62
     2
100
AcDbLine
 10
21.54805034031972
 20
79.320458
 30
0.0
 11
20.69472791416865
 21
79.320458
 31
0.0
  0
LINE
  5
12E
330
39
100
AcDbEntity
  8
AM_VIS
  6
Continuous
 62
     2
100
AcDbLine
 10
21.25189602435023
 20
79.015085
 30
0.0
 11
20.41690204476322
 21
79.015085
 31
0.0
  0
LINE
  5
12F
330
39
100
AcDbEntity
  8
AM_VIS
  6
Continuous
 62
     2
100
AcDbLine
 10
20.98997260507986
 20
78.74169599999999
 30
0.0
 11
20.89286849999996
 21
78.74169599999999
 31
0.0
  0
LINE
  5
130
330
39
100
AcDbEntity
  8
AM_VIS
  6
Continuous
 62
     2
100
AcDbLine
 10
25.20288225891181
 20
82.789444
 30
0.0
 11
23.84796263322346
 21
82.789444
 31
0.0
  0
LINE
  5
131
330
39
100
AcDbEntity
  8
AM_VIS
  6
Continuous
 62
     7
100
AcDbLine
 10
23.08332150000001
 20
80.69893099999999
 30
0.0
 11
25.98108350000007
 21
80.69893099999999
 31
0.0
  0
LINE
  5
132
330
39
100
AcDbEntity
  8
AM_VIS
  6
Continuous
 62
     2
100
AcDbLine
 10
39.7450255
 20
84.767811
 30
0.0
 11
38.22356226026807
 21
84.767811
 31
0.0
  0
LINE
  5
133
330
39
100
AcDbEntity
  8
AM_VIS
  6
Continuous
 62
     2
100
AcDbLine
 10
39.26709649999998
 20
89.37134699999999
 30
0.0
 11
28.16598750000003
 21
89.37134699999999
 31
0.0
  0
LINE
  5
134
330
39
100
AcDbEntity
  8
AM_VIS
  6
Continuous
 62
     2
100
AcDbLine
 10
30.70288549999998
 20
86.99024700000001
 30
0.0
 11
26.99522149999996
 21
86.99024700000001
 31
0.0
  0
LINE
  5
135
330
39
100
AcDbEntity
  8
AM_VIS
  6
Continuous
 62
     2
100
AcDbLine
 10
39.33329649999996
 20
86.99024700000001
 30
0.0
 11
35.08285249999994
 21
86.99024700000001
 31
0.0
  0
LINE
  5
136
330
39
100
AcDbEntity
  8
AM_VIS
  6
Continuous
 62
     2
100
AcDbLine
 10
39.49488350000001
 20
85.695571
 30
0.0
 11
37.03567449999991
 21
85.695571
 31
0.0
  0
LINE
  5
137
330
39
100
AcDbEntity
  8
AM_VIS
  6
Continuous
 62
     7
100
AcDbLine
 10
39.26815050000005
 20
89.90351799999999
 30
0.0
 11
35.67745550000041
 21
89.90351799999999
 31
0.0
  0
LINE
  5
138
330
39
100
AcDbEntity
  8
AM_VIS
  6
Continuous
 62
     7
100
AcDbLine
 10
44.89286849999996
 20
74.61893184134621
 30
0.0
 11
44.89286849999996
 21
78.618931
 31
0.0
  0
LINE
  5
139
330
39
100
AcDbEntity
  8
AM_VIS
  6
Continuous
 62
     7
100
AcDbLine
 10
39.80465850000007
 20
68.118931
 30
0.0
 11
39.80465849999996
 21
83.40113099999999
 31
0.0
  0
LINE
  5
13A
330
39
100
AcDbEntity
  8
AM_VIS
  6
Continuous
 62
     2
100
AcDbLine
 10
40.42241149999995
 20
83.602633
 30
0.0
 11
39.64001467881724
 21
83.602633
 31
0.0
  0
LINE
  5
13B
330
39
100
AcDbEntity
  8
AM_VIS
  6
Continuous
 62
     2
100
AcDbLine
 10
41.79878350000001
 20
82.789444
 30
0.0
 11
40.58285474108811
 21
82.789444
 31
0.0
  0
LINE
  5
13C
330
39
100
AcDbEntity
  8
AM_VIS
  6
Continuous
 62
     7
100
AcDbLine
 10
42.91652449999992
 20
68.118931
 30
0.0
 11
42.70241349999992
 21
68.118931
 31
0.0
  0
LINE
  5
13D
330
39
100
AcDbEntity
  8
1
  6
Continuous
 62
     7
100
AcDbLine
 10
27.98107849999997
 20
77.11893099999989
 30
0.0
 11
27.98107849999997
 21
68.11893099999989
 31
0.0
  0
LINE
  5
13E
330
39
100
AcDbEntity
  8
AM_VIS
  6
Continuous
 62
     7
100
AcDbLine
 10
25.98107849999997
 20
83.46285313663549
 30
0.0
 11
25.98107849999997
 21
77.11893099999989
 31
0.0
  0
LINE
  5
13F
330
39
100
AcDbEntity
  8
1
  6
Continuous
 62
     7
100
AcDbLine
 10
20.89286849999996
 20
74.6189555968819
 30
0.0
 11
25.98107849999997
 21
74.61895056050051
 31
0.0
  0
LINE
  5
140
330
39
100
AcDbEntity
  8
1
  6
Continuous
 62
     7
100
AcDbLine
 10
138.0650613215079
 20
74.6189187191097
 30
0.0
 11
114.0650613215079
 21
74.6189187191097
 31
0.0
  0
LINE
  5
141
330
39
100
AcDbEntity
  8
AM_VIS
  6
Continuous
 62
     7
100
AcDbLine
 10
114.0650613215079
 20
74.6189187191097
 30
0.0
 11
114.0650613215079
 21
68.1189187191097
 31
0.0
  0
LINE
  5
142
330
39
100
AcDbEntity
  8
AM_VIS
  6
Continuous
 62
     7
100
AcDbLine
 10
138.0650613215079
 20
74.6189187191097
 30
0.0
 11
138.0650613215079
 21
87.618931
 31
0.0
  0
LINE
  5
143
330
39
100
AcDbEntity
  8
1
  6
Continuous
 62
     7
100
AcDbLine
 10
138.0650613215079
 20
68.1189187191097
 30
0.0
 11
113.2150613215078
 21
68.1189187191097
 31
0.0
  0
LINE
  5
144
330
39
100
AcDbEntity
  8
AM_VIS
  6
Continuous
 62
     7
100
AcDbLine
 10
71.75616850000011
 20
101.9189309999999
 30
0.0
 11
66.55616850000001
 21
101.9189309999999
 31
0.0
  0
LINE
  5
145
330
39
100
AcDbEntity
  8
AM_VIS
  6
Continuous
 62
     2
100
AcDbLine
 10
55.55616850000001
 20
79.320458
 30
0.0
 11
44.20685704663038
 21
79.320458
 31
0.0
  0
LINE
  5
146
330
39
100
AcDbEntity
  8
AM_VIS
  6
Continuous
 62
     7
100
AcDbLine
 10
116.2555159492433
 20
69.61892371910969
 30
0.0
 11
116.2555133215079
 21
80.20713371910969
 31
0.0
  0
LINE
  5
147
330
39
100
AcDbEntity
  8
AM_VIS
  6
Continuous
 62
     7
100
AcDbLine
 10
42.70241349999992
 20
68.118931
 30
0.0
 11
23.08332150000001
 21
68.11893099999989
 31
0.0
  0
LINE
  5
148
330
39
100
AcDbEntity
  8
AM_VIS
  6
Continuous
 62
     7
100
AcDbLine
 10
42.91652449999992
 20
68.118931
 30
0.0
 11
42.70241349999992
 21
68.118931
 31
0.0
  0
LINE
  5
149
330
39
100
AcDbEntity
  8
AM_VIS
  6
Continuous
 62
     7
100
AcDbLine
 10
22.8692135
 20
68.11893099999989
 30
0.0
 11
20.89286849999996
 21
68.11893100000111
 31
0.0
  0
LINE
  5
14A
330
39
100
AcDbEntity
  8
AM_VIS
  6
Continuous
 62
     7
100
AcDbLine
 10
23.08332150000001
 20
68.11893099999989
 30
0.0
 11
22.8692135
 21
68.11893099999989
 31
0.0
  0
LINE
  5
14B
330
39
100
AcDbEntity
  8
AM_VIS
  6
Continuous
 62
     2
100
AcDbLine
 10
20.05648436059209
 20
78.618931
 30
0.0
 11
20.89286849999996
 21
78.618931
 31
0.0
  0
LINE
  5
14C
330
39
100
AcDbEntity
  8
AM_VIS
  6
Continuous
 62
     7
100
AcDbLine
 10
23.08332150000001
 20
69.6189360000001
 30
0.0
 11
23.08332150000001
 21
80.69893099999999
 31
0.0
  0
LINE
  5
14D
330
39
100
AcDbEntity
  8
AM_VIS
  6
Continuous
 62
     7
100
AcDbLine
 10
42.70241349999992
 20
80.84265196995489
 30
0.0
 11
42.70241349999992
 21
69.6189360000001
 31
0.0
  0
LINE
  5
14E
330
39
100
AcDbEntity
  8
AM_VIS
  6
Continuous
 62
     7
100
AcDbLine
 10
45.74286849999996
 20
67.41875203190699
 30
0.0
 11
45.74286849999987
 21
68.11893099999989
 31
0.0
  0
LINE
  5
14F
330
39
100
AcDbEntity
  8
AM_VIS
  6
Continuous
 62
     7
100
AcDbLine
 10
42.09287031399944
 20
65.6189355894721
 30
0.0
 11
23.69286509253496
 21
65.61895380205459
 31
0.0
  0
LINE
  5
150
330
39
100
AcDbEntity
  8
AM_VIS
  6
Continuous
 62
     7
100
AcDbLine
 10
20.89286849999996
 20
78.74169599999999
 30
0.0
 11
20.89286849999996
 21
68.11893100000111
 31
0.0
  0
LINE
  5
151
330
39
100
AcDbEntity
  8
AM_VIS
  6
Continuous
 62
     2
100
AcDbLine
 10
20.89286849999996
 20
78.74169599999999
 30
0.0
 11
20.16975950000005
 21
78.74169599999999
 31
0.0
  0
LINE
  5
152
330
39
100
AcDbEntity
  8
1
  6
DOT_CENTER
 62
     2
100
AcDbLine
 10
32.89286850000029
 20
65.4187520319054
 30
0.0
 11
32.89286849999972
 21
70.11893100000319
 31
0.0
  0
LINE
  5
153
330
39
100
AcDbEntity
  8
AM_VIS
  6
Continuous
 62
     7
100
AcDbLine
 10
20.89286849999996
 20
68.11893100000111
 30
0.0
 11
20.04286850000005
 21
68.1189310000016
 31
0.0
  0
ARC
  5
154
330
39
100
AcDbEntity
  8
1
  6
Continuous
 62
     7
100
AcDbCircle
 10
114.2504659475318
 20
106.5098107661562
 30
0.0
 40
6.999999999999909
100
AcDbArc
 50
-60.14832404975333
 51
-29.66860429911036
  0
ARC
  5
155
330
39
100
AcDbEntity
  8
1
  6
Continuous
 62
     7
100
AcDbCircle
 10
126.0650613215079
 20
91.118931
 30
0.0
 40
12.5
100
AcDbArc
 50
-16.26020470831196
 51
48.2083331585983
  0
ARC
  5
156
330
39
100
AcDbEntity
  8
1
  6
Continuous
 62
     7
100
AcDbCircle
 10
126.0650608215079
 20
34.11895980435219
 30
0.0
 40
69.99997119564784
100
AcDbArc
 50
86.36555075479049
 51
93.63444836870288
  0
ARC
  5
157
330
39
100
AcDbEntity
  8
1
  6
Continuous
 62
     7
100
AcDbCircle
 10
137.879656695484
 20
106.5098107661562
 30
0.0
 40
6.999999999999885
100
AcDbArc
 50
-153.0067442793674
 51
-119.8516759502465
  0
ARC
  5
158
330
39
100
AcDbEntity
  8
1
  6
Continuous
 62
     7
100
AcDbCircle
 10
126.0650613215079
 20
91.118931
 30
0.0
 40
12.49999999999994
100
AcDbArc
 50
-163.7397952916889
 51
-16.26020470831196
  0
ARC
  5
159
330
39
100
AcDbEntity
  8
1
  6
Continuous
 62
     7
100
AcDbCircle
 10
126.065061282846
 20
88.65087050443259
 30
0.0
 40
13.28165528532309
100
AcDbArc
 50
-121.3591701441285
 51
-58.64085472459593
  0
ARC
  5
15A
330
39
100
AcDbEntity
  8
1
  6
Continuous
 62
     7
100
AcDbCircle
 10
122.0801430498058
 20
88.31347246528881
 30
0.0
 40
16.00000000000001
100
AcDbArc
 50
-30.44068999899292
 51
-2.48792517799264
  0
ARC
  5
15B
330
39
100
AcDbEntity
  8
1
  6
Continuous
 62
     7
100
AcDbCircle
 10
131.0364389494854
 20
88.60500473384911
 30
0.0
 40
17.00000000000005
100
AcDbArc
 50
-176.6747298525219
 51
-150.3966691892988
  0
ARC
  5
15C
330
39
100
AcDbEntity
  8
1
  6
Continuous
 62
     3
100
AcDbCircle
 10
68.77843583860931
 20
33.21958289243881
 30
0.0
 40
65.99999999999999
100
AcDbArc
 50
130.4244494423627
 51
133.4534643289624
  0
ARC
  5
15D
330
39
100
AcDbEntity
  8
1
  6
Continuous
 62
     3
100
AcDbCircle
 10
-2.99269883860944
 20
33.21958289243881
 30
0.0
 40
66.00000000000003
100
AcDbArc
 50
51.35532310571562
 51
52.66382605808663
  0
ARC
  5
15E
330
39
100
AcDbEntity
  8
1
  6
Continuous
 62
     3
100
AcDbCircle
 10
68.77843583860931
 20
33.21958289243881
 30
0.0
 40
65.99999999999996
100
AcDbArc
 50
133.4534643289624
 51
136.5383494675059
  0
ARC
  5
15F
330
39
100
AcDbEntity
  8
1
  6
Continuous
 62
     3
100
AcDbCircle
 10
68.77843583860931
 20
33.21958289243881
 30
0.0
 40
66.0
100
AcDbArc
 50
127.3361739419134
 51
130.4244494423627
  0
ARC
  5
160
330
39
100
AcDbEntity
  8
1
  6
Continuous
 62
     3
100
AcDbCircle
 10
32.89286900000002
 20
84.9398879412671
 30
0.0
 40
2.999999999999999
100
AcDbArc
 50
43.11406702827623
 51
136.8859329717253
  0
ARC
  5
161
330
39
100
AcDbEntity
  8
1
  6
Continuous
 62
     3
100
AcDbCircle
 10
-3.14251577609241
 20
33.2092787391652
 30
0.0
 40
66.10169938058931
100
AcDbArc
 50
43.39045719333745
 51
51.25947665728774
  0
ARC
  5
162
330
39
100
AcDbEntity
  8
1
  6
Continuous
 62
     3
100
AcDbCircle
 10
37.03263095307148
 20
111.6397915496015
 30
0.0
 40
17.99999999999996
100
AcDbArc
 50
-147.9950310843463
 51
-137.3670960076018
  0
ARC
  5
163
330
39
100
AcDbEntity
  8
1
  6
Continuous
 62
     3
100
AcDbCircle
 10
25.97501572365809
 20
104.8028830166532
 30
0.0
 40
5.00000000000002
100
AcDbArc
 50
-169.6736311270699
 51
-147.2760245827841
  0
ARC
  5
164
330
39
100
AcDbEntity
  8
1
  6
Continuous
 62
     3
100
AcDbCircle
 10
-4.28382643830037
 20
106.8228050557344
 30
0.0
 40
36.99999999999994
100
AcDbArc
 50
-43.97690659750729
 51
-32.29418010190274
  0
ARC
  5
165
330
39
100
AcDbEntity
  8
1
  6
Continuous
 62
     3
100
AcDbCircle
 10
21.31777563100934
 20
91.1529090772149
 30
0.0
 40
6.999999999999921
100
AcDbArc
 50
-35.83290971214013
 51
35.80001208873792
  0
ARC
  5
166
330
39
100
AcDbEntity
  8
1
  6
Continuous
 62
     3
100
AcDbCircle
 10
36.14691289484756
 20
87.70294241967
 30
0.0
 40
9.505125963932265
100
AcDbArc
 50
-17.98660155213841
 51
1.77237501055577
  0
ARC
  5
167
330
39
100
AcDbEntity
  8
1
  6
Continuous
 62
     3
100
AcDbCircle
 10
36.14691289484756
 20
94.5349195803301
 30
0.0
 40
9.50512596393219
100
AcDbArc
 50
-1.77237501055628
 51
17.98660155213792
  0
ARC
  5
168
330
39
100
AcDbEntity
  8
1
  6
Continuous
 62
     3
100
AcDbCircle
 10
48.78567971494908
 20
87.7029473989802
 30
0.0
 40
9.505180393600886
100
AcDbArc
 50
178.2276651707517
 51
-162.0134734104103
  0
ARC
  5
169
330
39
100
AcDbEntity
  8
1
  6
Continuous
 62
     3
100
AcDbCircle
 10
48.78567971494886
 20
94.5349146010198
 30
0.0
 40
9.505180393600702
100
AcDbArc
 50
162.0134734104099
 51
-178.2276651707516
  0
ARC
  5
16A
330
39
100
AcDbEntity
  8
1
  6
Continuous
 62
     3
100
AcDbCircle
 10
42.46626850000007
 20
85.5376173857828
 30
0.0
 40
2.82803206075203
100
AcDbArc
 50
-164.2044401773416
 51
-15.7955598226607
  0
ARC
  5
16B
330
39
100
AcDbEntity
  8
1
  6
Continuous
 62
     3
100
AcDbCircle
 10
42.46626850000007
 20
96.6978254791567
 30
0.0
 40
2.828691520843272
100
AcDbArc
 50
15.84270966064573
 51
164.1572903393565
  0
ARC
  5
16C
330
39
100
AcDbEntity
  8
1
  6
Continuous
 62
     7
100
AcDbCircle
 10
126.0650613215079
 20
91.118931
 30
0.0
 40
12.5
100
AcDbArc
 50
180.0
 51
-163.7397952916889
  0
ARC
  5
16D
330
39
100
AcDbEntity
  8
1
  6
Continuous
 62
     7
100
AcDbCircle
 10
126.0650613215079
 20
91.118931
 30
0.0
 40
12.49999999999999
100
AcDbArc
 50
131.7916668414016
 51
180.0
  0
XLINE
  5
16E
330
39
100
AcDbEntity
  8
1
  6
DOT_CENTER
 62
     3
 60
     1
100
AcDbXline
 10
45.74286849999999
 20
74.61893184134621
 30
0.0
 11
0.0
 21
1.0
 31
0.0
  0
ARC
  5
16F
330
39
100
AcDbEntity
  8
1
  6
Continuous
 62
     7
100
AcDbCircle
 10
121.7228093425589
 20
102.4811635861067
 30
0.0
 40
1.500000000000068
100
AcDbArc
 50
93.63444836870491
 51
157.9233961932082
  0
ARC
  5
170
330
39
100
AcDbEntity
  8
1
  6
Continuous
 62
     7
100
AcDbCircle
 10
130.407313346257
 20
102.4811635196793
 30
0.0
 40
1.499999999999962
100
AcDbArc
 50
34.58525929494408
 51
86.36555075479409
  0
ARC
  5
171
330
39
100
AcDbEntity
  8
1
  6
Continuous
 62
     7
100
AcDbCircle
 10
26.98107849999997
 20
77.11893099999989
 30
0.0
 40
1.0
100
AcDbArc
 50
0.0
 51
90.0
  0
ARC
  5
172
330
39
100
AcDbEntity
  8
1
  6
Continuous
 62
     7
100
AcDbCircle
 10
26.98107849999997
 20
77.11893099999989
 30
0.0
 40
1.0
100
AcDbArc
 50
90.0
 51
180.0
  0
ENDBLK
  5
3C
330
39
100
AcDbEntity
  8
0
100
AcDbBlockEnd
  0
BLOCK
  5
3E
330
3D
100
AcDbEntity
  8
0
100
AcDbBlockBegin
  2
M2_5x6_DIN_7985
 70
     0
 71
     0
 10
21.243392
 20
65.8689187191097
 30
0.0
  3
M2_5x6_DIN_7985
  1

  0
LINE
  5
173
330
3D
100
AcDbEntity
  8
1
  6
DOT_CENTER
 62
     2
100
AcDbLine
 10
163.9657465
 20
66.41893300000001
 30
0.0
 11
163.9657465
 21
70.96894800000001
 31
0.0
  0
LINE
  5
174
330
3D
100
AcDbEntity
  8
1
  6
DOT_CENTER
 62
     2
100
AcDbLine
 10
144.1667495
 20
66.41893300000001
 30
0.0
 11
144.1667495
 21
70.96894800000001
 31
0.0
  0
LINE
  5
175
330
3D
100
AcDbEntity
  8
1
  6
DOT_CENTER
 62
     2
100
AcDbLine
 10
135.965736
 20
66.41890871910971
 30
0.0
 11
135.965736
 21
70.96892371910971
 31
0.0
  0
LINE
  5
176
330
3D
100
AcDbEntity
  8
1
  6
DOT_CENTER
 62
     2
100
AcDbLine
 10
116.161022
 20
70.96892371910971
 30
0.0
 11
116.161022
 21
65.8689187191097
 31
0.0
  0
LINE
  5
177
330
3D
100
AcDbEntity
  8
1
  6
DOT_CENTER
 62
     2
100
AcDbLine
 10
42.79235500000004
 20
65.86893100000009
 30
0.0
 11
42.79235500000004
 21
70.9689360000001
 31
0.0
  0
LINE
  5
178
330
3D
100
AcDbEntity
  8
1
  6
DOT_CENTER
 62
     2
100
AcDbLine
 10
22.993382
 20
70.9689360000001
 30
0.0
 11
22.993382
 21
65.86893100000009
 31
0.0
  0
LINE
  5
179
330
3D
100
AcDbEntity
  8
1
  6
Continuous
 62
     7
100
AcDbLine
 10
162.215732
 20
68.41893300000001
 30
0.0
 11
162.215732
 21
67.868943
 31
0.0
  0
LINE
  5
17A
330
3D
100
AcDbEntity
  8
1
  6
Continuous
 62
     7
100
AcDbLine
 10
162.227214
 20
67.868943
 30
0.0
 11
165.681606
 21
67.868943
 31
0.0
  0
LINE
  5
17B
330
3D
100
AcDbEntity
  8
1
  6
Continuous
 62
     7
100
AcDbLine
 10
165.519116
 20
68.96894800000001
 30
0.0
 11
165.130331
 21
68.96894800000001
 31
0.0
  0
LINE
  5
17C
330
3D
100
AcDbEntity
  8
1
  6
Continuous
 62
     7
100
AcDbLine
 10
163.965746
 20
68.96894800000001
 30
0.0
 11
163.342601
 21
68.96894800000001
 31
0.0
  0
LINE
  5
17D
330
3D
100
AcDbEntity
  8
1
  6
Continuous
 62
     7
100
AcDbLine
 10
162.412377
 20
68.96894800000001
 30
0.0
 11
162.227214
 21
68.96894800000001
 31
0.0
  0
LINE
  5
17E
330
3D
100
AcDbEntity
  8
1
  6
Continuous
 62
     7
100
AcDbLine
 10
162.218615
 20
68.41893300000001
 30
0.0
 11
162.227214
 21
68.41893300000001
 31
0.0
  0
LINE
  5
17F
330
3D
100
AcDbEntity
  8
1
  6
Continuous
 62
     7
100
AcDbLine
 10
162.630629
 20
69.36894799999999
 30
0.0
 11
162.818384
 21
69.36894799999999
 31
0.0
  0
LINE
  5
180
330
3D
100
AcDbEntity
  8
1
  6
Continuous
 62
     7
100
AcDbLine
 10
163.693355
 20
69.36894799999999
 30
0.0
 11
164.238114
 21
69.36894799999999
 31
0.0
  0
LINE
  5
181
330
3D
100
AcDbEntity
  8
1
  6
Continuous
 62
     7
100
AcDbLine
 10
165.113109
 20
69.36894799999999
 30
0.0
 11
165.300839
 21
69.36894799999999
 31
0.0
  0
LINE
  5
182
330
3D
100
AcDbEntity
  8
1
  6
Continuous
 62
     7
100
AcDbLine
 10
165.704279
 20
68.96894800000001
 30
0.0
 11
165.519116
 21
68.96894800000001
 31
0.0
  0
LINE
  5
183
330
3D
100
AcDbEntity
  8
1
  6
Continuous
 62
     7
100
AcDbLine
 10
164.588867
 20
68.96894800000001
 30
0.0
 11
163.965746
 21
68.96894800000001
 31
0.0
  0
LINE
  5
184
330
3D
100
AcDbEntity
  8
1
  6
Continuous
 62
     7
100
AcDbLine
 10
162.801162
 20
68.96894800000001
 30
0.0
 11
162.412377
 21
68.96894800000001
 31
0.0
  0
LINE
  5
185
330
3D
100
AcDbEntity
  8
1
  6
Continuous
 62
     7
100
AcDbLine
 10
162.215732
 20
68.41893300000001
 30
0.0
 11
162.218615
 21
68.41893300000001
 31
0.0
  0
LINE
  5
186
330
3D
100
AcDbEntity
  8
1
  6
Continuous
 62
     7
100
AcDbLine
 10
165.712878
 20
68.41893300000001
 30
0.0
 11
165.715736
 21
68.41893300000001
 31
0.0
  0
LINE
  5
187
330
3D
100
AcDbEntity
  8
1
  6
Continuous
 62
     7
100
AcDbLine
 10
163.19295
 20
69.36894799999999
 30
0.0
 11
163.693355
 21
69.36894799999999
 31
0.0
  0
LINE
  5
188
330
3D
100
AcDbEntity
  8
1
  6
Continuous
 62
     7
100
AcDbLine
 10
164.738519
 20
69.36894799999999
 30
0.0
 11
165.113109
 21
69.36894799999999
 31
0.0
  0
LINE
  5
189
330
3D
100
AcDbEntity
  8
1
  6
Continuous
 62
     7
100
AcDbLine
 10
165.300839
 20
69.36894799999999
 30
0.0
 11
165.704279
 21
68.96894800000001
 31
0.0
  0
LINE
  5
18A
330
3D
100
AcDbEntity
  8
1
  6
Continuous
 62
     7
100
AcDbLine
 10
165.715736
 20
67.868943
 30
0.0
 11
165.715736
 21
68.41893300000001
 31
0.0
  0
LINE
  5
18B
330
3D
100
AcDbEntity
  8
1
  6
Continuous
 62
     7
100
AcDbLine
 10
165.704279
 20
68.96894800000001
 30
0.0
 11
165.704279
 21
68.41893300000001
 31
0.0
  0
LINE
  5
18C
330
3D
100
AcDbEntity
  8
1
  6
Continuous
 62
     7
100
AcDbLine
 10
165.130331
 20
68.96894800000001
 30
0.0
 11
164.588867
 21
68.96894800000001
 31
0.0
  0
LINE
  5
18D
330
3D
100
AcDbEntity
  8
1
  6
Continuous
 62
     7
100
AcDbLine
 10
163.342601
 20
68.96894800000001
 30
0.0
 11
162.801162
 21
68.96894800000001
 31
0.0
  0
LINE
  5
18E
330
3D
100
AcDbEntity
  8
1
  6
Continuous
 62
     7
100
AcDbLine
 10
162.227214
 20
68.41893300000001
 30
0.0
 11
162.227214
 21
68.96894800000001
 31
0.0
  0
LINE
  5
18F
330
3D
100
AcDbEntity
  8
1
  6
Continuous
 62
     7
100
AcDbLine
 10
165.704279
 20
68.41893300000001
 30
0.0
 11
165.712878
 21
68.41893300000001
 31
0.0
  0
LINE
  5
190
330
3D
100
AcDbEntity
  8
1
  6
Continuous
 62
     7
100
AcDbLine
 10
162.818384
 20
69.36894799999999
 30
0.0
 11
163.19295
 21
69.36894799999999
 31
0.0
  0
LINE
  5
191
330
3D
100
AcDbEntity
  8
1
  6
Continuous
 62
     7
100
AcDbLine
 10
164.238114
 20
69.36894799999999
 30
0.0
 11
164.738519
 21
69.36894799999999
 31
0.0
  0
LINE
  5
192
330
3D
100
AcDbEntity
  8
1
  6
Continuous
 62
     7
100
AcDbLine
 10
162.227214
 20
68.96894800000001
 30
0.0
 11
162.630629
 21
69.36894799999999
 31
0.0
  0
LINE
  5
193
330
3D
100
AcDbEntity
  8
1
  6
Continuous
 62
     7
100
AcDbLine
 10
145.905294
 20
68.96894800000001
 30
0.0
 11
145.720131
 21
68.96894800000001
 31
0.0
  0
LINE
  5
194
330
3D
100
AcDbEntity
  8
1
  6
Continuous
 62
     7
100
AcDbLine
 10
144.789882
 20
68.96894800000001
 30
0.0
 11
144.166761
 21
68.96894800000001
 31
0.0
  0
LINE
  5
195
330
3D
100
AcDbEntity
  8
1
  6
Continuous
 62
     7
100
AcDbLine
 10
143.002177
 20
68.96894800000001
 30
0.0
 11
142.613392
 21
68.96894800000001
 31
0.0
  0
LINE
  5
196
330
3D
100
AcDbEntity
  8
1
  6
Continuous
 62
     7
100
AcDbLine
 10
142.416747
 20
68.41893300000001
 30
0.0
 11
142.41963
 21
68.41893300000001
 31
0.0
  0
LINE
  5
197
330
3D
100
AcDbEntity
  8
1
  6
Continuous
 62
     7
100
AcDbLine
 10
145.913893
 20
68.41893300000001
 30
0.0
 11
145.916751
 21
68.41893300000001
 31
0.0
  0
LINE
  5
198
330
3D
100
AcDbEntity
  8
1
  6
Continuous
 62
     7
100
AcDbLine
 10
143.393965
 20
69.36894799999999
 30
0.0
 11
143.89437
 21
69.36894799999999
 31
0.0
  0
LINE
  5
199
330
3D
100
AcDbEntity
  8
1
  6
Continuous
 62
     7
100
AcDbLine
 10
144.939534
 20
69.36894799999999
 30
0.0
 11
145.314099
 21
69.36894799999999
 31
0.0
  0
LINE
  5
19A
330
3D
100
AcDbEntity
  8
1
  6
Continuous
 62
     7
100
AcDbLine
 10
145.501854
 20
69.36894799999999
 30
0.0
 11
145.905294
 21
68.96894800000001
 31
0.0
  0
LINE
  5
19B
330
3D
100
AcDbEntity
  8
1
  6
Continuous
 62
     7
100
AcDbLine
 10
145.916751
 20
67.868943
 30
0.0
 11
145.916751
 21
68.41893300000001
 31
0.0
  0
LINE
  5
19C
330
3D
100
AcDbEntity
  8
1
  6
Continuous
 62
     7
100
AcDbLine
 10
142.450878
 20
67.868943
 30
0.0
 11
145.916751
 21
67.868943
 31
0.0
  0
LINE
  5
19D
330
3D
100
AcDbEntity
  8
1
  6
Continuous
 62
     7
100
AcDbLine
 10
145.905294
 20
68.96894800000001
 30
0.0
 11
145.905294
 21
68.41893300000001
 31
0.0
  0
LINE
  5
19E
330
3D
100
AcDbEntity
  8
1
  6
Continuous
 62
     7
100
AcDbLine
 10
145.331322
 20
68.96894800000001
 30
0.0
 11
144.789882
 21
68.96894800000001
 31
0.0
  0
LINE
  5
19F
330
3D
100
AcDbEntity
  8
1
  6
Continuous
 62
     7
100
AcDbLine
 10
143.543616
 20
68.96894800000001
 30
0.0
 11
143.002177
 21
68.96894800000001
 31
0.0
  0
LINE
  5
1A0
330
3D
100
AcDbEntity
  8
1
  6
Continuous
 62
     7
100
AcDbLine
 10
142.428205
 20
68.41893300000001
 30
0.0
 11
142.428205
 21
68.96894800000001
 31
0.0
  0
LINE
  5
1A1
330
3D
100
AcDbEntity
  8
1
  6
Continuous
 62
     7
100
AcDbLine
 10
145.905294
 20
68.41893300000001
 30
0.0
 11
145.913893
 21
68.41893300000001
 31
0.0
  0
LINE
  5
1A2
330
3D
100
AcDbEntity
  8
1
  6
Continuous
 62
     7
100
AcDbLine
 10
143.019399
 20
69.36894799999999
 30
0.0
 11
143.393965
 21
69.36894799999999
 31
0.0
  0
LINE
  5
1A3
330
3D
100
AcDbEntity
  8
1
  6
Continuous
 62
     7
100
AcDbLine
 10
144.439129
 20
69.36894799999999
 30
0.0
 11
144.939534
 21
69.36894799999999
 31
0.0
  0
LINE
  5
1A4
330
3D
100
AcDbEntity
  8
1
  6
Continuous
 62
     7
100
AcDbLine
 10
142.428205
 20
68.96894800000001
 30
0.0
 11
142.831644
 21
69.36894799999999
 31
0.0
  0
LINE
  5
1A5
330
3D
100
AcDbEntity
  8
1
  6
Continuous
 62
     7
100
AcDbLine
 10
142.416747
 20
68.41893300000001
 30
0.0
 11
142.416747
 21
67.868943
 31
0.0
  0
LINE
  5
1A6
330
3D
100
AcDbEntity
  8
1
  6
Continuous
 62
     7
100
AcDbLine
 10
145.720131
 20
68.96894800000001
 30
0.0
 11
145.331322
 21
68.96894800000001
 31
0.0
  0
LINE
  5
1A7
330
3D
100
AcDbEntity
  8
1
  6
Continuous
 62
     7
100
AcDbLine
 10
144.166761
 20
68.96894800000001
 30
0.0
 11
143.543616
 21
68.96894800000001
 31
0.0
  0
LINE
  5
1A8
330
3D
100
AcDbEntity
  8
1
  6
Continuous
 62
     7
100
AcDbLine
 10
142.613392
 20
68.96894800000001
 30
0.0
 11
142.428205
 21
68.96894800000001
 31
0.0
  0
LINE
  5
1A9
330
3D
100
AcDbEntity
  8
1
  6
Continuous
 62
     7
100
AcDbLine
 10
142.41963
 20
68.41893300000001
 30
0.0
 11
142.428205
 21
68.41893300000001
 31
0.0
  0
LINE
  5
1AA
330
3D
100
AcDbEntity
  8
1
  6
Continuous
 62
     7
100
AcDbLine
 10
142.831644
 20
69.36894799999999
 30
0.0
 11
143.019399
 21
69.36894799999999
 31
0.0
  0
LINE
  5
1AB
330
3D
100
AcDbEntity
  8
1
  6
Continuous
 62
     7
100
AcDbLine
 10
143.89437
 20
69.36894799999999
 30
0.0
 11
144.439129
 21
69.36894799999999
 31
0.0
  0
LINE
  5
1AC
330
3D
100
AcDbEntity
  8
1
  6
Continuous
 62
     7
100
AcDbLine
 10
145.314099
 20
69.36894799999999
 30
0.0
 11
145.501854
 21
69.36894799999999
 31
0.0
  0
LINE
  5
1AD
330
3D
100
AcDbEntity
  8
1
  6
Continuous
 62
     7
100
AcDbLine
 10
137.704268
 20
68.96892371910971
 30
0.0
 11
137.704268
 21
68.41890871910971
 31
0.0
  0
LINE
  5
1AE
330
3D
100
AcDbEntity
  8
1
  6
Continuous
 62
     7
100
AcDbLine
 10
137.130321
 20
68.96892371910971
 30
0.0
 11
136.588881
 21
68.96892371910971
 31
0.0
  0
LINE
  5
1AF
330
3D
100
AcDbEntity
  8
1
  6
Continuous
 62
     7
100
AcDbLine
 10
135.342615
 20
68.96892371910971
 30
0.0
 11
134.801151
 21
68.96892371910971
 31
0.0
  0
LINE
  5
1B0
330
3D
100
AcDbEntity
  8
1
  6
Continuous
 62
     7
100
AcDbLine
 10
134.227204
 20
68.41890871910971
 30
0.0
 11
134.227204
 21
68.96892371910971
 31
0.0
  0
LINE
  5
1B1
330
3D
100
AcDbEntity
  8
1
  6
Continuous
 62
     7
100
AcDbLine
 10
137.704268
 20
68.41890871910971
 30
0.0
 11
137.712868
 21
68.41890871910971
 31
0.0
  0
LINE
  5
1B2
330
3D
100
AcDbEntity
  8
1
  6
Continuous
 62
     7
100
AcDbLine
 10
134.818374
 20
69.36892371910969
 30
0.0
 11
135.192963
 21
69.36892371910969
 31
0.0
  0
LINE
  5
1B3
330
3D
100
AcDbEntity
  8
1
  6
Continuous
 62
     7
100
AcDbLine
 10
136.238127
 20
69.36892371910969
 30
0.0
 11
136.738533
 21
69.36892371910969
 31
0.0
  0
LINE
  5
1B4
330
3D
100
AcDbEntity
  8
1
  6
Continuous
 62
     7
100
AcDbLine
 10
134.227204
 20
68.96892371910971
 30
0.0
 11
134.630643
 21
69.36892371910969
 31
0.0
  0
LINE
  5
1B5
330
3D
100
AcDbEntity
  8
1
  6
Continuous
 62
     7
100
AcDbLine
 10
137.71575
 20
67.8689187191097
 30
0.0
 11
137.71575
 21
68.41890871910971
 31
0.0
  0
LINE
  5
1B6
330
3D
100
AcDbEntity
  8
1
  6
Continuous
 62
     7
100
AcDbLine
 10
134.215746
 20
68.41890871910971
 30
0.0
 11
134.215746
 21
67.8689187191097
 31
0.0
  0
LINE
  5
1B7
330
3D
100
AcDbEntity
  8
1
  6
Continuous
 62
     7
100
AcDbLine
 10
137.519105
 20
68.96892371910971
 30
0.0
 11
137.130321
 21
68.96892371910971
 31
0.0
  0
LINE
  5
1B8
330
3D
100
AcDbEntity
  8
1
  6
Continuous
 62
     7
100
AcDbLine
 10
135.965736
 20
68.96892371910971
 30
0.0
 11
135.342615
 21
68.96892371910971
 31
0.0
  0
LINE
  5
1B9
330
3D
100
AcDbEntity
  8
1
  6
Continuous
 62
     7
100
AcDbLine
 10
134.412367
 20
68.96892371910971
 30
0.0
 11
134.227204
 21
68.96892371910971
 31
0.0
  0
LINE
  5
1BA
330
3D
100
AcDbEntity
  8
1
  6
Continuous
 62
     7
100
AcDbLine
 10
134.218604
 20
68.41890871910971
 30
0.0
 11
134.227204
 21
68.41890871910971
 31
0.0
  0
LINE
  5
1BB
330
3D
100
AcDbEntity
  8
1
  6
Continuous
 62
     7
100
AcDbLine
 10
134.630643
 20
69.36892371910969
 30
0.0
 11
134.818374
 21
69.36892371910969
 31
0.0
  0
LINE
  5
1BC
330
3D
100
AcDbEntity
  8
1
  6
Continuous
 62
     7
100
AcDbLine
 10
135.693369
 20
69.36892371910969
 30
0.0
 11
136.238127
 21
69.36892371910969
 31
0.0
  0
LINE
  5
1BD
330
3D
100
AcDbEntity
  8
1
  6
Continuous
 62
     7
100
AcDbLine
 10
137.113098
 20
69.36892371910969
 30
0.0
 11
137.300853
 21
69.36892371910969
 31
0.0
  0
LINE
  5
1BE
330
3D
100
AcDbEntity
  8
1
  6
Continuous
 62
     7
100
AcDbLine
 10
134.215746
 20
67.8689187191097
 30
0.0
 11
137.68162
 21
67.8689187191097
 31
0.0
  0
LINE
  5
1BF
330
3D
100
AcDbEntity
  8
1
  6
Continuous
 62
     7
100
AcDbLine
 10
137.704268
 20
68.96892371910971
 30
0.0
 11
137.519105
 21
68.96892371910971
 31
0.0
  0
LINE
  5
1C0
330
3D
100
AcDbEntity
  8
1
  6
Continuous
 62
     7
100
AcDbLine
 10
136.588881
 20
68.96892371910971
 30
0.0
 11
135.965736
 21
68.96892371910971
 31
0.0
  0
LINE
  5
1C1
330
3D
100
AcDbEntity
  8
1
  6
Continuous
 62
     7
100
AcDbLine
 10
134.801151
 20
68.96892371910971
 30
0.0
 11
134.412367
 21
68.96892371910971
 31
0.0
  0
LINE
  5
1C2
330
3D
100
AcDbEntity
  8
1
  6
Continuous
 62
     7
100
AcDbLine
 10
134.215746
 20
68.41890871910971
 30
0.0
 11
134.218604
 21
68.41890871910971
 31
0.0
  0
LINE
  5
1C3
330
3D
100
AcDbEntity
  8
1
  6
Continuous
 62
     7
100
AcDbLine
 10
137.712868
 20
68.41890871910971
 30
0.0
 11
137.71575
 21
68.41890871910971
 31
0.0
  0
LINE
  5
1C4
330
3D
100
AcDbEntity
  8
1
  6
Continuous
 62
     7
100
AcDbLine
 10
135.192963
 20
69.36892371910969
 30
0.0
 11
135.693369
 21
69.36892371910969
 31
0.0
  0
LINE
  5
1C5
330
3D
100
AcDbEntity
  8
1
  6
Continuous
 62
     7
100
AcDbLine
 10
136.738533
 20
69.36892371910969
 30
0.0
 11
137.113098
 21
69.36892371910969
 31
0.0
  0
LINE
  5
1C6
330
3D
100
AcDbEntity
  8
1
  6
Continuous
 62
     7
100
AcDbLine
 10
137.300853
 20
69.36892371910969
 30
0.0
 11
137.704268
 21
68.96892371910971
 31
0.0
  0
LINE
  5
1C7
330
3D
100
AcDbEntity
  8
1
  6
Continuous
 62
     7
100
AcDbLine
 10
117.905283
 20
68.96892371910971
 30
0.0
 11
117.72012
 21
68.96892371910971
 31
0.0
  0
LINE
  5
1C8
330
3D
100
AcDbEntity
  8
1
  6
Continuous
 62
     7
100
AcDbLine
 10
111.607291
 20
67.16894300000001
 30
0.0
 11
111.83952
 21
67.16894300000001
 31
0.0
  0
LINE
  5
1C9
330
3D
100
AcDbEntity
  8
1
  6
Continuous
 62
     7
100
AcDbLine
 10
116.789872
 20
68.96892371910971
 30
0.0
 11
116.166751
 21
68.96892371910971
 31
0.0
  0
LINE
  5
1CA
330
3D
100
AcDbEntity
  8
1
  6
Continuous
 62
     7
100
AcDbLine
 10
111.83952
 20
67.16894300000001
 30
0.0
 11
111.963834
 21
67.160708
 31
0.0
  0
LINE
  5
1CB
330
3D
100
AcDbEntity
  8
1
  6
Continuous
 62
     7
100
AcDbLine
 10
115.002166
 20
68.96892371910971
 30
0.0
 11
114.613382
 21
68.96892371910971
 31
0.0
  0
LINE
  5
1CC
330
3D
100
AcDbEntity
  8
1
  6
Continuous
 62
     7
100
AcDbLine
 10
114.416761
 20
68.41890871910971
 30
0.0
 11
114.419619
 21
68.41890871910971
 31
0.0
  0
LINE
  5
1CD
330
3D
100
AcDbEntity
  8
1
  6
Continuous
 62
     7
100
AcDbLine
 10
117.913883
 20
68.41890871910971
 30
0.0
 11
117.916741
 21
68.41890871910971
 31
0.0
  0
LINE
  5
1CE
330
3D
100
AcDbEntity
  8
1
  6
Continuous
 62
     7
100
AcDbLine
 10
115.393954
 20
69.36892371910969
 30
0.0
 11
115.89436
 21
69.36892371910969
 31
0.0
  0
LINE
  5
1CF
330
3D
100
AcDbEntity
  8
1
  6
Continuous
 62
     7
100
AcDbLine
 10
116.939548
 20
69.36892371910969
 30
0.0
 11
117.314113
 21
69.36892371910969
 31
0.0
  0
LINE
  5
1D0
330
3D
100
AcDbEntity
  8
1
  6
Continuous
 62
     7
100
AcDbLine
 10
114.450867
 20
67.8689187191097
 30
0.0
 11
117.916741
 21
67.8689187191097
 31
0.0
  0
LINE
  5
1D1
330
3D
100
AcDbEntity
  8
1
  6
Continuous
 62
     7
100
AcDbLine
 10
117.501844
 20
69.36892371910969
 30
0.0
 11
117.905283
 21
68.96892371910971
 31
0.0
  0
LINE
  5
1D2
330
3D
100
AcDbEntity
  8
1
  6
Continuous
 62
     7
100
AcDbLine
 10
114.416761
 20
68.41890871910971
 30
0.0
 11
114.416761
 21
67.8689187191097
 31
0.0
  0
LINE
  5
1D3
330
3D
100
AcDbEntity
  8
1
  6
Continuous
 62
     7
100
AcDbLine
 10
117.905283
 20
68.96892371910971
 30
0.0
 11
117.905283
 21
68.41890871910971
 31
0.0
  0
LINE
  5
1D4
330
3D
100
AcDbEntity
  8
1
  6
Continuous
 62
     7
100
AcDbLine
 10
111.201453
 20
67.16894300000001
 30
0.0
 11
111.607291
 21
67.16894300000001
 31
0.0
  0
LINE
  5
1D5
330
3D
100
AcDbEntity
  8
1
  6
Continuous
 62
     7
100
AcDbLine
 10
117.331336
 20
68.96892371910971
 30
0.0
 11
116.789872
 21
68.96892371910971
 31
0.0
  0
LINE
  5
1D6
330
3D
100
AcDbEntity
  8
1
  6
Continuous
 62
     7
100
AcDbLine
 10
115.54363
 20
68.96892371910971
 30
0.0
 11
115.002166
 21
68.96892371910971
 31
0.0
  0
LINE
  5
1D7
330
3D
100
AcDbEntity
  8
1
  6
Continuous
 62
     7
100
AcDbLine
 10
114.428219
 20
68.41890871910971
 30
0.0
 11
114.428219
 21
68.96892371910971
 31
0.0
  0
LINE
  5
1D8
330
3D
100
AcDbEntity
  8
1
  6
Continuous
 62
     7
100
AcDbLine
 10
117.905283
 20
68.41890871910971
 30
0.0
 11
117.913883
 21
68.41890871910971
 31
0.0
  0
LINE
  5
1D9
330
3D
100
AcDbEntity
  8
1
  6
Continuous
 62
     7
100
AcDbLine
 10
115.019389
 20
69.36892371910969
 30
0.0
 11
115.393954
 21
69.36892371910969
 31
0.0
  0
LINE
  5
1DA
330
3D
100
AcDbEntity
  8
1
  6
Continuous
 62
     7
100
AcDbLine
 10
116.439142
 20
69.36892371910969
 30
0.0
 11
116.939548
 21
69.36892371910969
 31
0.0
  0
LINE
  5
1DB
330
3D
100
AcDbEntity
  8
1
  6
Continuous
 62
     7
100
AcDbLine
 10
114.428219
 20
68.96892371910971
 30
0.0
 11
114.831658
 21
69.36892371910969
 31
0.0
  0
LINE
  5
1DC
330
3D
100
AcDbEntity
  8
1
  6
Continuous
 62
     7
100
AcDbLine
 10
110.667717
 20
67.16894300000001
 30
0.0
 11
111.201453
 21
67.16894300000001
 31
0.0
  0
LINE
  5
1DD
330
3D
100
AcDbEntity
  8
1
  6
Continuous
 62
     7
100
AcDbLine
 10
117.72012
 20
68.96892371910971
 30
0.0
 11
117.331336
 21
68.96892371910971
 31
0.0
  0
LINE
  5
1DE
330
3D
100
AcDbEntity
  8
1
  6
Continuous
 62
     7
100
AcDbLine
 10
116.166751
 20
68.96892371910971
 30
0.0
 11
115.54363
 21
68.96892371910971
 31
0.0
  0
LINE
  5
1DF
330
3D
100
AcDbEntity
  8
1
  6
Continuous
 62
     7
100
AcDbLine
 10
114.613382
 20
68.96892371910971
 30
0.0
 11
114.428219
 21
68.96892371910971
 31
0.0
  0
LINE
  5
1E0
330
3D
100
AcDbEntity
  8
1
  6
Continuous
 62
     7
100
AcDbLine
 10
114.419619
 20
68.41890871910971
 30
0.0
 11
114.428219
 21
68.41890871910971
 31
0.0
  0
LINE
  5
1E1
330
3D
100
AcDbEntity
  8
1
  6
Continuous
 62
     7
100
AcDbLine
 10
114.831658
 20
69.36892371910969
 30
0.0
 11
115.019389
 21
69.36892371910969
 31
0.0
  0
LINE
  5
1E2
330
3D
100
AcDbEntity
  8
1
  6
Continuous
 62
     7
100
AcDbLine
 10
115.89436
 20
69.36892371910969
 30
0.0
 11
116.439142
 21
69.36892371910969
 31
0.0
  0
LINE
  5
1E3
330
3D
100
AcDbEntity
  8
1
  6
Continuous
 62
     7
100
AcDbLine
 10
117.314113
 20
69.36892371910969
 30
0.0
 11
117.501844
 21
69.36892371910969
 31
0.0
  0
LINE
  5
1E4
330
3D
100
AcDbEntity
  8
1
  6
Continuous
 62
     7
100
AcDbLine
 10
117.916741
 20
67.8689187191097
 30
0.0
 11
117.916741
 21
68.41890871910971
 31
0.0
  0
LINE
  5
1E5
330
3D
100
AcDbEntity
  8
1
  6
Continuous
 62
     7
100
AcDbLine
 10
41.44236500000005
 20
69.3689360000001
 30
0.0
 11
41.04236500000005
 21
68.9689360000001
 31
0.0
  0
LINE
  5
1E6
330
3D
100
AcDbEntity
  8
1
  6
Continuous
 62
     7
100
AcDbLine
 10
42.59234300000003
 20
69.3689360000001
 30
0.0
 11
42.59234300000003
 21
68.4189210000001
 31
0.0
  0
LINE
  5
1E7
330
3D
100
AcDbEntity
  8
1
  6
Continuous
 62
     7
100
AcDbLine
 10
41.04236500000005
 20
67.86893100000009
 30
0.0
 11
44.50823900000003
 21
67.86893100000009
 31
0.0
  0
LINE
  5
1E8
330
3D
100
AcDbEntity
  8
1
  6
Continuous
 62
     7
100
AcDbLine
 10
41.04236500000005
 20
68.9689360000001
 30
0.0
 11
41.04236500000005
 21
67.86893100000009
 31
0.0
  0
LINE
  5
1E9
330
3D
100
AcDbEntity
  8
1
  6
Continuous
 62
     7
100
AcDbLine
 10
44.54234500000004
 20
67.86893100000009
 30
0.0
 11
44.54234500000004
 21
68.9689360000001
 31
0.0
  0
LINE
  5
1EA
330
3D
100
AcDbEntity
  8
1
  6
Continuous
 62
     7
100
AcDbLine
 10
44.54234500000004
 20
68.9689360000001
 30
0.0
 11
44.14234500000003
 21
69.3689360000001
 31
0.0
  0
LINE
  5
1EB
330
3D
100
AcDbEntity
  8
1
  6
Continuous
 62
     7
100
AcDbLine
 10
41.44236500000005
 20
69.3689360000001
 30
0.0
 11
42.59234300000003
 21
69.3689360000001
 31
0.0
  0
LINE
  5
1EC
330
3D
100
AcDbEntity
  8
1
  6
Continuous
 62
     7
100
AcDbLine
 10
44.54234500000004
 20
68.9689360000001
 30
0.0
 11
42.99236700000003
 21
68.9689360000001
 31
0.0
  0
LINE
  5
1ED
330
3D
100
AcDbEntity
  8
1
  6
Continuous
 62
     7
100
AcDbLine
 10
42.59234300000003
 20
68.9689360000001
 30
0.0
 11
41.04236500000005
 21
68.9689360000001
 31
0.0
  0
LINE
  5
1EE
330
3D
100
AcDbEntity
  8
1
  6
Continuous
 62
     7
100
AcDbLine
 10
42.59234300000003
 20
68.4189210000001
 30
0.0
 11
42.99236700000003
 21
68.4189210000001
 31
0.0
  0
LINE
  5
1EF
330
3D
100
AcDbEntity
  8
1
  6
Continuous
 62
     7
100
AcDbLine
 10
42.99236700000003
 20
69.3689360000001
 30
0.0
 11
44.14234500000003
 21
69.3689360000001
 31
0.0
  0
LINE
  5
1F0
330
3D
100
AcDbEntity
  8
1
  6
Continuous
 62
     7
100
AcDbLine
 10
42.99236700000003
 20
68.4189210000001
 30
0.0
 11
42.99236700000003
 21
69.3689360000001
 31
0.0
  0
LINE
  5
1F1
330
3D
100
AcDbEntity
  8
1
  6
Continuous
 62
     7
100
AcDbLine
 10
24.74337199999999
 20
68.9689360000001
 30
0.0
 11
24.34337199999999
 21
69.3689360000001
 31
0.0
  0
LINE
  5
1F2
330
3D
100
AcDbEntity
  8
1
  6
Continuous
 62
     7
100
AcDbLine
 10
23.19339400000001
 20
68.4189210000001
 30
0.0
 11
23.19339400000001
 21
69.3689360000001
 31
0.0
  0
LINE
  5
1F3
330
3D
100
AcDbEntity
  8
1
  6
Continuous
 62
     7
100
AcDbLine
 10
21.27749800000001
 20
67.86893100000009
 30
0.0
 11
24.74337199999999
 21
67.86893100000009
 31
0.0
  0
LINE
  5
1F4
330
3D
100
AcDbEntity
  8
1
  6
Continuous
 62
     7
100
AcDbLine
 10
24.74337199999999
 20
67.86893100000009
 30
0.0
 11
24.74337199999999
 21
68.9689360000001
 31
0.0
  0
LINE
  5
1F5
330
3D
100
AcDbEntity
  8
1
  6
Continuous
 62
     7
100
AcDbLine
 10
21.243392
 20
68.9689360000001
 30
0.0
 11
21.243392
 21
67.86893100000009
 31
0.0
  0
LINE
  5
1F6
330
3D
100
AcDbEntity
  8
1
  6
Continuous
 62
     7
100
AcDbLine
 10
21.64339200000001
 20
69.3689360000001
 30
0.0
 11
21.243392
 21
68.9689360000001
 31
0.0
  0
LINE
  5
1F7
330
3D
100
AcDbEntity
  8
1
  6
Continuous
 62
     7
100
AcDbLine
 10
23.19339400000001
 20
69.3689360000001
 30
0.0
 11
24.34337199999999
 21
69.3689360000001
 31
0.0
  0
LINE
  5
1F8
330
3D
100
AcDbEntity
  8
1
  6
Continuous
 62
     7
100
AcDbLine
 10
22.79337000000001
 20
68.9689360000001
 30
0.0
 11
21.243392
 21
68.9689360000001
 31
0.0
  0
LINE
  5
1F9
330
3D
100
AcDbEntity
  8
1
  6
Continuous
 62
     7
100
AcDbLine
 10
24.74337199999999
 20
68.9689360000001
 30
0.0
 11
23.19339400000001
 21
68.9689360000001
 31
0.0
  0
LINE
  5
1FA
330
3D
100
AcDbEntity
  8
1
  6
Continuous
 62
     7
100
AcDbLine
 10
22.79337000000001
 20
68.4189210000001
 30
0.0
 11
23.19339400000001
 21
68.4189210000001
 31
0.0
  0
LINE
  5
1FB
330
3D
100
AcDbEntity
  8
1
  6
Continuous
 62
     7
100
AcDbLine
 10
21.64339200000001
 20
69.3689360000001
 30
0.0
 11
22.79337000000001
 21
69.3689360000001
 31
0.0
  0
LINE
  5
1FC
330
3D
100
AcDbEntity
  8
1
  6
Continuous
 62
     7
100
AcDbLine
 10
22.79337000000001
 20
69.3689360000001
 30
0.0
 11
22.79337000000001
 21
68.4189210000001
 31
0.0
  0
ENDBLK
  5
3F
330
3D
100
AcDbEntity
  8
0
100
AcDbBlockEnd
  0
BLOCK
  5
41
330
40
100
AcDbEntity
  8
0
100
AcDbBlockBegin
  2
Steckerplatte
 70
     0
 71
     0
 10
17.89286999999999
 20
60.63118800000001
 30
0.0
  3
Steckerplatte
  1

  0
LINE
  5
1FD
330
40
100
AcDbEntity
  8
1
  6
Continuous
 62
     7
100
AcDbLine
 10
107.066241
 20
62.86894000000001
 30
0.0
 11
107.066241
 21
65.368932
 31
0.0
  0
LINE
  5
1FE
330
40
100
AcDbEntity
  8
1
  6
Continuous
 62
     7
100
AcDbLine
 10
173.066257
 20
65.368932
 30
0.0
 11
173.066257
 21
62.86894000000001
 31
0.0
  0
LINE
  5
1FF
330
40
100
AcDbEntity
  8
1
  6
Continuous
 62
     7
100
AcDbLine
 10
173.066257
 20
65.368932
 30
0.0
 11
107.066241
 21
65.368932
 31
0.0
  0
LINE
  5
200
330
40
100
AcDbEntity
  8
1
  6
DOT_CENTER
 62
     2
100
AcDbLine
 10
32.89286849999999
 20
60.63118800000001
 30
0.0
 11
32.89286850000008
 21
107.4174250884362
 31
0.0
  0
LINE
  5
201
330
40
100
AcDbEntity
  8
1
  6
Continuous
 62
     7
100
AcDbLine
 10
17.89286999999999
 20
62.63118800000001
 30
0.0
 11
17.89286999999999
 21
65.368932
 31
0.0
  0
LINE
  5
202
330
40
100
AcDbEntity
  8
1
  6
Continuous
 62
     7
100
AcDbLine
 10
47.892867
 20
65.368932
 30
0.0
 11
47.892867
 21
62.84500700000001
 31
0.0
  0
LINE
  5
203
330
40
100
AcDbEntity
  8
1
  6
Continuous
 62
     7
100
AcDbLine
 10
17.89286999999999
 20
65.368932
 30
0.0
 11
47.892867
 21
65.368932
 31
0.0
  0
ENDBLK
  5
42
330
40
100
AcDbEntity
  8
0
100
AcDbBlockEnd
  0
BLOCK
  5
44
330
43
100
AcDbEntity
  8
0
100
AcDbBlockBegin
  2
Abschlu_deckel
 70
     0
 71
     0
 10
113.1448607962715
 20
-7.5060559604687
 30
0.0
  3
Abschlu_deckel
  1

  0
POINT
  5
204
330
43
100
AcDbEntity
  8
1
 62
     3
 60
     1
100
AcDbPoint
 10
51.14087899999998
 20
62.4939435
 30
0.0
  0
POINT
  5
205
330
43
100
AcDbEntity
  8
1
 62
     3
 60
     1
100
AcDbPoint
 10
56.64287899999998
 20
62.4939435
 30
0.0
  0
POINT
  5
206
330
43
100
AcDbEntity
  8
1
 62
     3
 60
     1
100
AcDbPoint
 10
51.14087899999997
 20
-7.5060565
 30
0.0
  0
POINT
  5
207
330
43
100
AcDbEntity
  8
1
 62
     3
 60
     1
100
AcDbPoint
 10
56.64287899999998
 20
-7.5060565
 30
0.0
  0
LINE
  5
208
330
43
100
AcDbEntity
  8
1
  6
Continuous
 62
     7
100
AcDbLine
 10
51.14087899999998
 20
62.4939435
 30
0.0
 11
56.64287899999998
 21
62.4939435
 31
0.0
  0
LINE
  5
209
330
43
100
AcDbEntity
  8
1
  6
Continuous
 62
     7
100
AcDbLine
 10
51.14087899999997
 20
-7.5060565
 30
0.0
 11
56.64287899999998
 21
-7.5060565
 31
0.0
  0
LINE
  5
20A
330
43
100
AcDbEntity
  8
1
  6
Continuous
 62
     7
100
AcDbLine
 10
56.64287899999998
 20
62.4939435
 30
0.0
 11
56.64287899999998
 21
-7.5060565
 31
0.0
  0
LINE
  5
20B
330
43
100
AcDbEntity
  8
1
  6
Continuous
 62
     7
100
AcDbLine
 10
51.14087899999998
 20
62.4939435
 30
0.0
 11
51.14087899999997
 21
-7.5060565
 31
0.0
  0
ENDBLK
  5
45
330
43
100
AcDbEntity
  8
0
100
AcDbBlockEnd
  0
BLOCK
  5
47
330
46
100
AcDbEntity
  8
0
100
AcDbBlockBegin
  2
Lagerschild_B-Seite
 70
     0
 71
     0
 10
6.642867
 20
-7.88105300000001
 30
0.0
  3
Lagerschild_B-Seite
  1

  0
POINT
  5
20C
330
46
100
AcDbEntity
  8
1
 62
     3
 60
     1
100
AcDbPoint
 10
175.066237
 20
-0.79032665647159
 30
0.0
  0
POINT
  5
20D
330
46
100
AcDbEntity
  8
1
 62
     3
 60
     1
100
AcDbPoint
 10
169.1385285571529
 20
-6.85429965687979
 30
0.0
  0
LINE
  5
20E
330
46
100
AcDbEntity
  8
1
  6
DOT_CENTER
 62
     2
100
AcDbLine
 10
140.0662365
 20
-2.3198947071555
 30
0.0
 11
140.0662365
 21
64.86894000000001
 31
0.0
  0
LINE
  5
20F
330
46
100
AcDbEntity
  8
1
  6
Continuous
 62
     7
100
AcDbLine
 10
175.441233
 20
62.86894000000001
 30
0.0
 11
107.066241
 21
62.86894000000001
 31
0.0
  0
LINE
  5
210
330
46
100
AcDbEntity
  8
1
  6
Continuous
 62
     7
100
AcDbLine
 10
107.066241
 20
62.86894000000001
 30
0.0
 11
104.69124
 21
62.86894000000001
 31
0.0
  0
LINE
  5
211
330
46
100
AcDbEntity
  8
1
  6
Continuous
 62
     7
100
AcDbLine
 10
112.2523992928444
 20
-7.88105300000001
 30
0.0
 11
167.8800747071555
 21
-7.88105300000001
 31
0.0
  0
LINE
  5
212
330
46
100
AcDbEntity
  8
1
  6
Continuous
 62
     7
100
AcDbLine
 10
104.69124
 20
62.86894000000001
 30
0.0
 11
104.69124
 21
-0.31989343530671
 31
0.0
  0
LINE
  5
213
330
46
100
AcDbEntity
  8
1
  6
Continuous
 62
     7
100
AcDbLine
 10
175.441233
 20
-0.3198947071555
 30
0.0
 11
175.441233
 21
62.86894000000001
 31
0.0
  0
LINE
  5
214
330
46
100
AcDbEntity
  8
1
  6
Continuous
 62
     7
100
AcDbLine
 10
10.07124200000001
 20
57.15174999999999
 30
0.0
 11
13.783649
 21
62.59526399999999
 31
0.0
  0
LINE
  5
215
330
46
100
AcDbEntity
  8
1
  6
Continuous
 62
     7
100
AcDbLine
 10
6.642867
 20
51.72514319859081
 30
0.0
 11
10.07124200000001
 21
57.15174999999999
 31
0.0
  0
LINE
  5
216
330
46
100
AcDbEntity
  8
1
  6
Continuous
 62
     7
100
AcDbLine
 10
6.642867
 20
51.72514319859081
 30
0.0
 11
6.642867
 21
-7.545075
 31
0.0
  0
LINE
  5
217
330
46
100
AcDbEntity
  8
1
  6
Continuous
 62
     7
100
AcDbLine
 10
6.642867
 20
62.5329454588632
 30
0.0
 11
6.642867
 21
51.72514319859081
 31
0.0
  0
LINE
  5
218
330
46
100
AcDbEntity
  8
1
  6
Continuous
 62
     7
100
AcDbLine
 10
51.14087899999997
 20
-0.328643
 30
0.0
 11
45.142866
 21
-0.38105100000001
 31
0.0
  0
LINE
  5
219
330
46
100
AcDbEntity
  8
1
  6
Continuous
 62
     7
100
AcDbLine
 10
45.142866
 20
62.86894000000001
 30
0.0
 11
6.642867
 21
62.5329454588632
 31
0.0
  0
LINE
  5
21A
330
46
100
AcDbEntity
  8
1
  6
Continuous
 62
     7
100
AcDbLine
 10
8.85083499999999
 20
-0.24986899999999
 30
0.0
 11
6.642867
 21
3.44156000000001
 31
0.0
  0
LINE
  5
21B
330
46
100
AcDbEntity
  8
1
  6
Continuous
 62
     7
100
AcDbLine
 10
8.85083499999999
 20
-7.564345
 30
0.0
 11
8.625461
 21
-5.752925
 31
0.0
  0
LINE
  5
21C
330
46
100
AcDbEntity
  8
1
  6
Continuous
 62
     7
100
AcDbLine
 10
8.62288100000001
 20
-2.089619
 30
0.0
 11
8.85083499999999
 21
-0.24986899999999
 31
0.0
  0
LINE
  5
21D
330
46
100
AcDbEntity
  8
1
  6
Continuous
 62
     7
100
AcDbLine
 10
51.14087899999998
 20
62.74239700000001
 30
0.0
 11
51.14087899999997
 21
-7.75451000000001
 31
0.0
  0
LINE
  5
21E
330
46
100
AcDbEntity
  8
1
  6
Continuous
 62
     7
100
AcDbLine
 10
51.14087899999997
 20
-7.75451000000001
 30
0.0
 11
45.142866
 21
-7.88105300000001
 31
0.0
  0
LINE
  5
21F
330
46
100
AcDbEntity
  8
1
  6
Continuous
 62
     7
100
AcDbLine
 10
8.54803100000001
 20
-3.930228
 30
0.0
 11
8.62288100000001
 21
-2.089619
 31
0.0
  0
LINE
  5
220
330
46
100
AcDbEntity
  8
1
  6
Continuous
 62
     7
100
AcDbLine
 10
8.85083499999999
 20
-7.564345
 30
0.0
 11
45.142866
 21
-7.88105300000001
 31
0.0
  0
LINE
  5
221
330
46
100
AcDbEntity
  8
1
  6
Continuous
 62
     7
100
AcDbLine
 10
45.142866
 20
62.86894000000001
 30
0.0
 11
51.14087899999998
 21
62.74239700000001
 31
0.0
  0
LINE
  5
222
330
46
100
AcDbEntity
  8
1
  6
Continuous
 62
     7
100
AcDbLine
 10
6.642867
 20
-7.545075
 30
0.0
 11
8.85083499999999
 21
-7.564345
 31
0.0
  0
LINE
  5
223
330
46
100
AcDbEntity
  8
1
  6
Continuous
 62
     7
100
AcDbLine
 10
45.142866
 20
-0.38105100000001
 30
0.0
 11
8.85083499999999
 21
-0.24986899999999
 31
0.0
  0
LINE
  5
224
330
46
100
AcDbEntity
  8
1
  6
Continuous
 62
     7
100
AcDbLine
 10
8.625461
 20
-5.752925
 30
0.0
 11
8.54803100000001
 21
-3.930228
 31
0.0
  0
ARC
  5
225
330
46
100
AcDbEntity
  8
1
  6
Continuous
 62
     7
100
AcDbCircle
 10
140.0662370000003
 20
27.49394299999969
 30
0.0
 40
44.99999900000009
100
AcDbArc
 50
-141.8235549865078
 51
-135.0000000000006
  0
ARC
  5
226
330
46
100
AcDbEntity
  8
1
  6
Continuous
 62
     7
100
AcDbCircle
 10
140.0662370000003
 20
27.49394299999969
 30
0.0
 40
44.99999900000006
100
AcDbArc
 50
-135.0000000000006
 51
-128.1764470734673
  0
ARC
  5
227
330
46
100
AcDbEntity
  8
1
  6
Continuous
 62
     7
100
AcDbCircle
 10
140.0662370000003
 20
27.49394299999969
 30
0.0
 40
44.99999899999957
100
AcDbArc
 50
-51.82355292653338
 51
-38.17644707346662
  0
ENDBLK
  5
48
330
46
100
AcDbEntity
  8
0
100
AcDbBlockEnd
  0
BLOCK
  5
4A
330
49
100
AcDbEntity
  8
0
100
AcDbBlockBegin
  2
Geh_use
 70
     0
 71
     0
 10
-33.35713800000001
 20
-7.50605200000001
 30
0.0
  3
Geh_use
  1

  0
POINT
  5
228
330
49
100
AcDbEntity
  8
1
 62
     3
 60
     1
100
AcDbPoint
 10
-33.35713800000001
 20
62.49393800000001
 30
0.0
  0
POINT
  5
229
330
49
100
AcDbEntity
  8
1
 62
     3
 60
     1
100
AcDbPoint
 10
-33.35713800000001
 20
-7.50605200000001
 30
0.0
  0
POINT
  5
22A
330
49
100
AcDbEntity
  8
1
 62
     3
 60
     1
100
AcDbPoint
 10
-33.35713800000001
 20
51.493943
 30
0.0
  0
POINT
  5
22B
330
49
100
AcDbEntity
  8
1
 62
     3
 60
     1
100
AcDbPoint
 10
-33.35713800000001
 20
3.493943
 30
0.0
  0
LINE
  5
22C
330
49
100
AcDbEntity
  8
1
  6
DOT_CENTER
 62
     2
100
AcDbLine
 10
6.642867
 20
27.493943
 30
0.0
 11
-39.3568750000007
 21
27.493943
 31
0.0
  0
LINE
  5
22D
330
49
100
AcDbEntity
  8
1
  6
Continuous
 62
     7
100
AcDbLine
 10
6.642867
 20
-7.50605200000001
 30
0.0
 11
-33.35713800000001
 21
-7.50605200000001
 31
0.0
  0
LINE
  5
22E
330
49
100
AcDbEntity
  8
1
  6
Continuous
 62
     7
100
AcDbLine
 10
6.642867
 20
62.49393800000001
 30
0.0
 11
-33.35713800000001
 21
62.49393800000001
 31
0.0
  0
LINE
  5
22F
330
49
100
AcDbEntity
  8
1
  6
Continuous
 62
     7
100
AcDbLine
 10
6.642867
 20
-7.50605200000001
 30
0.0
 11
6.642867
 21
3.493943
 31
0.0
  0
LINE
  5
230
330
49
100
AcDbEntity
  8
1
  6
Continuous
 62
     7
100
AcDbLine
 10
-33.35713800000001
 20
62.49393800000001
 30
0.0
 11
-33.35713800000001
 21
51.493943
 31
0.0
  0
LINE
  5
231
330
49
100
AcDbEntity
  8
1
  6
Continuous
 62
     7
100
AcDbLine
 10
-33.35713800000001
 20
51.493943
 30
0.0
 11
6.642867
 21
51.493943
 31
0.0
  0
LINE
  5
232
330
49
100
AcDbEntity
  8
1
  6
Continuous
 62
     7
100
AcDbLine
 10
6.642867
 20
51.493943
 30
0.0
 11
6.642867
 21
62.49393800000001
 31
0.0
  0
LINE
  5
233
330
49
100
AcDbEntity
  8
1
  6
Continuous
 62
     7
100
AcDbLine
 10
-33.35713800000001
 20
51.493943
 30
0.0
 11
-33.35713800000001
 21
3.493943
 31
0.0
  0
LINE
  5
234
330
49
100
AcDbEntity
  8
1
  6
Continuous
 62
     7
100
AcDbLine
 10
-33.35713800000001
 20
3.493943
 30
0.0
 11
6.642867
 21
3.493943
 31
0.0
  0
LINE
  5
235
330
49
100
AcDbEntity
  8
1
  6
Continuous
 62
     7
100
AcDbLine
 10
6.642867
 20
3.493943
 30
0.0
 11
6.642867
 21
51.493943
 31
0.0
  0
LINE
  5
236
330
49
100
AcDbEntity
  8
1
  6
Continuous
 62
     7
100
AcDbLine
 10
-33.35713800000001
 20
3.493943
 30
0.0
 11
-33.35713800000001
 21
-7.50605200000001
 31
0.0
  0
ENDBLK
  5
4B
330
49
100
AcDbEntity
  8
0
100
AcDbBlockEnd
  0
BLOCK
  5
4D
330
4C
100
AcDbEntity
  8
0
100
AcDbBlockBegin
  2
Winkelflanschdose_12-polig_drehbar
 70
     0
 71
     0
 10
374.8757286191631
 20
171.008929317636
 30
0.0
  3
Winkelflanschdose_12-polig_drehbar
  1

  0
POINT
  5
237
330
4C
100
AcDbEntity
  8
1
 62
     3
 60
     1
100
AcDbPoint
 10
147.154452
 20
77.30937471910971
 30
0.0
  0
POINT
  5
238
330
4C
100
AcDbEntity
  8
1
 62
     3
 60
     1
100
AcDbPoint
 10
160.978027
 20
77.30937171910969
 30
0.0
  0
POINT
  5
239
330
4C
100
AcDbEntity
  8
1
 62
     3
 60
     1
100
AcDbPoint
 10
163.8757890000001
 20
80.20713371910969
 30
0.0
  0
POINT
  5
23A
330
4C
100
AcDbEntity
  8
1
 62
     3
 60
     1
100
AcDbPoint
 10
166.066242
 20
87.618931
 30
0.0
  0
POINT
  5
23B
330
4C
100
AcDbEntity
  8
1
 62
     3
 60
     1
100
AcDbPoint
 10
144.256694
 20
80.20713371910969
 30
0.0
  0
POINT
  5
23C
330
4C
100
AcDbEntity
  8
1
 62
     3
 60
     1
100
AcDbPoint
 10
142.066242
 20
87.61893100000009
 30
0.0
  0
POINT
  5
23D
330
4C
100
AcDbEntity
  8
1
 62
     3
 60
     1
100
AcDbPoint
 10
141.216242
 20
68.1189187191097
 30
0.0
  0
POINT
  5
23E
330
4C
100
AcDbEntity
  8
1
 62
     3
 60
     1
100
AcDbPoint
 10
141.216242
 20
78.1189187191097
 30
0.0
  0
LINE
  5
23F
330
4C
100
AcDbEntity
  8
AM_VIS
  6
Continuous
 62
     7
100
AcDbLine
 10
160.9780440797501
 20
68.1189187191097
 30
0.0
 11
160.978032
 21
68.1189187191097
 31
0.0
  0
LINE
  5
240
330
4C
100
AcDbEntity
  8
1
  6
Continuous
 62
     7
100
AcDbLine
 10
166.066242
 20
74.6189187191097
 30
0.0
 11
142.066242
 21
74.6189187191097
 31
0.0
  0
LINE
  5
241
330
4C
100
AcDbEntity
  8
1
  6
DOT_CENTER
 62
     2
100
AcDbLine
 10
154.066242
 20
63.61891871910959
 30
0.0
 11
154.066242
 21
106.3889374519707
 31
0.0
  0
LINE
  5
242
330
4C
100
AcDbEntity
  8
AM_VIS
  6
Continuous
 62
     7
100
AcDbLine
 10
144.256697
 20
68.1189187191097
 30
0.0
 11
142.066242
 21
68.1189187191097
 31
0.0
  0
LINE
  5
243
330
4C
100
AcDbEntity
  8
AM_VIS
  6
Continuous
 62
     7
100
AcDbLine
 10
141.216242
 20
68.1189187191097
 30
0.0
 11
141.216242
 21
65.6189437191097
 31
0.0
  0
LINE
  5
244
330
4C
100
AcDbEntity
  8
AM_VIS
  6
Continuous
 62
     7
100
AcDbLine
 10
144.257911
 20
80.69891871910971
 30
0.0
 11
144.257911
 21
83.39951571910959
 31
0.0
  0
LINE
  5
245
330
4C
100
AcDbEntity
  8
AM_VIS
  6
Continuous
 62
     7
100
AcDbLine
 10
144.256694
 20
80.20713371910969
 30
0.0
 11
144.256694
 21
80.69891871910971
 31
0.0
  0
LINE
  5
246
330
4C
100
AcDbEntity
  8
AM_VIS
  6
Continuous
 62
     7
100
AcDbLine
 10
144.256694
 20
80.69891871910971
 30
0.0
 11
144.257911
 21
80.69891871910971
 31
0.0
  0
LINE
  5
247
330
4C
100
AcDbEntity
  8
AM_VIS
  6
Continuous
 62
     7
100
AcDbLine
 10
147.154398
 20
80.6989577191097
 30
0.0
 11
147.154452
 21
77.30937471910971
 31
0.0
  0
LINE
  5
248
330
4C
100
AcDbEntity
  8
AM_VIS
  6
Continuous
 62
     7
100
AcDbLine
 10
147.154452
 20
77.30937471910971
 30
0.0
 11
147.154452
 21
68.1189187191097
 31
0.0
  0
LINE
  5
249
330
4C
100
AcDbEntity
  8
AM_VIS
  6
Continuous
 62
     7
100
AcDbLine
 10
166.916242
 20
68.1189187191097
 30
0.0
 11
166.9029800000001
 21
68.1189187191097
 31
0.0
  0
LINE
  5
24A
330
4C
100
AcDbEntity
  8
AM_VIS
  6
Continuous
 62
     7
100
AcDbLine
 10
166.9029800000001
 20
68.1189187191097
 30
0.0
 11
166.066242
 21
68.1189187191097
 31
0.0
  0
LINE
  5
24B
330
4C
100
AcDbEntity
  8
AM_VIS
  6
Continuous
 62
     7
100
AcDbLine
 10
166.915985
 20
65.6189437191097
 30
0.0
 11
166.916242
 21
68.1189187191097
 31
0.0
  0
LINE
  5
24C
330
4C
100
AcDbEntity
  8
AM_VIS
  6
Continuous
 62
     7
100
AcDbLine
 10
166.902723
 20
65.6189437191097
 30
0.0
 11
166.915985
 21
65.6189437191097
 31
0.0
  0
LINE
  5
24D
330
4C
100
AcDbEntity
  8
AM_VIS
  6
Continuous
 62
     7
100
AcDbLine
 10
160.978027
 20
80.69891871910971
 30
0.0
 11
163.8745720000001
 21
80.69891871910971
 31
0.0
  0
LINE
  5
24E
330
4C
100
AcDbEntity
  8
AM_VIS
  6
Continuous
 62
     7
100
AcDbLine
 10
163.8745720000001
 20
83.39951571910959
 30
0.0
 11
163.8745720000001
 21
80.69891871910971
 31
0.0
  0
LINE
  5
24F
330
4C
100
AcDbEntity
  8
AM_VIS
  6
Continuous
 62
     7
100
AcDbLine
 10
163.8745720000001
 20
80.69891871910971
 30
0.0
 11
163.8757890000001
 21
80.69891871910971
 31
0.0
  0
LINE
  5
250
330
4C
100
AcDbEntity
  8
AM_VIS
  6
Continuous
 62
     7
100
AcDbLine
 10
163.8757890000001
 20
80.69891871910971
 30
0.0
 11
163.8757890000001
 21
80.20713371910969
 31
0.0
  0
LINE
  5
251
330
4C
100
AcDbEntity
  8
AM_VIS
  6
Continuous
 62
     7
100
AcDbLine
 10
160.978027
 20
77.30937171910969
 30
0.0
 11
160.978027
 21
80.69891871910971
 31
0.0
  0
LINE
  5
252
330
4C
100
AcDbEntity
  8
AM_VIS
  6
Continuous
 62
     7
100
AcDbLine
 10
161.8550260000001
 20
79.33013471910971
 30
0.0
 11
163.8757890000001
 21
80.20713371910969
 31
0.0
  0
LINE
  5
253
330
4C
100
AcDbEntity
  8
AM_VIS
  6
Continuous
 62
     7
100
AcDbLine
 10
160.978027
 20
77.30937171910969
 30
0.0
 11
161.8550260000001
 21
79.33013471910971
 31
0.0
  0
LINE
  5
254
330
4C
100
AcDbEntity
  8
AM_VIS
  6
Continuous
 62
     7
100
AcDbLine
 10
163.8757890000001
 20
80.20713371910969
 30
0.0
 11
163.8757833157954
 21
69.61894799999999
 31
0.0
  0
LINE
  5
255
330
4C
100
AcDbEntity
  8
AM_VIS
  6
Continuous
 62
     7
100
AcDbLine
 10
160.9780440797501
 20
68.1189187191097
 30
0.0
 11
160.978027
 21
77.30937171910969
 31
0.0
  0
LINE
  5
256
330
4C
100
AcDbEntity
  8
AM_VIS
  6
Continuous
 62
     7
100
AcDbLine
 10
166.066242
 20
68.1189187191097
 30
0.0
 11
166.066242
 21
87.618931
 31
0.0
  0
LINE
  5
257
330
4C
100
AcDbEntity
  8
AM_VIS
  6
Continuous
 62
     7
100
AcDbLine
 10
166.066242
 20
68.1189187191097
 30
0.0
 11
163.8757860000001
 21
68.1189187191097
 31
0.0
  0
LINE
  5
258
330
4C
100
AcDbEntity
  8
AM_VIS
  6
Continuous
 62
     7
100
AcDbLine
 10
144.257911
 20
80.69891871910971
 30
0.0
 11
147.154398
 21
80.6989577191097
 31
0.0
  0
LINE
  5
259
330
4C
100
AcDbEntity
  8
AM_VIS
  6
Continuous
 62
     7
100
AcDbLine
 10
146.277458
 20
79.33013471910971
 30
0.0
 11
147.154452
 21
77.30937471910971
 31
0.0
  0
LINE
  5
25A
330
4C
100
AcDbEntity
  8
AM_VIS
  6
Continuous
 62
     7
100
AcDbLine
 10
144.256694
 20
80.20713371910969
 30
0.0
 11
146.277458
 21
79.33013471910971
 31
0.0
  0
LINE
  5
25B
330
4C
100
AcDbEntity
  8
1
  6
DOT_CENTER
 62
     2
100
AcDbLine
 10
167.5140971469724
 20
91.118931
 30
0.0
 11
140.315208647619
 21
91.118931
 31
0.0
  0
LINE
  5
25C
330
4C
100
AcDbEntity
  8
AM_VIS
  6
Continuous
 62
     7
100
AcDbLine
 10
142.066242
 20
87.61893100000009
 30
0.0
 11
142.066242
 21
78.1189187191097
 31
0.0
  0
LINE
  5
25D
330
4C
100
AcDbEntity
  8
AM_VIS
  6
Continuous
 62
     7
100
AcDbLine
 10
142.066242
 20
68.1189187191097
 30
0.0
 11
141.216242
 21
68.1189187191097
 31
0.0
  0
LINE
  5
25E
330
4C
100
AcDbEntity
  8
AM_VIS
  6
Continuous
 62
     7
100
AcDbLine
 10
147.154452
 20
68.1189187191097
 30
0.0
 11
144.256697
 21
68.1189187191097
 31
0.0
  0
LINE
  5
25F
330
4C
100
AcDbEntity
  8
AM_VIS
  6
Continuous
 62
     7
100
AcDbLine
 10
163.8757860000001
 20
68.1189187191097
 30
0.0
 11
160.9780440797501
 21
68.1189187191097
 31
0.0
  0
LINE
  5
260
330
4C
100
AcDbEntity
  8
AM_VIS
  6
Continuous
 62
     7
100
AcDbLine
 10
160.978032
 20
68.1189187191097
 30
0.0
 11
147.154452
 21
68.1189187191097
 31
0.0
  0
LINE
  5
261
330
4C
100
AcDbEntity
  8
AM_VIS
  6
Continuous
 62
     7
100
AcDbLine
 10
141.216242
 20
65.6189437191097
 30
0.0
 11
166.902723
 21
65.6189437191097
 31
0.0
  0
LINE
  5
262
330
4C
100
AcDbEntity
  8
1
  6
Continuous
 62
     7
100
AcDbLine
 10
141.216242
 20
68.1189187191097
 30
0.0
 11
141.216242
 21
78.1189187191097
 31
0.0
  0
LINE
  5
263
330
4C
100
AcDbEntity
  8
1
  6
Continuous
 62
     7
100
AcDbLine
 10
141.216242
 20
78.1189187191097
 30
0.0
 11
142.066242
 21
78.1189187191097
 31
0.0
  0
LINE
  5
264
330
4C
100
AcDbEntity
  8
AM_VIS
  6
Continuous
 62
     7
100
AcDbLine
 10
142.066242
 20
78.1189187191097
 30
0.0
 11
142.066242
 21
68.1189187191097
 31
0.0
  0
LINE
  5
265
330
4C
100
AcDbEntity
  8
AM_VIS
  6
Continuous
 62
     7
100
AcDbLine
 10
144.2566996842046
 20
69.61894799999999
 30
0.0
 11
144.256694
 21
80.20713371910969
 31
0.0
  0
ARC
  5
266
330
4C
100
AcDbEntity
  8
1
  6
Continuous
 62
     7
100
AcDbCircle
 10
142.251646626024
 20
106.5098107661561
 30
0.0
 40
6.999999999999884
100
AcDbArc
 50
-60.14832404975347
 51
-29.66860429911007
  0
ARC
  5
267
330
4C
100
AcDbEntity
  8
1
  6
Continuous
 62
     7
100
AcDbCircle
 10
154.066242
 20
91.118931
 30
0.0
 40
12.5
100
AcDbArc
 50
0.0
 51
48.20833315859799
  0
ARC
  5
268
330
4C
100
AcDbEntity
  8
1
  6
Continuous
 62
     7
100
AcDbCircle
 10
154.0662415
 20
34.11895980435219
 30
0.0
 40
69.99997119564772
100
AcDbArc
 50
89.99999959074427
 51
93.63444836870288
  0
ARC
  5
269
330
4C
100
AcDbEntity
  8
1
  6
Continuous
 62
     7
100
AcDbCircle
 10
165.8808373739761
 20
106.5098107661561
 30
0.0
 40
6.999999999999879
100
AcDbArc
 50
-153.0067442793675
 51
-119.8516759502467
  0
ARC
  5
26A
330
4C
100
AcDbEntity
  8
1
  6
Continuous
 62
     7
100
AcDbCircle
 10
154.066242
 20
91.118931
 30
0.0
 40
12.49999999999998
100
AcDbArc
 50
-163.7397952916884
 51
-16.26020470831196
  0
ARC
  5
26B
330
4C
100
AcDbEntity
  8
1
  6
Continuous
 62
     7
100
AcDbCircle
 10
154.066242
 20
91.118931
 30
0.0
 40
12.49999999999985
100
AcDbArc
 50
131.7916668414016
 51
-163.7397952916884
  0
ARC
  5
26C
330
4C
100
AcDbEntity
  8
1
  6
Continuous
 62
     7
100
AcDbCircle
 10
154.0662419613382
 20
88.6508705044325
 30
0.0
 40
13.28165528532307
100
AcDbArc
 50
-121.3591701441291
 51
-58.6408547245961
  0
ARC
  5
26D
330
4C
100
AcDbEntity
  8
1
  6
Continuous
 62
     7
100
AcDbCircle
 10
150.0813237282979
 20
88.31347246528881
 30
0.0
 40
16.00000000000011
100
AcDbArc
 50
-30.44068999899271
 51
-2.48792517799264
  0
ARC
  5
26E
330
4C
100
AcDbEntity
  8
1
  6
Continuous
 62
     7
100
AcDbCircle
 10
159.0376196279775
 20
88.60500473384911
 30
0.0
 40
17.00000000000008
100
AcDbArc
 50
-176.6747298525215
 51
-150.3966691892988
  0
ARC
  5
26F
330
4C
100
AcDbEntity
  8
1
  6
Continuous
 62
     7
100
AcDbCircle
 10
154.0662415
 20
34.11895980435219
 30
0.0
 40
69.99997119564775
100
AcDbArc
 50
86.36555075479049
 51
89.99999959074427
  0
ARC
  5
270
330
4C
100
AcDbEntity
  8
1
  6
Continuous
 62
     7
100
AcDbCircle
 10
154.066242
 20
91.118931
 30
0.0
 40
12.5
100
AcDbArc
 50
-16.26020470831196
 51
0.0
  0
ARC
  5
271
330
4C
100
AcDbEntity
  8
1
  6
Continuous
 62
     7
100
AcDbCircle
 10
149.723990021051
 20
102.4811635861067
 30
0.0
 40
1.500000000000068
100
AcDbArc
 50
93.63444836870491
 51
157.9233961932084
  0
ARC
  5
272
330
4C
100
AcDbEntity
  8
1
  6
Continuous
 62
     7
100
AcDbCircle
 10
158.4084940247491
 20
102.4811635196792
 30
0.0
 40
1.499999999999986
100
AcDbArc
 50
34.58525929494347
 51
86.36555075479409
  0
ENDBLK
  5
4E
330
4C
100
AcDbEntity
  8
0
100
AcDbBlockEnd
  0
BLOCK
  5
50
330
4F
100
AcDbEntity
  8
0
100
AcDbBlockBegin
  2
tb_frame_A3
 70
     0
 71
     0
 10
0.0
 20
0.0
 30
0.0
  3
tb_frame_A3
  1

  0
POINT
  5
273
330
4F
100
AcDbEntity
  8
1
 62
   250
100
AcDbPoint
 10
205.0
 20
-142.5
 30
0.0
  0
LINE
  5
274
102
{ACAD_REACTORS
330
376
330
376
102
}
330
4F
100
AcDbEntity
  8
1
  6
Continuous
 62
     2
100
AcDbLine
 10
145.8516542509982
 20
-115.0199999999999
 30
0.0
 11
145.8516542509982
 21
-118.30758746051
 31
0.0
  0
LINE
  5
275
102
{ACAD_REACTORS
330
376
330
376
102
}
330
4F
100
AcDbEntity
  8
1
  6
Continuous
 62
     2
100
AcDbLine
 10
145.8516542509982
 20
-115.0199999999999
 30
0.0
 11
147.1516542509982
 21
-115.0199999999999
 31
0.0
  0
LINE
  5
276
102
{ACAD_REACTORS
330
376
330
376
102
}
330
4F
100
AcDbEntity
  8
1
  6
Continuous
 62
     2
100
AcDbLine
 10
147.1516542509982
 20
-113.9199999999999
 30
0.0
 11
147.1516542509982
 21
-115.0199999999999
 31
0.0
  0
LINE
  5
277
102
{ACAD_REACTORS
330
376
330
376
102
}
330
4F
100
AcDbEntity
  8
1
  6
Continuous
 62
     2
100
AcDbLine
 10
145.8516542509982
 20
-113.9199999999999
 30
0.0
 11
147.1516542509982
 21
-113.9199999999999
 31
0.0
  0
LINE
  5
278
102
{ACAD_REACTORS
330
376
330
376
102
}
330
4F
100
AcDbEntity
  8
1
  6
Continuous
 62
     2
100
AcDbLine
 10
145.8516542509982
 20
-118.30758746051
 30
0.0
 11
147.1516542509982
 21
-118.30758746051
 31
0.0
  0
LINE
  5
279
102
{ACAD_REACTORS
330
376
330
376
102
}
330
4F
100
AcDbEntity
  8
1
  6
Continuous
 62
     2
100
AcDbLine
 10
145.8516542509982
 20
-111.3199999999999
 30
0.0
 11
145.8516542509982
 21
-113.9199999999999
 31
0.0
  0
LINE
  5
27A
102
{ACAD_REACTORS
330
380
330
380
102
}
330
4F
100
AcDbEntity
  8
1
  6
Continuous
 62
     2
100
AcDbLine
 10
141.9927287849846
 20
-115.9199999999999
 30
0.0
 11
142.5516542509982
 21
-115.9199999999999
 31
0.0
  0
LINE
  5
27B
330
4F
100
AcDbEntity
  8
1
  6
Continuous
 62
     2
100
AcDbLine
 10
141.9927287849846
 20
-115.9199999999999
 30
0.0
 11
142.2516542509982
 21
-115.9199999999999
 31
0.0
  0
LINE
  5
27C
102
{ACAD_REACTORS
330
380
330
380
102
}
330
4F
100
AcDbEntity
  8
1
  6
Continuous
 62
     2
100
AcDbLine
 10
141.9927287849846
 20
-114.7199999999999
 30
0.0
 11
143.7516542509982
 21
-114.7199999999999
 31
0.0
  0
LINE
  5
27D
102
{ACAD_REACTORS
330
380
330
380
102
}
330
4F
100
AcDbEntity
  8
1
  6
Continuous
 62
     2
100
AcDbLine
 10
141.9927287849846
 20
-114.7199999999999
 30
0.0
 11
141.9927287849846
 21
-115.9199999999999
 31
0.0
  0
LINE
  5
27E
102
{ACAD_REACTORS
330
380
330
380
102
}
330
4F
100
AcDbEntity
  8
1
  6
Continuous
 62
     2
100
AcDbLine
 10
143.7516542509982
 20
-119.4199999999999
 30
0.0
 11
143.2516542509982
 21
-119.4199999999999
 31
0.0
  0
LINE
  5
27F
102
{ACAD_REACTORS
330
380
330
380
102
}
330
4F
100
AcDbEntity
  8
1
  6
Continuous
 62
     2
100
AcDbLine
 10
143.7516542509982
 20
-111.2199999999999
 30
0.0
 11
143.7516542509982
 21
-113.3199999999999
 31
0.0
  0
LINE
  5
280
102
{ACAD_REACTORS
330
376
330
376
102
}
330
4F
100
AcDbEntity
  8
1
  6
Continuous
 62
     2
100
AcDbLine
 10
147.1516542509982
 20
-110.2199999999999
 30
0.0
 11
144.5516542509982
 21
-110.2199999999999
 31
0.0
  0
LINE
  5
281
102
{ACAD_REACTORS
330
376
330
376
102
}
330
4F
100
AcDbEntity
  8
1
  6
Continuous
 62
     2
100
AcDbLine
 10
144.5516542509982
 20
-110.2199999999999
 30
0.0
 11
144.5516542509982
 21
-119.4199999999999
 31
0.0
  0
LINE
  5
282
102
{ACAD_REACTORS
330
376
330
376
102
}
330
4F
100
AcDbEntity
  8
1
  6
Continuous
 62
     2
100
AcDbLine
 10
144.5516542509982
 20
-119.4199999999999
 30
0.0
 11
147.1516542509982
 21
-119.4199999999999
 31
0.0
  0
LINE
  5
283
102
{ACAD_REACTORS
330
376
330
376
102
}
330
4F
100
AcDbEntity
  8
1
  6
Continuous
 62
     2
100
AcDbLine
 10
147.1516542509982
 20
-119.4199999999999
 30
0.0
 11
147.1516542509982
 21
-118.30758746051
 31
0.0
  0
LINE
  5
284
102
{ACAD_REACTORS
330
380
330
380
102
}
330
4F
100
AcDbEntity
  8
1
  6
Continuous
 62
     2
100
AcDbLine
 10
143.7516542509982
 20
-114.7199999999999
 30
0.0
 11
143.7516542509982
 21
-119.4199999999999
 31
0.0
  0
LINE
  5
285
102
{ACAD_REACTORS
330
380
330
380
102
}
330
4F
100
AcDbEntity
  8
1
  6
Continuous
 62
     2
100
AcDbLine
 10
143.2516542509982
 20
-119.4199999999999
 30
0.0
 11
142.9048783308657
 21
-118.8199999999999
 31
0.0
  0
LINE
  5
286
102
{ACAD_REACTORS
330
380
330
380
102
}
330
4F
100
AcDbEntity
  8
1
  6
Continuous
 62
     2
100
AcDbLine
 10
141.0516542509982
 20
-119.4199999999999
 30
0.0
 11
141.9016542509982
 21
-119.4199999999999
 31
0.0
  0
LINE
  5
287
102
{ACAD_REACTORS
330
379
330
379
102
}
330
4F
100
AcDbEntity
  8
1
  6
Continuous
 62
     2
100
AcDbLine
 10
148.9516542509982
 20
-110.2199999999999
 30
0.0
 11
150.6516542509982
 21
-110.2199999999999
 31
0.0
  0
LINE
  5
288
102
{ACAD_REACTORS
330
379
330
379
102
}
330
4F
100
AcDbEntity
  8
1
  6
Continuous
 62
     2
100
AcDbLine
 10
150.6516542509982
 20
-119.4199999999999
 30
0.0
 11
148.9516542509982
 21
-119.4199999999999
 31
0.0
  0
LINE
  5
289
102
{ACAD_REACTORS
330
379
330
379
102
}
330
4F
100
AcDbEntity
  8
1
  6
Continuous
 62
     2
100
AcDbLine
 10
147.9516542509982
 20
-111.2199999999999
 30
0.0
 11
147.9516542509982
 21
-118.4199999999999
 31
0.0
  0
LINE
  5
28A
102
{ACAD_REACTORS
330
379
330
379
102
}
330
4F
100
AcDbEntity
  8
1
  6
Continuous
 62
     2
100
AcDbLine
 10
151.6516542509982
 20
-111.2199999999999
 30
0.0
 11
151.6516542509982
 21
-118.4199999999999
 31
0.0
  0
LINE
  5
28B
102
{ACAD_REACTORS
330
37E
330
37E
102
}
330
4F
100
AcDbEntity
  8
1
  6
Continuous
 62
     2
100
AcDbLine
 10
152.4516542509982
 20
-110.2199999999999
 30
0.0
 11
152.4516542509982
 21
-119.4199999999999
 31
0.0
  0
LINE
  5
28C
102
{ACAD_REACTORS
330
37E
330
37E
102
}
330
4F
100
AcDbEntity
  8
1
  6
Continuous
 62
     2
100
AcDbLine
 10
152.4516542509982
 20
-110.2199999999999
 30
0.0
 11
155.1516542509982
 21
-110.2199999999999
 31
0.0
  0
LINE
  5
28D
102
{ACAD_REACTORS
330
37E
330
37E
102
}
330
4F
100
AcDbEntity
  8
1
  6
Continuous
 62
     2
100
AcDbLine
 10
156.1516542509982
 20
-114.0043621302671
 30
0.0
 11
156.1516542509982
 21
-111.2199999999999
 31
0.0
  0
LINE
  5
28E
102
{ACAD_REACTORS
330
37E
330
37E
102
}
330
4F
100
AcDbEntity
  8
1
  6
Continuous
 62
     2
100
AcDbLine
 10
156.1516542509982
 20
-115.6603414185126
 30
0.0
 11
156.1516542509982
 21
-119.4199999999999
 31
0.0
  0
LINE
  5
28F
102
{ACAD_REACTORS
330
37F
330
37F
102
}
330
4F
100
AcDbEntity
  8
1
  6
Continuous
 62
     2
100
AcDbLine
 10
157.9516542509982
 20
-110.2199999999999
 30
0.0
 11
159.6516542509982
 21
-110.2199999999999
 31
0.0
  0
LINE
  5
290
102
{ACAD_REACTORS
330
37F
330
37F
102
}
330
4F
100
AcDbEntity
  8
1
  6
Continuous
 62
     2
100
AcDbLine
 10
160.6516542509982
 20
-119.4199999999999
 30
0.0
 11
160.6516542509982
 21
-114.7199999999999
 31
0.0
  0
LINE
  5
291
102
{ACAD_REACTORS
330
37F
330
37F
102
}
330
4F
100
AcDbEntity
  8
1
  6
Continuous
 62
     2
100
AcDbLine
 10
160.6516542509982
 20
-113.3199999999999
 30
0.0
 11
159.4516542509982
 21
-113.3199999999999
 31
0.0
  0
LINE
  5
292
102
{ACAD_REACTORS
330
37F
330
37F
102
}
330
4F
100
AcDbEntity
  8
1
  6
Continuous
 62
     2
100
AcDbLine
 10
160.6516542509982
 20
-113.3199999999999
 30
0.0
 11
160.6516542509983
 21
-111.2199999999999
 31
0.0
  0
LINE
  5
293
102
{ACAD_REACTORS
330
378
330
378
102
}
330
4F
100
AcDbEntity
  8
1
  6
Continuous
 62
     2
100
AcDbLine
 10
168.6516542509982
 20
-110.2199999999999
 30
0.0
 11
169.8516542509982
 21
-110.2199999999999
 31
0.0
  0
LINE
  5
294
102
{ACAD_REACTORS
330
378
330
378
102
}
330
4F
100
AcDbEntity
  8
1
  6
Continuous
 62
     2
100
AcDbLine
 10
168.6516542509982
 20
-119.4199999999999
 30
0.0
 11
169.8516542509982
 21
-119.4199999999999
 31
0.0
  0
LINE
  5
295
102
{ACAD_REACTORS
330
378
330
378
102
}
330
4F
100
AcDbEntity
  8
1
  6
Continuous
 62
     2
100
AcDbLine
 10
168.6516542509982
 20
-119.4199999999999
 30
0.0
 11
168.6516542509982
 21
-110.2199999999999
 31
0.0
  0
LINE
  5
296
330
4F
100
AcDbEntity
  8
1
  6
Continuous
 62
     2
100
AcDbLine
 10
168.6516542509982
 20
-119.4199999999999
 30
0.0
 11
169.8516542509982
 21
-119.4199999999999
 31
0.0
  0
LINE
  5
297
102
{ACAD_REACTORS
330
37C
330
37C
102
}
330
4F
100
AcDbEntity
  8
1
  6
Continuous
 62
     2
100
AcDbLine
 10
174.1516542509982
 20
-110.2199999999999
 30
0.0
 11
175.8516542509982
 21
-110.2199999999999
 31
0.0
  0
LINE
  5
298
102
{ACAD_REACTORS
330
37C
330
37C
102
}
330
4F
100
AcDbEntity
  8
1
  6
Continuous
 62
     2
100
AcDbLine
 10
174.1516542509982
 20
-119.4199999999999
 30
0.0
 11
175.8516542509982
 21
-119.4199999999999
 31
0.0
  0
LINE
  5
299
102
{ACAD_REACTORS
330
37B
330
37B
102
}
330
4F
100
AcDbEntity
  8
1
  6
Continuous
 62
     2
100
AcDbLine
 10
177.6516542509982
 20
-110.2199999999999
 30
0.0
 11
177.6516542509982
 21
-119.4199999999999
 31
0.0
  0
LINE
  5
29A
102
{ACAD_REACTORS
330
37B
330
37B
102
}
330
4F
100
AcDbEntity
  8
1
  6
Continuous
 62
     2
100
AcDbLine
 10
180.3516542509982
 20
-110.2199999999999
 30
0.0
 11
177.6516542509982
 21
-110.2199999999999
 31
0.0
  0
LINE
  5
29B
102
{ACAD_REACTORS
330
37B
330
37B
102
}
330
4F
100
AcDbEntity
  8
1
  6
Continuous
 62
     2
100
AcDbLine
 10
177.6516542509982
 20
-119.4199999999999
 30
0.0
 11
180.3516542509982
 21
-119.4199999999999
 31
0.0
  0
LINE
  5
29C
102
{ACAD_REACTORS
330
37A
330
37A
102
}
330
4F
100
AcDbEntity
  8
1
  6
Continuous
 62
     2
100
AcDbLine
 10
182.1516542509982
 20
-111.2199999999999
 30
0.0
 11
182.1516542509982
 21
-118.4199999999999
 31
0.0
  0
LINE
  5
29D
102
{ACAD_REACTORS
330
37A
330
37A
102
}
330
4F
100
AcDbEntity
  8
1
  6
Continuous
 62
     2
100
AcDbLine
 10
183.1516542509982
 20
-119.4199999999999
 30
0.0
 11
184.8516542509982
 21
-119.4199999999999
 31
0.0
  0
LINE
  5
29E
102
{ACAD_REACTORS
330
37A
330
37A
102
}
330
4F
100
AcDbEntity
  8
1
  6
Continuous
 62
     2
100
AcDbLine
 10
185.8516542509982
 20
-111.2199999999999
 30
0.0
 11
185.8516542509982
 21
-118.4199999999999
 31
0.0
  0
LINE
  5
29F
102
{ACAD_REACTORS
330
37A
330
37A
102
}
330
4F
100
AcDbEntity
  8
1
  6
Continuous
 62
     2
100
AcDbLine
 10
183.1516542509982
 20
-110.2199999999999
 30
0.0
 11
184.8516542509982
 21
-110.2199999999999
 31
0.0
  0
LINE
  5
2A0
102
{ACAD_REACTORS
330
377
330
377
102
}
330
4F
100
AcDbEntity
  8
1
  6
Continuous
 62
     2
100
AcDbLine
 10
186.6516542509982
 20
-110.2199999999999
 30
0.0
 11
186.6516542509982
 21
-119.4199999999999
 31
0.0
  0
LINE
  5
2A1
102
{ACAD_REACTORS
330
377
330
377
102
}
330
4F
100
AcDbEntity
  8
1
  6
Continuous
 62
     2
100
AcDbLine
 10
186.6516542509982
 20
-119.4199999999999
 30
0.0
 11
189.2516542509982
 21
-119.4199999999999
 31
0.0
  0
LINE
  5
2A2
102
{ACAD_REACTORS
330
377
330
377
102
}
330
4F
100
AcDbEntity
  8
1
  6
Continuous
 62
     2
100
AcDbLine
 10
189.2516542509982
 20
-119.4199999999999
 30
0.0
 11
189.2516542509982
 21
-118.30758746051
 31
0.0
  0
LINE
  5
2A3
102
{ACAD_REACTORS
330
377
330
377
102
}
330
4F
100
AcDbEntity
  8
1
  6
Continuous
 62
     2
100
AcDbLine
 10
186.6516542509982
 20
-110.2199999999999
 30
0.0
 11
187.8516542509982
 21
-110.2199999999999
 31
0.0
  0
LINE
  5
2A4
102
{ACAD_REACTORS
330
37D
330
37D
102
}
330
4F
100
AcDbEntity
  8
1
  6
Continuous
 62
     2
100
AcDbLine
 10
190.0516542509982
 20
-119.4199999999999
 30
0.0
 11
190.0516542509982
 21
-110.2199999999999
 31
0.0
  0
LINE
  5
2A5
102
{ACAD_REACTORS
330
37D
330
37D
102
}
330
4F
100
AcDbEntity
  8
1
  6
Continuous
 62
     2
100
AcDbLine
 10
190.0516542509982
 20
-110.2199999999999
 30
0.0
 11
192.7516542509982
 21
-110.2199999999999
 31
0.0
  0
LINE
  5
2A6
102
{ACAD_REACTORS
330
37C
330
37C
102
}
330
4F
100
AcDbEntity
  8
1
  6
Continuous
 62
     2
100
AcDbLine
 10
176.8516542509982
 20
-111.2199999999999
 30
0.0
 11
176.8516542509982
 21
-118.4199999999999
 31
0.0
  0
LINE
  5
2A7
102
{ACAD_REACTORS
330
37D
330
37D
102
}
330
4F
100
AcDbEntity
  8
1
  6
Continuous
 62
     2
100
AcDbLine
 10
192.7516542509982
 20
-119.4199999999999
 30
0.0
 11
190.0516542509982
 21
-119.4199999999999
 31
0.0
  0
LINE
  5
2A8
102
{ACAD_REACTORS
330
37D
330
37D
102
}
330
4F
100
AcDbEntity
  8
1
  6
Continuous
 62
     2
100
AcDbLine
 10
193.7516542509982
 20
-111.2199999999999
 30
0.0
 11
193.7516542509982
 21
-118.4199999999999
 31
0.0
  0
LINE
  5
2A9
102
{ACAD_REACTORS
330
37F
330
37F
102
}
330
4F
100
AcDbEntity
  8
1
  6
Continuous
 62
     2
100
AcDbLine
 10
157.9516542509982
 20
-119.4199999999999
 30
0.0
 11
158.8173222162131
 21
-119.4199999999999
 31
0.0
  0
LINE
  5
2AA
102
{ACAD_REACTORS
330
37F
330
37F
102
}
330
4F
100
AcDbEntity
  8
1
  6
Continuous
 62
     2
100
AcDbLine
 10
156.9516542509982
 20
-118.4199999999999
 30
0.0
 11
156.9516542509982
 21
-111.2199999999999
 31
0.0
  0
LINE
  5
2AB
102
{ACAD_REACTORS
330
380
330
380
102
}
330
4F
100
AcDbEntity
  8
1
  6
Continuous
 62
     2
100
AcDbLine
 10
140.0516542509982
 20
-111.2199999999999
 30
0.0
 11
140.0516542509982
 21
-118.4199999999999
 31
0.0
  0
LINE
  5
2AC
102
{ACAD_REACTORS
330
380
330
380
102
}
330
4F
100
AcDbEntity
  8
1
  6
Continuous
 62
     2
100
AcDbLine
 10
141.0516542509982
 20
-110.2199999999999
 30
0.0
 11
142.7516542509982
 21
-110.2199999999999
 31
0.0
  0
LINE
  5
2AD
102
{ACAD_REACTORS
330
37F
330
37F
102
}
330
4F
100
AcDbEntity
  8
1
  6
Continuous
 62
     2
100
AcDbLine
 10
160.6516542509982
 20
-119.4199999999999
 30
0.0
 11
160.1516542509982
 21
-119.4199999999999
 31
0.0
  0
LINE
  5
2AE
102
{ACAD_REACTORS
330
37F
330
37F
102
}
330
4F
100
AcDbEntity
  8
1
  6
Continuous
 62
     2
100
AcDbLine
 10
160.1516542509982
 20
-119.4199999999999
 30
0.0
 11
159.8046153744343
 21
-118.8199999999999
 31
0.0
  0
LINE
  5
2AF
102
{ACAD_REACTORS
330
37F
330
37F
102
}
330
4F
100
AcDbEntity
  8
1
  6
Continuous
 62
     2
100
AcDbLine
 10
159.4516542509982
 20
-113.3199999999999
 30
0.0
 11
159.4516542509982
 21
-111.9699999999999
 31
0.0
  0
LINE
  5
2B0
102
{ACAD_REACTORS
330
37F
330
37F
102
}
330
4F
100
AcDbEntity
  8
1
  6
Continuous
 62
     2
100
AcDbLine
 10
158.1516542509982
 20
-111.9699999999999
 30
0.0
 11
158.1516542509982
 21
-117.65758746051
 31
0.0
  0
LINE
  5
2B1
102
{ACAD_REACTORS
330
37F
330
37F
102
}
330
4F
100
AcDbEntity
  8
1
  6
Continuous
 62
     2
100
AcDbLine
 10
159.4516542509982
 20
-117.65758746051
 30
0.0
 11
159.4516542509982
 21
-115.9199999999999
 31
0.0
  0
LINE
  5
2B2
102
{ACAD_REACTORS
330
37E
330
37E
102
}
330
4F
100
AcDbEntity
  8
1
  6
Continuous
 62
     2
100
AcDbLine
 10
154.9516542509982
 20
-113.5699999999999
 30
0.0
 11
154.9516542509982
 21
-111.9699999999999
 31
0.0
  0
LINE
  5
2B3
102
{ACAD_REACTORS
330
37E
330
37E
102
}
330
4F
100
AcDbEntity
  8
1
  6
Continuous
 62
     2
100
AcDbLine
 10
154.9516542509982
 20
-116.0699999999999
 30
0.0
 11
154.9516542509982
 21
-119.4199999999999
 31
0.0
  0
LINE
  5
2B4
102
{ACAD_REACTORS
330
37E
330
37E
102
}
330
4F
100
AcDbEntity
  8
1
  6
Continuous
 62
     2
100
AcDbLine
 10
154.9516542509982
 20
-119.4199999999999
 30
0.0
 11
156.1516542509982
 21
-119.4199999999999
 31
0.0
  0
LINE
  5
2B5
102
{ACAD_REACTORS
330
37E
330
37E
102
}
330
4F
100
AcDbEntity
  8
1
  6
Continuous
 62
     2
100
AcDbLine
 10
153.6516542509982
 20
-119.4199999999999
 30
0.0
 11
152.4516542509982
 21
-119.4199999999999
 31
0.0
  0
LINE
  5
2B6
102
{ACAD_REACTORS
330
374
330
374
102
}
330
4F
100
AcDbEntity
  8
1
  6
Continuous
 62
     2
100
AcDbLine
 10
161.4516542509982
 20
-110.2199999999999
 30
0.0
 11
162.6516542509982
 21
-110.2199999999999
 31
0.0
  0
LINE
  5
2B7
102
{ACAD_REACTORS
330
375
330
375
102
}
330
4F
100
AcDbEntity
  8
1
  6
Continuous
 62
     2
100
AcDbLine
 10
163.4516542509982
 20
-110.2199999999999
 30
0.0
 11
164.6516542509982
 21
-110.2199999999999
 31
0.0
  0
LINE
  5
2B8
102
{ACAD_REACTORS
330
374
330
374
102
}
330
4F
100
AcDbEntity
  8
1
  6
Continuous
 62
     2
100
AcDbLine
 10
161.4516542509982
 20
-119.4199999999999
 30
0.0
 11
162.6516542509982
 21
-119.4199999999999
 31
0.0
  0
LINE
  5
2B9
102
{ACAD_REACTORS
330
375
330
375
102
}
330
4F
100
AcDbEntity
  8
1
  6
Continuous
 62
     2
100
AcDbLine
 10
164.6516542509982
 20
-119.4199999999999
 30
0.0
 11
164.6516542509982
 21
-110.2199999999999
 31
0.0
  0
LINE
  5
2BA
102
{ACAD_REACTORS
330
375
330
375
102
}
330
4F
100
AcDbEntity
  8
1
  6
Continuous
 62
     2
100
AcDbLine
 10
163.4516542509982
 20
-110.2199999999999
 30
0.0
 11
163.4516542509982
 21
-119.4199999999999
 31
0.0
  0
LINE
  5
2BB
102
{ACAD_REACTORS
330
374
330
374
102
}
330
4F
100
AcDbEntity
  8
1
  6
Continuous
 62
     2
100
AcDbLine
 10
162.6516542509982
 20
-119.4199999999999
 30
0.0
 11
162.6516542509982
 21
-110.2199999999999
 31
0.0
  0
LINE
  5
2BC
102
{ACAD_REACTORS
330
374
330
374
102
}
330
4F
100
AcDbEntity
  8
1
  6
Continuous
 62
     2
100
AcDbLine
 10
161.4516542509982
 20
-110.2199999999999
 30
0.0
 11
161.4516542509982
 21
-119.4199999999999
 31
0.0
  0
LINE
  5
2BD
102
{ACAD_REACTORS
330
37F
330
37F
102
}
330
4F
100
AcDbEntity
  8
1
  6
Continuous
 62
     2
100
AcDbLine
 10
158.9016542509982
 20
-114.7199999999999
 30
0.0
 11
159.7415058473918
 21
-114.7199999999999
 31
0.0
  0
LINE
  5
2BE
102
{ACAD_REACTORS
330
37F
330
37F
102
}
330
4F
100
AcDbEntity
  8
1
  6
Continuous
 62
     2
100
AcDbLine
 10
158.9016542509982
 20
-114.7199999999999
 30
0.0
 11
158.9016542509982
 21
-115.9199999999999
 31
0.0
  0
LINE
  5
2BF
102
{ACAD_REACTORS
330
37F
330
37F
102
}
330
4F
100
AcDbEntity
  8
1
  6
Continuous
 62
     2
100
AcDbLine
 10
158.9016542509982
 20
-115.9199999999999
 30
0.0
 11
159.4516542509982
 21
-115.9199999999999
 31
0.0
  0
LINE
  5
2C0
102
{ACAD_REACTORS
330
375
330
375
102
}
330
4F
100
AcDbEntity
  8
1
  6
Continuous
 62
     2
100
AcDbLine
 10
163.4516542509982
 20
-119.4199999999999
 30
0.0
 11
164.6516542509982
 21
-119.4199999999999
 31
0.0
  0
LINE
  5
2C1
102
{ACAD_REACTORS
330
376
330
376
102
}
330
4F
100
AcDbEntity
  8
1
  6
Continuous
 62
     2
100
AcDbLine
 10
145.8516542509982
 20
-111.3199999999999
 30
0.0
 11
147.1516542509982
 21
-111.3199999999999
 31
0.0
  0
LINE
  5
2C2
102
{ACAD_REACTORS
330
376
330
376
102
}
330
4F
100
AcDbEntity
  8
1
  6
Continuous
 62
     2
100
AcDbLine
 10
147.1516542509982
 20
-111.3199999999999
 30
0.0
 11
147.1516542509982
 21
-110.2199999999999
 31
0.0
  0
LINE
  5
2C3
102
{ACAD_REACTORS
330
379
330
379
102
}
330
4F
100
AcDbEntity
  8
1
  6
Continuous
 62
     2
100
AcDbLine
 10
150.4516542509982
 20
-111.9699999999999
 30
0.0
 11
150.4516542509982
 21
-117.65758746051
 31
0.0
  0
LINE
  5
2C4
102
{ACAD_REACTORS
330
379
330
379
102
}
330
4F
100
AcDbEntity
  8
1
  6
Continuous
 62
     2
100
AcDbLine
 10
149.1516542509982
 20
-111.9699999999999
 30
0.0
 11
149.1516542509982
 21
-117.65758746051
 31
0.0
  0
LINE
  5
2C5
102
{ACAD_REACTORS
330
380
330
380
102
}
330
4F
100
AcDbEntity
  8
1
  6
Continuous
 62
     2
100
AcDbLine
 10
142.5516542509982
 20
-117.65758746051
 30
0.0
 11
142.5516542509982
 21
-115.9199999999999
 31
0.0
  0
LINE
  5
2C6
102
{ACAD_REACTORS
330
380
330
380
102
}
330
4F
100
AcDbEntity
  8
1
  6
Continuous
 62
     2
100
AcDbLine
 10
141.2516542509982
 20
-117.65758746051
 30
0.0
 11
141.2516542509982
 21
-111.9699999999999
 31
0.0
  0
LINE
  5
2C7
102
{ACAD_REACTORS
330
380
330
380
102
}
330
4F
100
AcDbEntity
  8
1
  6
Continuous
 62
     2
100
AcDbLine
 10
142.5516542509982
 20
-111.9699999999999
 30
0.0
 11
142.5516542509982
 21
-113.3199999999999
 31
0.0
  0
LINE
  5
2C8
102
{ACAD_REACTORS
330
380
330
380
102
}
330
4F
100
AcDbEntity
  8
1
  6
Continuous
 62
     2
100
AcDbLine
 10
142.5516542509982
 20
-113.3199999999999
 30
0.0
 11
143.7516542509982
 21
-113.3199999999999
 31
0.0
  0
LINE
  5
2C9
102
{ACAD_REACTORS
330
37E
330
37E
102
}
330
4F
100
AcDbEntity
  8
1
  6
Continuous
 62
     2
100
AcDbLine
 10
153.6516542509982
 20
-111.3199999999999
 30
0.0
 11
154.3016542509982
 21
-111.3199999999999
 31
0.0
  0
LINE
  5
2CA
102
{ACAD_REACTORS
330
37E
330
37E
102
}
330
4F
100
AcDbEntity
  8
1
  6
Continuous
 62
     2
100
AcDbLine
 10
153.6516542509982
 20
-111.3199999999999
 30
0.0
 11
153.6516542509982
 21
-114.2199999999999
 31
0.0
  0
LINE
  5
2CB
102
{ACAD_REACTORS
330
37E
330
37E
102
}
330
4F
100
AcDbEntity
  8
1
  6
Continuous
 62
     2
100
AcDbLine
 10
153.6516542509982
 20
-114.2199999999999
 30
0.0
 11
154.3016542509982
 21
-114.2199999999999
 31
0.0
  0
LINE
  5
2CC
102
{ACAD_REACTORS
330
37E
330
37E
102
}
330
4F
100
AcDbEntity
  8
1
  6
Continuous
 62
     2
100
AcDbLine
 10
154.3016542509982
 20
-115.4199999999999
 30
0.0
 11
153.6516542509982
 21
-115.4199999999999
 31
0.0
  0
LINE
  5
2CD
102
{ACAD_REACTORS
330
37E
330
37E
102
}
330
4F
100
AcDbEntity
  8
1
  6
Continuous
 62
     2
100
AcDbLine
 10
153.6516542509982
 20
-115.4199999999999
 30
0.0
 11
153.6516542509982
 21
-119.4199999999999
 31
0.0
  0
LINE
  5
2CE
330
4F
100
AcDbEntity
  8
1
  6
Continuous
 62
     2
100
AcDbLine
 10
158.9016542509982
 20
-114.7199999999999
 30
0.0
 11
159.7415058473918
 21
-114.7199999999999
 31
0.0
  0
LINE
  5
2CF
102
{ACAD_REACTORS
330
37F
330
37F
102
}
330
4F
100
AcDbEntity
  8
1
  6
Continuous
 62
     2
100
AcDbLine
 10
159.7415058473918
 20
-114.7199999999999
 30
0.0
 11
160.6516542509982
 21
-114.7199999999999
 31
0.0
  0
LINE
  5
2D0
102
{ACAD_REACTORS
330
37C
330
37C
102
}
330
4F
100
AcDbEntity
  8
1
  6
Continuous
 62
     2
100
AcDbLine
 10
175.6516542509982
 20
-111.9699999999999
 30
0.0
 11
175.6516542509982
 21
-117.65758746051
 31
0.0
  0
LINE
  5
2D1
102
{ACAD_REACTORS
330
37C
330
37C
102
}
330
4F
100
AcDbEntity
  8
1
  6
Continuous
 62
     2
100
AcDbLine
 10
174.3516542509982
 20
-117.65758746051
 30
0.0
 11
174.3516542509982
 21
-111.9699999999999
 31
0.0
  0
LINE
  5
2D2
102
{ACAD_REACTORS
330
37B
330
37B
102
}
330
4F
100
AcDbEntity
  8
1
  6
Continuous
 62
     2
100
AcDbLine
 10
178.8516542509982
 20
-111.3199999999999
 30
0.0
 11
179.5016542509982
 21
-111.3199999999999
 31
0.0
  0
LINE
  5
2D3
102
{ACAD_REACTORS
330
37B
330
37B
102
}
330
4F
100
AcDbEntity
  8
1
  6
Continuous
 62
     2
100
AcDbLine
 10
180.1516542509982
 20
-111.9699999999999
 30
0.0
 11
180.1516542509982
 21
-113.2699999999999
 31
0.0
  0
LINE
  5
2D4
102
{ACAD_REACTORS
330
37B
330
37B
102
}
330
4F
100
AcDbEntity
  8
1
  6
Continuous
 62
     2
100
AcDbLine
 10
179.5016542509982
 20
-113.9199999999999
 30
0.0
 11
178.8516542509982
 21
-113.9199999999999
 31
0.0
  0
LINE
  5
2D5
102
{ACAD_REACTORS
330
37B
330
37B
102
}
330
4F
100
AcDbEntity
  8
1
  6
Continuous
 62
     2
100
AcDbLine
 10
178.8516542509982
 20
-115.0199999999999
 30
0.0
 11
178.8516542509982
 21
-118.30758746051
 31
0.0
  0
LINE
  5
2D6
102
{ACAD_REACTORS
330
37B
330
37B
102
}
330
4F
100
AcDbEntity
  8
1
  6
Continuous
 62
     2
100
AcDbLine
 10
178.8516542509982
 20
-118.30758746051
 30
0.0
 11
179.5016542509982
 21
-118.30758746051
 31
0.0
  0
LINE
  5
2D7
102
{ACAD_REACTORS
330
37B
330
37B
102
}
330
4F
100
AcDbEntity
  8
1
  6
Continuous
 62
     2
100
AcDbLine
 10
180.1516542509982
 20
-117.65758746051
 30
0.0
 11
180.1516542509982
 21
-115.6699999999999
 31
0.0
  0
LINE
  5
2D8
102
{ACAD_REACTORS
330
37B
330
37B
102
}
330
4F
100
AcDbEntity
  8
1
  6
Continuous
 62
     2
100
AcDbLine
 10
178.8516542509982
 20
-111.3199999999999
 30
0.0
 11
178.8516542509982
 21
-113.9199999999999
 31
0.0
  0
LINE
  5
2D9
102
{ACAD_REACTORS
330
37B
330
37B
102
}
330
4F
100
AcDbEntity
  8
1
  6
Continuous
 62
     2
100
AcDbLine
 10
178.8516542509982
 20
-115.0199999999999
 30
0.0
 11
179.5016542509982
 21
-115.0199999999999
 31
0.0
  0
LINE
  5
2DA
102
{ACAD_REACTORS
330
37A
330
37A
102
}
330
4F
100
AcDbEntity
  8
1
  6
Continuous
 62
     2
100
AcDbLine
 10
184.6516542509982
 20
-111.9699999999999
 30
0.0
 11
184.6516542509982
 21
-117.65758746051
 31
0.0
  0
LINE
  5
2DB
102
{ACAD_REACTORS
330
37A
330
37A
102
}
330
4F
100
AcDbEntity
  8
1
  6
Continuous
 62
     2
100
AcDbLine
 10
183.3516542509982
 20
-117.65758746051
 30
0.0
 11
183.3516542509982
 21
-111.9699999999999
 31
0.0
  0
LINE
  5
2DC
102
{ACAD_REACTORS
330
37D
330
37D
102
}
330
4F
100
AcDbEntity
  8
1
  6
Continuous
 62
     2
100
AcDbLine
 10
192.5516542509982
 20
-111.9699999999999
 30
0.0
 11
192.5516542509982
 21
-117.65758746051
 31
0.0
  0
LINE
  5
2DD
102
{ACAD_REACTORS
330
37D
330
37D
102
}
330
4F
100
AcDbEntity
  8
1
  6
Continuous
 62
     2
100
AcDbLine
 10
191.9016542509982
 20
-118.30758746051
 30
0.0
 11
191.2516542509982
 21
-118.30758746051
 31
0.0
  0
LINE
  5
2DE
102
{ACAD_REACTORS
330
37D
330
37D
102
}
330
4F
100
AcDbEntity
  8
1
  6
Continuous
 62
     2
100
AcDbLine
 10
191.2516542509982
 20
-118.30758746051
 30
0.0
 11
191.2516542509982
 21
-111.9699999999999
 31
0.0
  0
LINE
  5
2DF
102
{ACAD_REACTORS
330
377
330
377
102
}
330
4F
100
AcDbEntity
  8
1
  6
Continuous
 62
     2
100
AcDbLine
 10
187.8516542509982
 20
-110.2199999999999
 30
0.0
 11
187.8516542509982
 21
-118.30758746051
 31
0.0
  0
LINE
  5
2E0
102
{ACAD_REACTORS
330
377
330
377
102
}
330
4F
100
AcDbEntity
  8
1
  6
Continuous
 62
     2
100
AcDbLine
 10
187.8516542509982
 20
-118.30758746051
 30
0.0
 11
189.2516542509982
 21
-118.30758746051
 31
0.0
  0
LINE
  5
2E1
102
{ACAD_REACTORS
330
37D
330
37D
102
}
330
4F
100
AcDbEntity
  8
1
  6
Continuous
 62
     2
100
AcDbLine
 10
191.2516542509982
 20
-111.3199999999999
 30
0.0
 11
191.9016542509982
 21
-111.3199999999999
 31
0.0
  0
LINE
  5
2E2
102
{ACAD_REACTORS
330
37D
330
37D
102
}
330
4F
100
AcDbEntity
  8
1
  6
Continuous
 62
     2
100
AcDbLine
 10
191.2516542509982
 20
-111.3199999999999
 30
0.0
 11
191.2516542509982
 21
-111.9699999999999
 31
0.0
  0
LINE
  5
2E3
102
{ACAD_REACTORS
330
37B
330
37B
102
}
330
4F
100
AcDbEntity
  8
1
  6
Continuous
 62
     2
100
AcDbLine
 10
181.3516542509982
 20
-113.8199999999999
 30
0.0
 11
181.3516542509982
 21
-111.2199999999999
 31
0.0
  0
LINE
  5
2E4
102
{ACAD_REACTORS
330
37B
330
37B
102
}
330
4F
100
AcDbEntity
  8
1
  6
Continuous
 62
     2
100
AcDbLine
 10
181.3516542509982
 20
-115.1199999999999
 30
0.0
 11
181.3516542509982
 21
-118.4199999999999
 31
0.0
  0
LINE
  5
2E5
102
{ACAD_REACTORS
330
378
330
378
102
}
330
4F
100
AcDbEntity
  8
1
  6
Continuous
 62
     2
100
AcDbLine
 10
172.3516542509982
 20
-110.2199999999999
 30
0.0
 11
170.9200628688759
 21
-114.4699999999999
 31
0.0
  0
LINE
  5
2E6
102
{ACAD_REACTORS
330
378
330
378
102
}
330
4F
100
AcDbEntity
  8
1
  6
Continuous
 62
     2
100
AcDbLine
 10
170.9200628688759
 20
-114.4699999999999
 30
0.0
 11
172.3516542509982
 21
-119.4199999999999
 31
0.0
  0
LINE
  5
2E7
102
{ACAD_REACTORS
330
378
330
378
102
}
330
4F
100
AcDbEntity
  8
1
  6
Continuous
 62
     2
100
AcDbLine
 10
171.0854042804337
 20
-110.2199999999999
 30
0.0
 11
172.3516542509982
 21
-110.2199999999999
 31
0.0
  0
LINE
  5
2E8
102
{ACAD_REACTORS
330
378
330
378
102
}
330
4F
100
AcDbEntity
  8
1
  6
Continuous
 62
     2
100
AcDbLine
 10
171.1024763583806
 20
-119.4199999999999
 30
0.0
 11
172.3516542509982
 21
-119.4199999999999
 31
0.0
  0
LINE
  5
2E9
102
{ACAD_REACTORS
330
378
330
378
102
}
330
4F
100
AcDbEntity
  8
1
  6
Continuous
 62
     2
100
AcDbLine
 10
171.0854042804337
 20
-110.2199999999999
 30
0.0
 11
169.8516542509982
 21
-113.8826635858394
 31
0.0
  0
LINE
  5
2EA
102
{ACAD_REACTORS
330
378
330
378
102
}
330
4F
100
AcDbEntity
  8
1
  6
Continuous
 62
     2
100
AcDbLine
 10
169.8516542509982
 20
-115.0950442138285
 30
0.0
 11
171.1024763583806
 21
-119.4199999999999
 31
0.0
  0
LINE
  5
2EB
102
{ACAD_REACTORS
330
378
330
378
102
}
330
4F
100
AcDbEntity
  8
1
  6
Continuous
 62
     2
100
AcDbLine
 10
169.8516542509982
 20
-110.2199999999999
 30
0.0
 11
169.8516542509982
 21
-113.8826635858394
 31
0.0
  0
LINE
  5
2EC
102
{ACAD_REACTORS
330
378
330
378
102
}
330
4F
100
AcDbEntity
  8
1
  6
Continuous
 62
     2
100
AcDbLine
 10
169.8516542509982
 20
-115.0950442138285
 30
0.0
 11
169.8516542509982
 21
-119.4199999999999
 31
0.0
  0
LINE
  5
2ED
102
{ACAD_REACTORS
330
37C
330
37C
102
}
330
4F
100
AcDbEntity
  8
1
  6
Continuous
 62
     2
100
AcDbLine
 10
173.1516542509982
 20
-118.4199999999999
 30
0.0
 11
173.1516542509982
 21
-111.2199999999999
 31
0.0
  0
LINE
  5
2EE
330
4F
100
AcDbEntity
  8
1
  6
Continuous
 62
     2
100
AcDbLine
 10
55.13999999999851
 20
-108.6599999999999
 30
0.0
 11
55.13999999999851
 21
-125.5799999999999
 31
0.0
  0
LINE
  5
2EF
330
4F
100
AcDbEntity
  8
1
  6
Continuous
 62
     7
100
AcDbLine
 10
102.1300000000001
 20
-87.51000000000022
 30
0.0
 11
102.1300000000001
 21
-108.6599999999999
 31
0.0
  0
LINE
  5
2F0
330
4F
100
AcDbEntity
  8
1
  6
Continuous
 62
     2
100
AcDbLine
 10
67.83999999999912
 20
-87.51000000000022
 30
0.0
 11
67.83999999999912
 21
-108.6599999999999
 31
0.0
  0
LINE
  5
2F1
330
4F
100
AcDbEntity
  8
1
  6
Continuous
 62
     2
100
AcDbLine
 10
60.21999999999832
 20
-87.51000000000022
 30
0.0
 11
60.21999999999832
 21
-108.6599999999999
 31
0.0
  0
LINE
  5
2F2
330
4F
100
AcDbEntity
  8
1
  6
Continuous
 62
     7
100
AcDbLine
 10
22.11999999999898
 20
-108.6599999999999
 30
0.0
 11
205.0
 21
-108.6599999999999
 31
0.0
  0
LINE
  5
2F3
330
4F
100
AcDbEntity
  8
1
  6
Continuous
 62
     2
100
AcDbLine
 10
42.43999999999869
 20
-87.51000000000022
 30
0.0
 11
42.43999999999869
 21
-108.6599999999999
 31
0.0
  0
LINE
  5
2F4
330
4F
100
AcDbEntity
  8
1
  6
Continuous
 62
     2
100
AcDbLine
 10
27.19999999999891
 20
-87.51000000000022
 30
0.0
 11
27.19999999999891
 21
-108.6599999999999
 31
0.0
  0
LINE
  5
2F5
330
4F
100
AcDbEntity
  8
1
  6
Continuous
 62
     2
100
AcDbLine
 10
75.45999999999992
 20
-117.1200000000008
 30
0.0
 11
22.11999999999898
 21
-117.1200000000008
 31
0.0
  0
LINE
  5
2F6
330
4F
100
AcDbEntity
  8
1
  6
Continuous
 62
     7
100
AcDbLine
 10
75.45999999999992
 20
-108.6599999999999
 30
0.0
 11
75.45999999999992
 21
-125.5799999999999
 31
0.0
  0
LINE
  5
2F7
330
4F
100
AcDbEntity
  8
1
  6
Continuous
 62
     7
100
AcDbLine
 10
75.45999999999992
 20
-87.51000000000022
 30
0.0
 11
75.45999999999992
 21
-108.6599999999999
 31
0.0
  0
LINE
  5
2F8
330
4F
100
AcDbEntity
  8
1
  6
Continuous
 62
     7
100
AcDbLine
 10
22.11999999999898
 20
-87.51000000000022
 30
0.0
 11
205.0
 21
-87.51000000000022
 31
0.0
  0
LINE
  5
2F9
330
4F
100
AcDbEntity
  8
1
  6
Continuous
 62
     2
100
AcDbLine
 10
22.11999999999898
 20
-121.3500000000004
 30
0.0
 11
75.45999999999992
 21
-121.3500000000004
 31
0.0
  0
LINE
  5
2FA
330
4F
100
AcDbEntity
  8
1
  6
Continuous
 62
     2
100
AcDbLine
 10
22.11999999999898
 20
-112.8899999999994
 30
0.0
 11
75.45999999999992
 21
-112.8899999999994
 31
0.0
  0
LINE
  5
2FB
330
4F
100
AcDbEntity
  8
1
  6
Continuous
 62
     2
100
AcDbLine
 10
37.35999999999888
 20
-108.6599999999999
 30
0.0
 11
37.35999999999888
 21
-125.5799999999999
 31
0.0
  0
LINE
  5
2FC
330
4F
100
AcDbEntity
  8
1
  6
Continuous
 62
     2
100
AcDbLine
 10
22.11999999999898
 20
-104.4300000000003
 30
0.0
 11
75.45999999999992
 21
-104.4300000000003
 31
0.0
  0
LINE
  5
2FD
330
4F
100
AcDbEntity
  8
1
  6
Continuous
 62
     2
100
AcDbLine
 10
22.11999999999898
 20
-95.97000000000116
 30
0.0
 11
75.45999999999992
 21
-95.97000000000116
 31
0.0
  0
LINE
  5
2FE
330
4F
100
AcDbEntity
  8
1
  6
Continuous
 62
     2
100
AcDbLine
 10
22.11999999999898
 20
-91.73999999999978
 30
0.0
 11
75.45999999999992
 21
-91.73999999999978
 31
0.0
  0
LINE
  5
2FF
330
4F
100
AcDbEntity
  8
1
  6
Continuous
 62
     7
100
AcDbLine
 10
192.3000000000002
 20
-125.5799999999999
 30
0.0
 11
192.3000000000002
 21
-138.2700000000004
 31
0.0
  0
LINE
  5
300
330
4F
100
AcDbEntity
  8
1
  6
Continuous
 62
     7
100
AcDbLine
 10
192.3000000000002
 20
-134.0400000000009
 30
0.0
 11
205.0
 21
-134.0400000000009
 31
0.0
  0
LINE
  5
301
330
4F
100
AcDbEntity
  8
1
  6
Continuous
 62
     7
100
AcDbLine
 10
128.8000000000002
 20
-138.2700000000004
 30
0.0
 11
205.0
 21
-138.2700000000004
 31
0.0
  0
LINE
  5
302
330
4F
100
AcDbEntity
  8
1
  6
Continuous
 62
     7
100
AcDbLine
 10
166.8999999999996
 20
-87.51000000000022
 30
0.0
 11
166.8999999999996
 21
-91.73999999999978
 31
0.0
  0
LINE
  5
303
330
4F
100
AcDbEntity
  8
1
  6
Continuous
 62
     7
100
AcDbLine
 10
128.8000000000002
 20
-91.73999999999978
 30
0.0
 11
205.0
 21
-91.73999999999978
 31
0.0
  0
LINE
  5
304
330
4F
100
AcDbEntity
  8
1
  6
Continuous
 62
     7
100
AcDbLine
 10
128.8000000000002
 20
-87.51000000000022
 30
0.0
 11
128.8000000000002
 21
-142.5
 31
0.0
  0
LINE
  5
305
330
4F
100
AcDbEntity
  8
1
  6
Continuous
 62
     7
100
AcDbLine
 10
37.35999999999888
 20
-125.5799999999999
 30
0.0
 11
37.35999999999888
 21
-142.5
 31
0.0
  0
LINE
  5
306
330
4F
100
AcDbEntity
  8
1
  6
Continuous
 62
     7
100
AcDbLine
 10
205.0
 20
-125.5799999999999
 30
0.0
 11
22.11999999999898
 21
-125.5799999999999
 31
0.0
  0
LINE
  5
307
330
4F
100
AcDbEntity
  8
1
  6
Continuous
 62
     2
100
AcDbLine
 10
75.45999999999992
 20
-100.2000000000007
 30
0.0
 11
22.11999999999898
 21
-100.2000000000007
 31
0.0
  0
LINE
  5
308
330
4F
100
AcDbEntity
  8
1
  6
Continuous
 62
     7
100
AcDbLine
 10
22.11999999999898
 20
-142.5
 30
0.0
 11
22.11999999999898
 21
-87.51000000000022
 31
0.0
  0
LINE
  5
309
330
4F
100
AcDbEntity
  8
1
  6
Continuous
 62
     7
100
AcDbLine
 10
-187.880000000001
 20
-142.5
 30
0.0
 11
205.0
 21
-142.5
 31
0.0
  0
LINE
  5
30A
330
4F
100
AcDbEntity
  8
1
  6
Continuous
 62
     7
100
AcDbLine
 10
205.0
 20
-142.5
 30
0.0
 11
205.0
 21
142.0
 31
0.0
  0
LINE
  5
30B
330
4F
100
AcDbEntity
  8
1
  6
Continuous
 62
     7
100
AcDbLine
 10
205.0
 20
142.0
 30
0.0
 11
-187.880000000001
 21
142.0
 31
0.0
  0
LINE
  5
30C
330
4F
100
AcDbEntity
  8
1
  6
Continuous
 62
     7
100
AcDbLine
 10
-187.880000000001
 20
142.0
 30
0.0
 11
-187.880000000001
 21
-142.5
 31
0.0
  0
LINE
  5
30D
330
4F
100
AcDbEntity
  8
0
  6
Continuous
 62
     2
100
AcDbLine
 10
-198.880000000001
 20
0.00000000000001
 30
0.0
 11
-187.880000000001
 21
0.00000000000001
 31
0.0
  0
ARC
  5
30E
102
{ACAD_REACTORS
330
380
330
380
102
}
330
4F
100
AcDbEntity
  8
1
  6
Continuous
 62
     2
100
AcDbCircle
 10
141.9264261003899
 20
-118.3227040643326
 30
0.0
 40
1.097575516743276
100
AcDbArc
 50
-91.2932531058712
 51
-26.94184191294435
  0
ARC
  5
30F
102
{ACAD_REACTORS
330
37E
330
37E
102
}
330
4F
100
AcDbEntity
  8
1
  6
Continuous
 62
     2
100
AcDbCircle
 10
155.3000342667233
 20
-113.9710002560295
 30
0.0
 40
0.8522732028340286
100
AcDbArc
 50
-84.9766809757147
 51
-2.24339224114474
  0
ARC
  5
310
102
{ACAD_REACTORS
330
37E
330
37E
102
}
330
4F
100
AcDbEntity
  8
1
  6
Continuous
 62
     2
100
AcDbCircle
 10
155.3161055621215
 20
-115.6535223168009
 30
0.0
 40
0.8355765145285912
100
AcDbArc
 50
-0.46759342609272
 51
85.98158622994607
  0
ARC
  5
311
102
{ACAD_REACTORS
330
37F
330
37F
102
}
330
4F
100
AcDbEntity
  8
1
  6
Continuous
 62
     2
100
AcDbCircle
 10
158.8327793484388
 20
-118.3331447179281
 30
0.0
 40
1.086965191302833
100
AcDbArc
 50
-90.8147991292736
 51
-26.60924039545096
  0
ARC
  5
312
102
{ACAD_REACTORS
330
37B
330
37B
102
}
330
4F
100
AcDbEntity
  8
1
  6
Continuous
 62
     2
100
AcDbCircle
 10
180.7016542509982
 20
-113.8199999999999
 30
0.0
 40
0.6500000000000057
100
AcDbArc
 50
-90.0
 51
0.0
  0
ARC
  5
313
102
{ACAD_REACTORS
330
37B
330
37B
102
}
330
4F
100
AcDbEntity
  8
1
  6
Continuous
 62
     2
100
AcDbCircle
 10
180.7016542509982
 20
-115.1199999999999
 30
0.0
 40
0.6500000000000057
100
AcDbArc
 50
0.0
 51
90.0
  0
ARC
  5
314
102
{ACAD_REACTORS
330
380
330
380
102
}
330
4F
100
AcDbEntity
  8
1
  6
Continuous
 62
     2
100
AcDbCircle
 10
142.7516542509982
 20
-111.2199999999999
 30
0.0
 40
1.0
100
AcDbArc
 50
0.0
 51
90.0
  0
ARC
  5
315
102
{ACAD_REACTORS
330
380
330
380
102
}
330
4F
100
AcDbEntity
  8
1
  6
Continuous
 62
     2
100
AcDbCircle
 10
141.0516542509982
 20
-118.4199999999999
 30
0.0
 40
1.0
100
AcDbArc
 50
180.0
 51
-90.0
  0
ARC
  5
316
102
{ACAD_REACTORS
330
379
330
379
102
}
330
4F
100
AcDbEntity
  8
1
  6
Continuous
 62
     2
100
AcDbCircle
 10
148.9516542509982
 20
-111.2199999999999
 30
0.0
 40
1.0
100
AcDbArc
 50
90.0
 51
180.0
  0
ARC
  5
317
102
{ACAD_REACTORS
330
379
330
379
102
}
330
4F
100
AcDbEntity
  8
1
  6
Continuous
 62
     2
100
AcDbCircle
 10
150.6516542509982
 20
-111.2199999999999
 30
0.0
 40
1.0
100
AcDbArc
 50
0.0
 51
90.0
  0
ARC
  5
318
102
{ACAD_REACTORS
330
379
330
379
102
}
330
4F
100
AcDbEntity
  8
1
  6
Continuous
 62
     2
100
AcDbCircle
 10
148.9516542509982
 20
-118.4199999999999
 30
0.0
 40
1.0
100
AcDbArc
 50
180.0
 51
-90.0
  0
ARC
  5
319
102
{ACAD_REACTORS
330
379
330
379
102
}
330
4F
100
AcDbEntity
  8
1
  6
Continuous
 62
     2
100
AcDbCircle
 10
150.6516542509982
 20
-118.4199999999999
 30
0.0
 40
1.0
100
AcDbArc
 50
-90.0
 51
0.0
  0
ARC
  5
31A
102
{ACAD_REACTORS
330
37E
330
37E
102
}
330
4F
100
AcDbEntity
  8
1
  6
Continuous
 62
     2
100
AcDbCircle
 10
155.1516542509982
 20
-111.2199999999999
 30
0.0
 40
1.0
100
AcDbArc
 50
0.0
 51
90.0
  0
ARC
  5
31B
102
{ACAD_REACTORS
330
37F
330
37F
102
}
330
4F
100
AcDbEntity
  8
1
  6
Continuous
 62
     2
100
AcDbCircle
 10
157.9516542509982
 20
-111.2199999999999
 30
0.0
 40
1.0
100
AcDbArc
 50
90.0
 51
180.0
  0
ARC
  5
31C
102
{ACAD_REACTORS
330
37F
330
37F
102
}
330
4F
100
AcDbEntity
  8
1
  6
Continuous
 62
     2
100
AcDbCircle
 10
159.6516542509982
 20
-111.2199999999999
 30
0.0
 40
1.000000000000085
100
AcDbArc
 50
0.0
 51
90.0
  0
ARC
  5
31D
102
{ACAD_REACTORS
330
37C
330
37C
102
}
330
4F
100
AcDbEntity
  8
1
  6
Continuous
 62
     2
100
AcDbCircle
 10
174.1516542509982
 20
-111.2199999999999
 30
0.0
 40
1.0
100
AcDbArc
 50
90.0
 51
180.0
  0
ARC
  5
31E
102
{ACAD_REACTORS
330
37C
330
37C
102
}
330
4F
100
AcDbEntity
  8
1
  6
Continuous
 62
     2
100
AcDbCircle
 10
175.8516542509982
 20
-111.2199999999999
 30
0.0
 40
1.0
100
AcDbArc
 50
0.0
 51
90.0
  0
ARC
  5
31F
102
{ACAD_REACTORS
330
37B
330
37B
102
}
330
4F
100
AcDbEntity
  8
1
  6
Continuous
 62
     2
100
AcDbCircle
 10
180.3516542509982
 20
-111.2199999999999
 30
0.0
 40
1.0
100
AcDbArc
 50
0.0
 51
90.0
  0
ARC
  5
320
102
{ACAD_REACTORS
330
37A
330
37A
102
}
330
4F
100
AcDbEntity
  8
1
  6
Continuous
 62
     2
100
AcDbCircle
 10
184.8516542509982
 20
-111.2199999999999
 30
0.0
 40
1.0
100
AcDbArc
 50
0.0
 51
90.0
  0
ARC
  5
321
102
{ACAD_REACTORS
330
37A
330
37A
102
}
330
4F
100
AcDbEntity
  8
1
  6
Continuous
 62
     2
100
AcDbCircle
 10
183.1516542509982
 20
-111.2199999999999
 30
0.0
 40
1.0
100
AcDbArc
 50
90.0
 51
180.0
  0
ARC
  5
322
102
{ACAD_REACTORS
330
37D
330
37D
102
}
330
4F
100
AcDbEntity
  8
1
  6
Continuous
 62
     2
100
AcDbCircle
 10
192.7516542509982
 20
-111.2199999999999
 30
0.0
 40
1.0
100
AcDbArc
 50
0.0
 51
90.0
  0
ARC
  5
323
102
{ACAD_REACTORS
330
37A
330
37A
102
}
330
4F
100
AcDbEntity
  8
1
  6
Continuous
 62
     2
100
AcDbCircle
 10
184.8516542509982
 20
-118.4199999999999
 30
0.0
 40
1.0
100
AcDbArc
 50
-90.0
 51
0.0
  0
ARC
  5
324
102
{ACAD_REACTORS
330
37A
330
37A
102
}
330
4F
100
AcDbEntity
  8
1
  6
Continuous
 62
     2
100
AcDbCircle
 10
183.1516542509982
 20
-118.4199999999999
 30
0.0
 40
1.0
100
AcDbArc
 50
180.0
 51
-90.0
  0
ARC
  5
325
102
{ACAD_REACTORS
330
37B
330
37B
102
}
330
4F
100
AcDbEntity
  8
1
  6
Continuous
 62
     2
100
AcDbCircle
 10
180.3516542509982
 20
-118.4199999999999
 30
0.0
 40
1.0
100
AcDbArc
 50
-90.0
 51
0.0
  0
ARC
  5
326
102
{ACAD_REACTORS
330
37C
330
37C
102
}
330
4F
100
AcDbEntity
  8
1
  6
Continuous
 62
     2
100
AcDbCircle
 10
175.8516542509982
 20
-118.4199999999999
 30
0.0
 40
1.0
100
AcDbArc
 50
-90.0
 51
0.0
  0
ARC
  5
327
102
{ACAD_REACTORS
330
37C
330
37C
102
}
330
4F
100
AcDbEntity
  8
1
  6
Continuous
 62
     2
100
AcDbCircle
 10
174.1516542509982
 20
-118.4199999999999
 30
0.0
 40
1.0
100
AcDbArc
 50
180.0
 51
-90.0
  0
ARC
  5
328
102
{ACAD_REACTORS
330
37D
330
37D
102
}
330
4F
100
AcDbEntity
  8
1
  6
Continuous
 62
     2
100
AcDbCircle
 10
192.7516542509982
 20
-118.4199999999999
 30
0.0
 40
1.0
100
AcDbArc
 50
-90.0
 51
0.0
  0
ARC
  5
329
102
{ACAD_REACTORS
330
37F
330
37F
102
}
330
4F
100
AcDbEntity
  8
1
  6
Continuous
 62
     2
100
AcDbCircle
 10
157.9516542509982
 20
-118.4199999999999
 30
0.0
 40
1.0
100
AcDbArc
 50
180.0
 51
-90.0
  0
ARC
  5
32A
102
{ACAD_REACTORS
330
380
330
380
102
}
330
4F
100
AcDbEntity
  8
1
  6
Continuous
 62
     2
100
AcDbCircle
 10
141.0516542509982
 20
-111.2199999999999
 30
0.0
 40
1.0
100
AcDbArc
 50
90.0
 51
180.0
  0
ARC
  5
32B
102
{ACAD_REACTORS
330
379
330
379
102
}
330
4F
100
AcDbEntity
  8
1
  6
Continuous
 62
     2
100
AcDbCircle
 10
149.8016542509982
 20
-111.9699999999999
 30
0.0
 40
0.6500000000000057
100
AcDbArc
 50
90.0
 51
180.0
  0
ARC
  5
32C
102
{ACAD_REACTORS
330
379
330
379
102
}
330
4F
100
AcDbEntity
  8
1
  6
Continuous
 62
     2
100
AcDbCircle
 10
149.8016542509982
 20
-111.9699999999999
 30
0.0
 40
0.6499999999999773
100
AcDbArc
 50
0.0
 51
90.0
  0
ARC
  5
32D
102
{ACAD_REACTORS
330
379
330
379
102
}
330
4F
100
AcDbEntity
  8
1
  6
Continuous
 62
     2
100
AcDbCircle
 10
149.8016542509982
 20
-117.65758746051
 30
0.0
 40
0.6500000000000057
100
AcDbArc
 50
180.0
 51
-90.0
  0
ARC
  5
32E
102
{ACAD_REACTORS
330
379
330
379
102
}
330
4F
100
AcDbEntity
  8
1
  6
Continuous
 62
     2
100
AcDbCircle
 10
149.8016542509982
 20
-117.65758746051
 30
0.0
 40
0.6500000000000057
100
AcDbArc
 50
-90.0
 51
0.0
  0
ARC
  5
32F
102
{ACAD_REACTORS
330
37E
330
37E
102
}
330
4F
100
AcDbEntity
  8
1
  6
Continuous
 62
     2
100
AcDbCircle
 10
154.3016542509982
 20
-111.9699999999999
 30
0.0
 40
0.6499999999999773
100
AcDbArc
 50
0.0
 51
90.0
  0
ARC
  5
330
102
{ACAD_REACTORS
330
37E
330
37E
102
}
330
4F
100
AcDbEntity
  8
1
  6
Continuous
 62
     2
100
AcDbCircle
 10
154.3016542509982
 20
-116.0699999999999
 30
0.0
 40
0.6499999999999773
100
AcDbArc
 50
0.0
 51
90.0
  0
ARC
  5
331
102
{ACAD_REACTORS
330
37E
330
37E
102
}
330
4F
100
AcDbEntity
  8
1
  6
Continuous
 62
     2
100
AcDbCircle
 10
154.3016542509982
 20
-113.5699999999999
 30
0.0
 40
0.6500000000000057
100
AcDbArc
 50
-90.0
 51
0.0
  0
ARC
  5
332
102
{ACAD_REACTORS
330
37F
330
37F
102
}
330
4F
100
AcDbEntity
  8
1
  6
Continuous
 62
     2
100
AcDbCircle
 10
158.8016542509982
 20
-111.9699999999999
 30
0.0
 40
0.6500000000000057
100
AcDbArc
 50
90.0
 51
180.0
  0
ARC
  5
333
102
{ACAD_REACTORS
330
37F
330
37F
102
}
330
4F
100
AcDbEntity
  8
1
  6
Continuous
 62
     2
100
AcDbCircle
 10
158.8016542509982
 20
-111.9699999999999
 30
0.0
 40
0.6499999999999773
100
AcDbArc
 50
0.0
 51
90.0
  0
ARC
  5
334
102
{ACAD_REACTORS
330
37F
330
37F
102
}
330
4F
100
AcDbEntity
  8
1
  6
Continuous
 62
     2
100
AcDbCircle
 10
158.8016542509982
 20
-117.65758746051
 30
0.0
 40
0.6500000000000057
100
AcDbArc
 50
180.0
 51
-90.0
  0
ARC
  5
335
102
{ACAD_REACTORS
330
37F
330
37F
102
}
330
4F
100
AcDbEntity
  8
1
  6
Continuous
 62
     2
100
AcDbCircle
 10
158.8016542509982
 20
-117.65758746051
 30
0.0
 40
0.6500000000000057
100
AcDbArc
 50
-90.0
 51
0.0
  0
ARC
  5
336
102
{ACAD_REACTORS
330
380
330
380
102
}
330
4F
100
AcDbEntity
  8
1
  6
Continuous
 62
     2
100
AcDbCircle
 10
141.9016542509982
 20
-111.9699999999999
 30
0.0
 40
0.6500000000000057
100
AcDbArc
 50
90.0
 51
180.0
  0
ARC
  5
337
102
{ACAD_REACTORS
330
380
330
380
102
}
330
4F
100
AcDbEntity
  8
1
  6
Continuous
 62
     2
100
AcDbCircle
 10
141.9016542509982
 20
-111.9699999999999
 30
0.0
 40
0.6500000000000057
100
AcDbArc
 50
0.0
 51
90.0
  0
ARC
  5
338
102
{ACAD_REACTORS
330
380
330
380
102
}
330
4F
100
AcDbEntity
  8
1
  6
Continuous
 62
     2
100
AcDbCircle
 10
141.9016542509982
 20
-117.65758746051
 30
0.0
 40
0.6500000000000057
100
AcDbArc
 50
180.0
 51
-90.0
  0
ARC
  5
339
102
{ACAD_REACTORS
330
380
330
380
102
}
330
4F
100
AcDbEntity
  8
1
  6
Continuous
 62
     2
100
AcDbCircle
 10
141.9016542509982
 20
-117.65758746051
 30
0.0
 40
0.6500000000000057
100
AcDbArc
 50
-90.0
 51
0.0
  0
ARC
  5
33A
102
{ACAD_REACTORS
330
37D
330
37D
102
}
330
4F
100
AcDbEntity
  8
1
  6
Continuous
 62
     2
100
AcDbCircle
 10
191.9016542509982
 20
-111.9699999999999
 30
0.0
 40
0.6500000000000057
100
AcDbArc
 50
0.0
 51
90.0
  0
ARC
  5
33B
102
{ACAD_REACTORS
330
37D
330
37D
102
}
330
4F
100
AcDbEntity
  8
1
  6
Continuous
 62
     2
100
AcDbCircle
 10
191.9016542509982
 20
-117.65758746051
 30
0.0
 40
0.6500000000000057
100
AcDbArc
 50
-90.0
 51
0.0
  0
ARC
  5
33C
102
{ACAD_REACTORS
330
37A
330
37A
102
}
330
4F
100
AcDbEntity
  8
1
  6
Continuous
 62
     2
100
AcDbCircle
 10
184.0016542509982
 20
-111.9699999999999
 30
0.0
 40
0.6500000000000057
100
AcDbArc
 50
0.0
 51
90.0
  0
ARC
  5
33D
102
{ACAD_REACTORS
330
37A
330
37A
102
}
330
4F
100
AcDbEntity
  8
1
  6
Continuous
 62
     2
100
AcDbCircle
 10
184.0016542509982
 20
-111.9699999999999
 30
0.0
 40
0.6500000000000057
100
AcDbArc
 50
90.0
 51
180.0
  0
ARC
  5
33E
102
{ACAD_REACTORS
330
37A
330
37A
102
}
330
4F
100
AcDbEntity
  8
1
  6
Continuous
 62
     2
100
AcDbCircle
 10
184.0016542509982
 20
-117.65758746051
 30
0.0
 40
0.6500000000000057
100
AcDbArc
 50
180.0
 51
-90.0
  0
ARC
  5
33F
102
{ACAD_REACTORS
330
37A
330
37A
102
}
330
4F
100
AcDbEntity
  8
1
  6
Continuous
 62
     2
100
AcDbCircle
 10
184.0016542509982
 20
-117.65758746051
 30
0.0
 40
0.6500000000000057
100
AcDbArc
 50
-90.0
 51
0.0
  0
ARC
  5
340
102
{ACAD_REACTORS
330
37C
330
37C
102
}
330
4F
100
AcDbEntity
  8
1
  6
Continuous
 62
     2
100
AcDbCircle
 10
175.0016542509982
 20
-111.9699999999999
 30
0.0
 40
0.6500000000000057
100
AcDbArc
 50
90.0
 51
180.0
  0
ARC
  5
341
102
{ACAD_REACTORS
330
37C
330
37C
102
}
330
4F
100
AcDbEntity
  8
1
  6
Continuous
 62
     2
100
AcDbCircle
 10
175.0016542509982
 20
-111.9699999999999
 30
0.0
 40
0.6500000000000057
100
AcDbArc
 50
0.0
 51
90.0
  0
ARC
  5
342
102
{ACAD_REACTORS
330
37C
330
37C
102
}
330
4F
100
AcDbEntity
  8
1
  6
Continuous
 62
     2
100
AcDbCircle
 10
175.0016542509982
 20
-117.65758746051
 30
0.0
 40
0.6500000000000057
100
AcDbArc
 50
180.0
 51
-90.0
  0
ARC
  5
343
102
{ACAD_REACTORS
330
37C
330
37C
102
}
330
4F
100
AcDbEntity
  8
1
  6
Continuous
 62
     2
100
AcDbCircle
 10
175.0016542509982
 20
-117.65758746051
 30
0.0
 40
0.6500000000000057
100
AcDbArc
 50
-90.0
 51
0.0
  0
ARC
  5
344
102
{ACAD_REACTORS
330
37B
330
37B
102
}
330
4F
100
AcDbEntity
  8
1
  6
Continuous
 62
     2
100
AcDbCircle
 10
179.5016542509982
 20
-111.9699999999999
 30
0.0
 40
0.6500000000000057
100
AcDbArc
 50
0.0
 51
90.0
  0
ARC
  5
345
102
{ACAD_REACTORS
330
37B
330
37B
102
}
330
4F
100
AcDbEntity
  8
1
  6
Continuous
 62
     2
100
AcDbCircle
 10
179.5016542509982
 20
-113.2699999999999
 30
0.0
 40
0.6500000000000057
100
AcDbArc
 50
-90.0
 51
0.0
  0
ARC
  5
346
102
{ACAD_REACTORS
330
37B
330
37B
102
}
330
4F
100
AcDbEntity
  8
1
  6
Continuous
 62
     2
100
AcDbCircle
 10
179.5016542509982
 20
-115.6699999999999
 30
0.0
 40
0.6500000000000057
100
AcDbArc
 50
0.0
 51
90.0
  0
ARC
  5
347
102
{ACAD_REACTORS
330
37B
330
37B
102
}
330
4F
100
AcDbEntity
  8
1
  6
Continuous
 62
     2
100
AcDbCircle
 10
179.5016542509982
 20
-117.65758746051
 30
0.0
 40
0.6500000000000057
100
AcDbArc
 50
-90.0
 51
0.0
  0
MTEXT
  5
349
330
4F
100
AcDbEntity
  8
1
 62
     2
100
AcDbMText
 10
166.6516542509982
 20
-123.0199999999999
 30
0.0
 40
2.8
 41
0.0
 71
     5
 72
     1
  1
GmbH & Co. KG
  7
CONVERTER_11
 73
     1
 44
1.32052821128451
  0
MTEXT
  5
34B
330
4F
100
AcDbEntity
  8
1
 62
     2
100
AcDbMText
 10
171.146150406868
 20
-140.3850000000002
 30
0.0
 40
1.8
 41
0.0
 71
     4
 72
     1
  1
 
  7
CONVERTER_12
 73
     1
 44
1.32052821128451
  0
MTEXT
  5
34C
330
4F
100
AcDbEntity
  8
1
 62
     2
100
AcDbMText
 10
138.090984385273
 20
-140.3850000000002
 30
0.0
 40
1.8
 41
0.0
 71
     4
 72
     1
  1
 
  7
CONVERTER_12
 73
     1
 44
1.32052821128451
  0
MTEXT
  5
34D
330
4F
100
AcDbEntity
  8
1
 62
     2
100
AcDbMText
 10
65.29999999999995
 20
-119.2350000000014
 30
0.0
 40
1.8
 41
0.0
 71
     5
 72
     1
  1
 
  7
CONVERTER_12
 73
     1
 44
1.32052821128451
  0
MTEXT
  5
34E
330
4F
100
AcDbEntity
  8
1
 62
     2
100
AcDbMText
 10
46.25
 20
-119.2350000000014
 30
0.0
 40
1.8
 41
0.0
 71
     5
 72
     1
  1
06.02.09
  7
CONVERTER_12
 73
     1
 44
1.32052821128451
  0
MTEXT
  5
34F
330
4F
100
AcDbEntity
  8
1
 62
     3
100
AcDbMText
 10
168.9000000000001
 20
-105.1999999999998
 30
0.0
 40
2.5
 41
0.0
 71
     5
 72
     1
  1
 
  7
CONVERTER_12
 73
     1
 44
1.32052821128451
  0
MTEXT
  5
350
330
4F
100
AcDbEntity
  8
1
 62
     3
100
AcDbMText
 10
168.9000000000001
 20
-100.6999999999998
 30
0.0
 40
2.5
 41
0.0
 71
     5
 72
     1
  1
 
  7
CONVERTER_12
 73
     1
 44
1.32052821128451
  0
MTEXT
  5
351
330
4F
100
AcDbEntity
  8
1
 62
     3
100
AcDbMText
 10
168.9000000000001
 20
-96.19999999999983
 30
0.0
 40
2.5
 41
0.0
 71
     5
 72
     1
  1
 
  7
CONVERTER_12
 73
     1
 44
1.32052821128451
  0
MTEXT
  5
353
330
4F
100
AcDbEntity
  8
1
 62
     3
100
AcDbMText
 10
102.13
 20
-122.625
 30
0.0
 40
2.5
 41
0.0
 71
     5
 72
     1
  1
 
  7
CONVERTER_13
 73
     1
 44
1.32052821128451
  0
MTEXT
  5
354
330
4F
100
AcDbEntity
  8
1
 62
     3
100
AcDbMText
 10
102.13
 20
-117.625
 30
0.0
 40
2.5
 41
0.0
 71
     5
 72
     1
  1
KSG 26... D(-MF)-R4(/S23)/PLG70
  7
CONVERTER_13
 73
     1
 44
1.32052821128451
  0
MTEXT
  5
356
330
4F
100
AcDbEntity
  8
1
 62
     7
100
AcDbMText
 10
29.74000000000001
 20
-136.535
 30
0.0
 40
5.0
 41
0.0
 71
     5
 72
     1
  1
1:1
  7
CONVERTER_14
 73
     1
 44
1.32052821128451
  0
MTEXT
  5
357
330
4F
100
AcDbEntity
  8
1
 62
     2
100
AcDbMText
 10
46.25
 20
-115.005
 30
0.0
 40
1.8
 41
0.0
 71
     5
 72
     1
  1
06.02.09
  7
CONVERTER_12
 73
     1
 44
1.32052821128451
  0
MTEXT
  5
358
330
4F
100
AcDbEntity
  8
1
 62
     2
100
AcDbMText
 10
65.29999999999995
 20
-115.005
 30
0.0
 40
1.8
 41
0.0
 71
     5
 72
     1
  1
HI
  7
CONVERTER_12
 73
     1
 44
1.32052821128451
  0
MTEXT
  5
35A
330
4F
100
AcDbEntity
  8
1
 62
     7
100
AcDbMText
 10
83.60500000000002
 20
-136.33
 30
0.0
 40
5.0
 41
0.0
 71
     5
 72
     1
  1
Maßblatt
  7
CONVERTER_15
 73
     1
 44
1.32052821128451
  0
MTEXT
  5
35B
330
4F
100
AcDbEntity
  8
1
 62
     2
100
AcDbMText
 10
196.85
 20
-136.25
 30
0.0
 40
1.8
 41
0.0
 71
     5
 72
     1
  1
1
  7
CONVERTER_12
 73
     1
 44
1.32052821128451
  0
MTEXT
  5
35C
330
4F
100
AcDbEntity
  8
1
 62
     3
100
AcDbMText
 10
200.375
 20
-129.81
 30
0.0
 40
3.0
 41
0.0
 71
     5
 72
     1
  1
1
  7
CONVERTER_15
 73
     1
 44
1.32052821128451
  0
MTEXT
  5
35D
330
4F
100
AcDbEntity
  8
1
 62
     7
100
AcDbMText
 10
160.55
 20
-133.28
 30
0.0
 40
5.0
 41
0.0
 71
     5
 72
     1
  1
K3039
  7
CONVERTER_14
 73
     1
 44
1.32052821128451
  0
TEXT
  5
35E
330
4F
100
AcDbEntity
  8
1
 62
     2
100
AcDbText
 10
193.3000000000002
 20
-129.5799999999999
 30
0.0
 40
1.8
  1
Bl.
 41
0.9
  7
CONVERTER_12
100
AcDbText
  0
MTEXT
  5
35F
330
4F
100
AcDbEntity
  8
1
 62
     2
100
AcDbMText
 10
129.868213777145
 20
-140.3850000000002
 30
0.0
 40
1.8
 41
0.0
 71
     4
 72
     1
  1
Ers.
  7
CONVERTER_12
 73
     1
 44
1.32052821128451
  0
TEXT
  5
360
330
4F
100
AcDbEntity
  8
1
 62
     2
100
AcDbText
 10
129.8000000000002
 20
-94.97000000000116
 30
0.0
 40
1.8
  1
Werkstoff
 41
0.9
  7
CONVERTER_12
100
AcDbText
  0
MTEXT
  5
361
330
4F
100
AcDbEntity
  8
1
 62
     2
100
AcDbMText
 10
167.8999999999996
 20
-89.625
 30
0.0
 40
1.8
 41
0.0
 71
     4
 72
     1
  1
Gewicht
  7
CONVERTER_12
 73
     1
 44
1.32052821128451
  0
MTEXT
  5
362
330
4F
100
AcDbEntity
  8
1
 62
     2
100
AcDbMText
 10
129.8000000000002
 20
-89.625
 30
0.0
 40
1.8
 41
0.0
 71
     4
 72
     1
  1
Urheberschutz  DIN 34
  7
CONVERTER_12
 73
     1
 44
1.32052821128451
  0
TEXT
  5
363
330
4F
100
AcDbEntity
  8
1
 62
     2
100
AcDbText
 10
130.8962833787473
 20
-129.2145722070854
 30
0.0
 40
1.8
  1
Z.-Nr.
 41
0.9
  7
CONVERTER_12
100
AcDbText
  0
TEXT
  5
364
330
4F
100
AcDbEntity
  8
1
 62
     2
100
AcDbText
 10
38.35999999999888
 20
-129.5799999999999
 30
0.0
 40
1.8
  1
Benennung
 41
0.9
  7
CONVERTER_12
100
AcDbText
  0
TEXT
  5
365
330
4F
100
AcDbEntity
  8
1
 62
     2
100
AcDbText
 10
23.11999999999898
 20
-129.5799999999999
 30
0.0
 40
1.8
  1
Maßstab
 41
0.9
  7
CONVERTER_12
100
AcDbText
  0
TEXT
  5
366
330
4F
100
AcDbEntity
  8
1
 62
     2
100
AcDbText
 10
75.95999999999992
 20
-111.2899999999994
 30
0.0
 40
1.8
  1
Typ
 41
0.9
  7
CONVERTER_12
100
AcDbText
  0
TEXT
  5
367
330
4F
100
AcDbEntity
  8
1
 62
     2
100
AcDbText
 10
23.11999999999898
 20
-124.5799999999999
 30
0.0
 40
1.8
  1
Norm.
 41
0.9
  7
CONVERTER_12
100
AcDbText
  0
TEXT
  5
368
330
4F
100
AcDbEntity
  8
1
 62
     2
100
AcDbText
 10
23.11999999999898
 20
-120.3500000000004
 30
0.0
 40
1.8
  1
Gepr.
 41
0.9
  7
CONVERTER_12
100
AcDbText
  0
TEXT
  5
369
330
4F
100
AcDbEntity
  8
1
 62
     2
100
AcDbText
 10
23.11999999999898
 20
-116.1200000000008
 30
0.0
 40
1.8
  1
Bearb.
 41
0.9
  7
CONVERTER_12
100
AcDbText
  0
TEXT
  5
36A
330
4F
100
AcDbEntity
  8
1
 62
     2
100
AcDbText
 10
59.73202796696876
 20
-111.8899999999994
 30
0.0
 40
1.8
  1
Name
 41
0.9
  7
CONVERTER_12
100
AcDbText
  0
TEXT
  5
36B
330
4F
100
AcDbEntity
  8
1
 62
     2
100
AcDbText
 10
41.95202796696901
 20
-111.8899999999994
 30
0.0
 40
1.8
  1
Datum
 41
0.9
  7
CONVERTER_12
100
AcDbText
  0
TEXT
  5
36C
330
4F
100
AcDbEntity
  8
1
 62
     2
100
AcDbText
 10
68.83999999999912
 20
-107.6599999999999
 30
0.0
 40
1.8
  1
Gepr.
 41
0.72
  7
CONVERTER_15
100
AcDbText
  0
TEXT
  5
36D
330
4F
100
AcDbEntity
  8
1
 62
     2
100
AcDbText
 10
61.21999999999832
 20
-107.6599999999999
 30
0.0
 40
1.8
  1
Name
 41
0.72
  7
CONVERTER_15
100
AcDbText
  0
TEXT
  5
36E
330
4F
100
AcDbEntity
  8
1
 62
     2
100
AcDbText
 10
43.43999999999869
 20
-107.6599999999999
 30
0.0
 40
1.8
  1
Datum
 41
0.9
  7
CONVERTER_12
100
AcDbText
  0
TEXT
  5
36F
330
4F
100
AcDbEntity
  8
1
 62
     2
100
AcDbText
 10
28.19999999999891
 20
-107.6599999999999
 30
0.0
 40
1.8
  1
Änderung
 41
0.9
  7
CONVERTER_12
100
AcDbText
  0
TEXT
  5
370
330
4F
100
AcDbEntity
  8
1
 62
     2
100
AcDbText
 10
23.11999999999898
 20
-107.6599999999999
 30
0.0
 40
1.8
  1
Nr.
 41
0.9
  7
CONVERTER_12
100
AcDbText
  0
TEXT
  5
371
330
4F
100
AcDbEntity
  8
0
 62
     2
100
AcDbText
 10
201.4516239034123
 20
-137.153912141408
 30
0.0
 40
1.8
  1
Bl.
 41
0.9
  7
CONVERTER_12
100
AcDbText
  0
MTEXT
  5
372
330
4F
100
AcDbEntity
  8
1
 62
     3
100
AcDbMText
 10
103.5850000000001
 20
-98.08500000000004
 30
0.0
 40
2.2
 41
0.0
 71
     4
 72
     1
  1
Oberflächen\PDIN ISO 1302\PReihe 2
  7
CONVERTER_12
 73
     1
 44
1.32052821128451
  0
MTEXT
  5
373
330
4F
100
AcDbEntity
  8
1
 62
     3
100
AcDbMText
 10
76.91500000000008
 20
-98.08500000000004
 30
0.0
 40
2.2
 41
0.0
 71
     4
 72
     1
  1
Allgemein-\Ptoleranzen\PDIN ISO 2768-mK
  7
CONVERTER_15
 73
     1
 44
1.32052821128451
  0
HATCH
  5
374
330
4F
100
AcDbEntity
  8
1
  6
Continuous
 62
     2
100
AcDbHatch
 10
0.0
 20
0.0
 30
0.0
210
0.0
220
0.0
230
1.0
  2
_USER
 70
     0
 71
     1
 91
        1
 92
        1
 93
        4
 72
     1
 10
162.6516542509982
 20
-119.4199999999999
 11
161.4516542509982
 21
-119.4199999999999
 72
     1
 10
161.4516542509982
 20
-119.4199999999999
 11
161.4516542509982
 21
-110.2199999999999
 72
     1
 10
161.4516542509982
 20
-110.2199999999999
 11
162.6516542509982
 21
-110.2199999999999
 72
     1
 10
162.6516542509982
 20
-110.2199999999999
 11
162.6516542509982
 21
-119.4199999999999
 97
        4
330
2B6
330
2BC
330
2B8
330
2BB
 75
     1
 76
     0
 52
90.00000000000003
 41
0.15
 77
     0
 78
     1
 53
90.00000000000003
 43
0.0
 44
0.0
 45
-0.15
 46
-0.0000000000000001
 79
     0
 98
        1
 10
0.0
 20
0.0
  0
HATCH
  5
375
330
4F
100
AcDbEntity
  8
1
  6
Continuous
 62
     2
100
AcDbHatch
 10
0.0
 20
0.0
 30
0.0
210
0.0
220
0.0
230
1.0
  2
_USER
 70
     0
 71
     1
 91
        1
 92
        1
 93
        4
 72
     1
 10
164.6516542509982
 20
-119.4199999999999
 11
163.4516542509982
 21
-119.4199999999999
 72
     1
 10
163.4516542509982
 20
-119.4199999999999
 11
163.4516542509982
 21
-110.2199999999999
 72
     1
 10
163.4516542509982
 20
-110.2199999999999
 11
164.6516542509982
 21
-110.2199999999999
 72
     1
 10
164.6516542509982
 20
-110.2199999999999
 11
164.6516542509982
 21
-119.4199999999999
 97
        4
330
2B7
330
2BA
330
2C0
330
2B9
 75
     1
 76
     0
 52
90.00000000000003
 41
0.15
 77
     0
 78
     1
 53
90.00000000000003
 43
0.0
 44
0.0
 45
-0.15
 46
-0.0000000000000001
 79
     0
 98
        1
 10
0.0
 20
0.0
  0
HATCH
  5
376
330
4F
100
AcDbEntity
  8
1
  6
Continuous
 62
     2
100
AcDbHatch
 10
0.0
 20
0.0
 30
0.0
210
0.0
220
0.0
230
1.0
  2
_USER
 70
     0
 71
     1
 91
        1
 92
        1
 93
       12
 72
     1
 10
147.1516542509982
 20
-110.2199999999999
 11
144.5516542509982
 21
-110.2199999999999
 72
     1
 10
144.5516542509982
 20
-110.2199999999999
 11
144.5516542509982
 21
-119.4199999999999
 72
     1
 10
144.5516542509982
 20
-119.4199999999999
 11
147.1516542509982
 21
-119.4199999999999
 72
     1
 10
147.1516542509982
 20
-119.4199999999999
 11
147.1516542509982
 21
-118.30758746051
 72
     1
 10
147.1516542509982
 20
-118.30758746051
 11
145.8516542509982
 21
-118.30758746051
 72
     1
 10
145.8516542509982
 20
-118.30758746051
 11
145.8516542509982
 21
-115.0199999999999
 72
     1
 10
145.8516542509982
 20
-115.0199999999999
 11
147.1516542509982
 21
-115.0199999999999
 72
     1
 10
147.1516542509982
 20
-115.0199999999999
 11
147.1516542509982
 21
-113.9199999999999
 72
     1
 10
147.1516542509982
 20
-113.9199999999999
 11
145.8516542509982
 21
-113.9199999999999
 72
     1
 10
145.8516542509982
 20
-113.9199999999999
 11
145.8516542509982
 21
-111.3199999999999
 72
     1
 10
145.8516542509982
 20
-111.3199999999999
 11
147.1516542509982
 21
-111.3199999999999
 72
     1
 10
147.1516542509982
 20
-111.3199999999999
 11
147.1516542509982
 21
-110.2199999999999
 97
       12
330
280
330
281
330
282
330
283
330
278
330
274
330
275
330
276
330
277
330
279
330
2C1
330
2C2
 75
     1
 76
     0
 52
90.00000000000003
 41
0.15
 77
     0
 78
     1
 53
90.00000000000003
 43
0.0
 44
0.0
 45
-0.15
 46
-0.0000000000000001
 79
     0
 98
        1
 10
0.0
 20
0.0
  0
HATCH
  5
377
330
4F
100
AcDbEntity
  8
1
  6
Continuous
 62
     2
100
AcDbHatch
 10
0.0
 20
0.0
 30
0.0
210
0.0
220
0.0
230
1.0
  2
_USER
 70
     0
 71
     1
 91
        1
 92
        1
 93
        6
 72
     1
 10
189.2516542509982
 20
-119.4199999999999
 11
186.6516542509982
 21
-119.4199999999999
 72
     1
 10
186.6516542509982
 20
-119.4199999999999
 11
186.6516542509982
 21
-110.2199999999999
 72
     1
 10
186.6516542509982
 20
-110.2199999999999
 11
187.8516542509982
 21
-110.2199999999999
 72
     1
 10
187.8516542509982
 20
-110.2199999999999
 11
187.8516542509982
 21
-118.30758746051
 72
     1
 10
187.8516542509982
 20
-118.30758746051
 11
189.2516542509982
 21
-118.30758746051
 72
     1
 10
189.2516542509982
 20
-118.30758746051
 11
189.2516542509982
 21
-119.4199999999999
 97
        6
330
2E0
330
2DF
330
2A3
330
2A0
330
2A1
330
2A2
 75
     1
 76
     0
 52
90.00000000000003
 41
0.15
 77
     0
 78
     1
 53
90.00000000000003
 43
0.0
 44
0.0
 45
-0.15
 46
-0.0000000000000001
 79
     0
 98
        1
 10
0.0
 20
0.0
  0
HATCH
  5
378
330
4F
100
AcDbEntity
  8
1
  6
Continuous
 62
     2
100
AcDbHatch
 10
0.0
 20
0.0
 30
0.0
210
0.0
220
0.0
230
1.0
  2
_USER
 70
     0
 71
     1
 91
        1
 92
        1
 93
       11
 72
     1
 10
169.8516542509982
 20
-113.8826635858394
 11
171.0854042804337
 21
-110.2199999999999
 72
     1
 10
171.0854042804337
 20
-110.2199999999999
 11
172.3516542509982
 21
-110.2199999999999
 72
     1
 10
172.3516542509982
 20
-110.2199999999999
 11
170.9200628688759
 21
-114.4699999999999
 72
     1
 10
170.9200628688759
 20
-114.4699999999999
 11
172.3516542509982
 21
-119.4199999999999
 72
     1
 10
172.3516542509982
 20
-119.4199999999999
 11
171.1024763583806
 21
-119.4199999999999
 72
     1
 10
171.1024763583806
 20
-119.4199999999999
 11
169.8516542509982
 21
-115.0950442138285
 72
     1
 10
169.8516542509982
 20
-115.0950442138285
 11
169.8516542509982
 21
-119.4199999999999
 72
     1
 10
169.8516542509982
 20
-119.4199999999999
 11
168.6516542509982
 21
-119.4199999999999
 72
     1
 10
168.6516542509982
 20
-119.4199999999999
 11
168.6516542509982
 21
-110.2199999999999
 72
     1
 10
168.6516542509982
 20
-110.2199999999999
 11
169.8516542509982
 21
-110.2199999999999
 72
     1
 10
169.8516542509982
 20
-110.2199999999999
 11
169.8516542509982
 21
-113.8826635858394
 97
       11
330
293
330
295
330
294
330
2EC
330
2EA
330
2E8
330
2E6
330
2E5
330
2E7
330
2E9
330
2EB
 75
     1
 76
     0
 52
90.00000000000003
 41
0.15
 77
     0
 78
     1
 53
90.00000000000003
 43
0.0
 44
0.0
 45
-0.15
 46
-0.0000000000000001
 79
     0
 98
        1
 10
0.0
 20
0.0
  0
HATCH
  5
379
330
4F
100
AcDbEntity
  8
1
  6
Continuous
 62
     2
100
AcDbHatch
 10
0.0
 20
0.0
 30
0.0
210
0.0
220
0.0
230
1.0
  2
_USER
 70
     0
 71
     1
 91
        2
 92
        1
 93
        8
 72
     1
 10
151.6516542509982
 20
-111.2199999999999
 11
151.6516542509982
 21
-118.4199999999999
 72
     2
 10
150.6516542509982
 20
-118.4199999999999
 40
1.0
 50
0.0
 51
90.0
 73
     0
 72
     1
 10
150.6516542509982
 20
-119.4199999999999
 11
148.9516542509982
 21
-119.4199999999999
 72
     2
 10
148.9516542509982
 20
-118.4199999999999
 40
1.0
 50
90.0
 51
180.0
 73
     0
 72
     1
 10
147.9516542509982
 20
-118.4199999999999
 11
147.9516542509982
 21
-111.2199999999999
 72
     2
 10
148.9516542509982
 20
-111.2199999999999
 40
1.0
 50
180.0
 51
270.0
 73
     0
 72
     1
 10
148.9516542509982
 20
-110.2199999999999
 11
150.6516542509982
 21
-110.2199999999999
 72
     2
 10
150.6516542509982
 20
-111.2199999999999
 40
1.0
 50
270.0
 51
360.0
 73
     0
 97
        8
330
287
330
316
330
289
330
318
330
288
330
319
330
28A
330
317
 92
       16
 93
        6
 72
     2
 10
149.8016542509982
 20
-111.9699999999999
 40
0.6500000000000057
 50
90.0
 51
180.0
 73
     1
 72
     1
 10
149.1516542509982
 20
-111.9699999999999
 11
149.1516542509982
 21
-117.65758746051
 72
     2
 10
149.8016542509982
 20
-117.65758746051
 40
0.6500000000000057
 50
180.0
 51
270.0
 73
     1
 72
     2
 10
149.8016542509982
 20
-117.65758746051
 40
0.6500000000000057
 50
270.0
 51
360.0
 73
     1
 72
     1
 10
150.4516542509982
 20
-117.65758746051
 11
150.4516542509982
 21
-111.9699999999999
 72
     2
 10
149.8016542509982
 20
-111.9699999999999
 40
0.6499999999999773
 50
0.0
 51
90.0
 73
     1
 97
        6
330
32B
330
2C4
330
32D
330
32E
330
2C3
330
32C
 75
     1
 76
     0
 52
90.00000000000003
 41
0.15
 77
     0
 78
     1
 53
90.00000000000003
 43
0.0
 44
0.0
 45
-0.15
 46
-0.0000000000000001
 79
     0
 98
        1
 10
0.0
 20
0.0
  0
HATCH
  5
37A
330
4F
100
AcDbEntity
  8
1
  6
Continuous
 62
     2
100
AcDbHatch
 10
0.0
 20
0.0
 30
0.0
210
0.0
220
0.0
230
1.0
  2
_USER
 70
     0
 71
     1
 91
        2
 92
        1
 93
        8
 72
     2
 10
183.1516542509982
 20
-111.2199999999999
 40
1.0
 50
90.0
 51
180.0
 73
     1
 72
     1
 10
182.1516542509982
 20
-111.2199999999999
 11
182.1516542509982
 21
-118.4199999999999
 72
     2
 10
183.1516542509982
 20
-118.4199999999999
 40
1.0
 50
180.0
 51
270.0
 73
     1
 72
     1
 10
183.1516542509982
 20
-119.4199999999999
 11
184.8516542509982
 21
-119.4199999999999
 72
     2
 10
184.8516542509982
 20
-118.4199999999999
 40
1.0
 50
270.0
 51
360.0
 73
     1
 72
     1
 10
185.8516542509982
 20
-118.4199999999999
 11
185.8516542509982
 21
-111.2199999999999
 72
     2
 10
184.8516542509982
 20
-111.2199999999999
 40
1.0
 50
0.0
 51
90.0
 73
     1
 72
     1
 10
184.8516542509982
 20
-110.2199999999999
 11
183.1516542509982
 21
-110.2199999999999
 97
        8
330
321
330
29C
330
324
330
29D
330
323
330
29E
330
320
330
29F
 92
       16
 93
        6
 72
     2
 10
184.0016542509982
 20
-111.9699999999999
 40
0.6500000000000057
 50
0.0
 51
90.0
 73
     1
 72
     2
 10
184.0016542509982
 20
-111.9699999999999
 40
0.6500000000000057
 50
90.0
 51
180.0
 73
     1
 72
     1
 10
183.3516542509982
 20
-111.9699999999999
 11
183.3516542509982
 21
-117.65758746051
 72
     2
 10
184.0016542509982
 20
-117.65758746051
 40
0.6500000000000057
 50
180.0
 51
270.0
 73
     1
 72
     2
 10
184.0016542509982
 20
-117.65758746051
 40
0.6500000000000057
 50
270.0
 51
360.0
 73
     1
 72
     1
 10
184.6516542509982
 20
-117.65758746051
 11
184.6516542509982
 21
-111.9699999999999
 97
        6
330
33C
330
33D
330
2DB
330
33E
330
33F
330
2DA
 75
     1
 76
     0
 52
90.00000000000003
 41
0.15
 77
     0
 78
     1
 53
90.00000000000003
 43
0.0
 44
0.0
 45
-0.15
 46
-0.0000000000000001
 79
     0
 98
        1
 10
0.0
 20
0.0
  0
HATCH
  5
37B
330
4F
100
AcDbEntity
  8
1
  6
Continuous
 62
     2
100
AcDbHatch
 10
0.0
 20
0.0
 30
0.0
210
0.0
220
0.0
230
1.0
  2
_USER
 70
     0
 71
     1
 91
        3
 92
        1
 93
        9
 72
     1
 10
180.3516542509982
 20
-110.2199999999999
 11
177.6516542509982
 21
-110.2199999999999
 72
     1
 10
177.6516542509982
 20
-110.2199999999999
 11
177.6516542509982
 21
-119.4199999999999
 72
     1
 10
177.6516542509982
 20
-119.4199999999999
 11
180.3516542509982
 21
-119.4199999999999
 72
     2
 10
180.3516542509982
 20
-118.4199999999999
 40
1.0
 50
270.0
 51
360.0
 73
     1
 72
     1
 10
181.3516542509982
 20
-118.4199999999999
 11
181.3516542509982
 21
-115.1199999999999
 72
     2
 10
180.7016542509982
 20
-115.1199999999999
 40
0.6500000000000057
 50
0.0
 51
90.0
 73
     1
 72
     2
 10
180.7016542509982
 20
-113.8199999999999
 40
0.6500000000000057
 50
270.0
 51
360.0
 73
     1
 72
     1
 10
181.3516542509982
 20
-113.8199999999999
 11
181.3516542509982
 21
-111.2199999999999
 72
     2
 10
180.3516542509982
 20
-111.2199999999999
 40
1.0
 50
0.0
 51
90.0
 73
     1
 97
        9
330
29A
330
299
330
29B
330
325
330
2E4
330
313
330
312
330
2E3
330
31F
 92
       16
 93
        6
 72
     2
 10
179.5016542509982
 20
-111.9699999999999
 40
0.6500000000000057
 50
0.0
 51
90.0
 73
     1
 72
     1
 10
179.5016542509982
 20
-111.3199999999999
 11
178.8516542509982
 21
-111.3199999999999
 72
     1
 10
178.8516542509982
 20
-111.3199999999999
 11
178.8516542509982
 21
-113.9199999999999
 72
     1
 10
178.8516542509982
 20
-113.9199999999999
 11
179.5016542509982
 21
-113.9199999999999
 72
     2
 10
179.5016542509982
 20
-113.2699999999999
 40
0.6500000000000057
 50
270.0
 51
360.0
 73
     1
 72
     1
 10
180.1516542509982
 20
-113.2699999999999
 11
180.1516542509982
 21
-111.9699999999999
 97
        6
330
344
330
2D2
330
2D8
330
2D4
330
345
330
2D3
 92
       16
 93
        6
 72
     2
 10
179.5016542509982
 20
-115.6699999999999
 40
0.6500000000000057
 50
0.0
 51
90.0
 73
     1
 72
     1
 10
179.5016542509982
 20
-115.0199999999999
 11
178.8516542509982
 21
-115.0199999999999
 72
     1
 10
178.8516542509982
 20
-115.0199999999999
 11
178.8516542509982
 21
-118.30758746051
 72
     1
 10
178.8516542509982
 20
-118.30758746051
 11
179.5016542509982
 21
-118.30758746051
 72
     2
 10
179.5016542509982
 20
-117.65758746051
 40
0.6500000000000057
 50
270.0
 51
360.0
 73
     1
 72
     1
 10
180.1516542509982
 20
-117.65758746051
 11
180.1516542509982
 21
-115.6699999999999
 97
        6
330
346
330
2D9
330
2D5
330
2D6
330
347
330
2D7
 75
     1
 76
     0
 52
90.00000000000003
 41
0.15
 77
     0
 78
     1
 53
90.00000000000003
 43
0.0
 44
0.0
 45
-0.15
 46
-0.0000000000000001
 79
     0
 98
        1
 10
0.0
 20
0.0
  0
HATCH
  5
37C
330
4F
100
AcDbEntity
  8
1
  6
Continuous
 62
     2
100
AcDbHatch
 10
0.0
 20
0.0
 30
0.0
210
0.0
220
0.0
230
1.0
  2
_USER
 70
     0
 71
     1
 91
        2
 92
        1
 93
        8
 72
     2
 10
174.1516542509982
 20
-111.2199999999999
 40
1.0
 50
90.0
 51
180.0
 73
     1
 72
     1
 10
173.1516542509982
 20
-111.2199999999999
 11
173.1516542509982
 21
-118.4199999999999
 72
     2
 10
174.1516542509982
 20
-118.4199999999999
 40
1.0
 50
180.0
 51
270.0
 73
     1
 72
     1
 10
174.1516542509982
 20
-119.4199999999999
 11
175.8516542509982
 21
-119.4199999999999
 72
     2
 10
175.8516542509982
 20
-118.4199999999999
 40
1.0
 50
270.0
 51
360.0
 73
     1
 72
     1
 10
176.8516542509982
 20
-118.4199999999999
 11
176.8516542509982
 21
-111.2199999999999
 72
     2
 10
175.8516542509982
 20
-111.2199999999999
 40
1.0
 50
0.0
 51
90.0
 73
     1
 72
     1
 10
175.8516542509982
 20
-110.2199999999999
 11
174.1516542509982
 21
-110.2199999999999
 97
        8
330
31D
330
2ED
330
327
330
298
330
326
330
2A6
330
31E
330
297
 92
       16
 93
        6
 72
     2
 10
175.0016542509982
 20
-111.9699999999999
 40
0.6500000000000057
 50
90.0
 51
180.0
 73
     1
 72
     1
 10
174.3516542509982
 20
-111.9699999999999
 11
174.3516542509982
 21
-117.65758746051
 72
     2
 10
175.0016542509982
 20
-117.65758746051
 40
0.6500000000000057
 50
180.0
 51
270.0
 73
     1
 72
     2
 10
175.0016542509982
 20
-117.65758746051
 40
0.6500000000000057
 50
270.0
 51
360.0
 73
     1
 72
     1
 10
175.6516542509982
 20
-117.65758746051
 11
175.6516542509982
 21
-111.9699999999999
 72
     2
 10
175.0016542509982
 20
-111.9699999999999
 40
0.6500000000000057
 50
0.0
 51
90.0
 73
     1
 97
        6
330
340
330
2D1
330
342
330
343
330
2D0
330
341
 75
     1
 76
     0
 52
90.00000000000003
 41
0.15
 77
     0
 78
     1
 53
90.00000000000003
 43
0.0
 44
0.0
 45
-0.15
 46
-0.0000000000000001
 79
     0
 98
        1
 10
0.0
 20
0.0
  0
HATCH
  5
37D
330
4F
100
AcDbEntity
  8
1
  6
Continuous
 62
     2
100
AcDbHatch
 10
0.0
 20
0.0
 30
0.0
210
0.0
220
0.0
230
1.0
  2
_USER
 70
     0
 71
     1
 91
        2
 92
        1
 93
        6
 72
     1
 10
193.7516542509982
 20
-111.2199999999999
 11
193.7516542509982
 21
-118.4199999999999
 72
     2
 10
192.7516542509982
 20
-118.4199999999999
 40
1.0
 50
0.0
 51
90.0
 73
     0
 72
     1
 10
192.7516542509982
 20
-119.4199999999999
 11
190.0516542509982
 21
-119.4199999999999
 72
     1
 10
190.0516542509982
 20
-119.4199999999999
 11
190.0516542509982
 21
-110.2199999999999
 72
     1
 10
190.0516542509982
 20
-110.2199999999999
 11
192.7516542509982
 21
-110.2199999999999
 72
     2
 10
192.7516542509982
 20
-111.2199999999999
 40
1.0
 50
270.0
 51
360.0
 73
     0
 97
        6
330
2A5
330
2A4
330
2A7
330
328
330
2A8
330
322
 92
       16
 93
        7
 72
     2
 10
191.9016542509982
 20
-111.9699999999999
 40
0.6500000000000057
 50
0.0
 51
90.0
 73
     1
 72
     1
 10
191.9016542509982
 20
-111.3199999999999
 11
191.2516542509982
 21
-111.3199999999999
 72
     1
 10
191.2516542509982
 20
-111.3199999999999
 11
191.2516542509982
 21
-111.9699999999999
 72
     1
 10
191.2516542509982
 20
-111.9699999999999
 11
191.2516542509982
 21
-118.30758746051
 72
     1
 10
191.2516542509982
 20
-118.30758746051
 11
191.9016542509982
 21
-118.30758746051
 72
     2
 10
191.9016542509982
 20
-117.65758746051
 40
0.6500000000000057
 50
270.0
 51
360.0
 73
     1
 72
     1
 10
192.5516542509982
 20
-117.65758746051
 11
192.5516542509982
 21
-111.9699999999999
 97
        7
330
33A
330
2E1
330
2E2
330
2DE
330
2DD
330
33B
330
2DC
 75
     1
 76
     0
 52
90.00000000000003
 41
0.15
 77
     0
 78
     1
 53
90.00000000000003
 43
0.0
 44
0.0
 45
-0.15
 46
-0.0000000000000001
 79
     0
 98
        1
 10
0.0
 20
0.0
  0
HATCH
  5
37E
330
4F
100
AcDbEntity
  8
1
  6
Continuous
 62
     2
100
AcDbHatch
 10
0.0
 20
0.0
 30
0.0
210
0.0
220
0.0
230
1.0
  2
_USER
 70
     0
 71
     1
 91
        2
 92
        1
 93
       13
 72
     2
 10
155.3161055621215
 20
-115.6535223168009
 40
0.8355765145285912
 50
359.5324065739073
 51
445.9815862299461
 73
     1
 72
     2
 10
155.3000342667233
 20
-113.9710002560295
 40
0.8522732028340286
 50
275.0233190242853
 51
357.7566077588553
 73
     1
 72
     1
 10
156.1516542509982
 20
-114.0043621302671
 11
156.1516542509982
 21
-111.2199999999999
 72
     2
 10
155.1516542509982
 20
-111.2199999999999
 40
1.0
 50
0.0
 51
90.0
 73
     1
 72
     1
 10
155.1516542509982
 20
-110.2199999999999
 11
152.4516542509982
 21
-110.2199999999999
 72
     1
 10
152.4516542509982
 20
-110.2199999999999
 11
152.4516542509982
 21
-119.4199999999999
 72
     1
 10
152.4516542509982
 20
-119.4199999999999
 11
153.6516542509982
 21
-119.4199999999999
 72
     1
 10
153.6516542509982
 20
-119.4199999999999
 11
153.6516542509982
 21
-115.4199999999999
 72
     1
 10
153.6516542509982
 20
-115.4199999999999
 11
154.3016542509982
 21
-115.4199999999999
 72
     2
 10
154.3016542509982
 20
-116.0699999999999
 40
0.6499999999999773
 50
270.0
 51
360.0
 73
     0
 72
     1
 10
154.9516542509982
 20
-116.0699999999999
 11
154.9516542509982
 21
-119.4199999999999
 72
     1
 10
154.9516542509982
 20
-119.4199999999999
 11
156.1516542509982
 21
-119.4199999999999
 72
     1
 10
156.1516542509982
 20
-119.4199999999999
 11
156.1516542509982
 21
-115.6603414185126
 97
       13
330
310
330
30F
330
28D
330
31A
330
28C
330
28B
330
2B5
330
2CD
330
2CC
330
330
330
2B3
330
2B4
330
28E
 92
       16
 93
        6
 72
     2
 10
154.3016542509982
 20
-111.9699999999999
 40
0.6499999999999773
 50
0.0
 51
90.0
 73
     1
 72
     1
 10
154.3016542509982
 20
-111.3199999999999
 11
153.6516542509982
 21
-111.3199999999999
 72
     1
 10
153.6516542509982
 20
-111.3199999999999
 11
153.6516542509982
 21
-114.2199999999999
 72
     1
 10
153.6516542509982
 20
-114.2199999999999
 11
154.3016542509982
 21
-114.2199999999999
 72
     2
 10
154.3016542509982
 20
-113.5699999999999
 40
0.6500000000000057
 50
270.0
 51
360.0
 73
     1
 72
     1
 10
154.9516542509982
 20
-113.5699999999999
 11
154.9516542509982
 21
-111.9699999999999
 97
        6
330
32F
330
2C9
330
2CA
330
2CB
330
331
330
2B2
 75
     1
 76
     0
 52
90.00000000000003
 41
0.15
 77
     0
 78
     1
 53
90.00000000000003
 43
0.0
 44
0.0
 45
-0.15
 46
-0.0000000000000001
 79
     0
 98
        1
 10
0.0
 20
0.0
  0
HATCH
  5
37F
330
4F
100
AcDbEntity
  8
1
  6
Continuous
 62
     2
100
AcDbHatch
 10
0.0
 20
0.0
 30
0.0
210
0.0
220
0.0
230
1.0
  2
_USER
 70
     0
 71
     1
 91
        1
 92
        1
 93
       23
 72
     1
 10
159.4516542509982
 20
-117.65758746051
 11
159.4516542509982
 21
-115.9199999999999
 72
     1
 10
159.4516542509982
 20
-115.9199999999999
 11
158.9016542509982
 21
-115.9199999999999
 72
     1
 10
158.9016542509982
 20
-115.9199999999999
 11
158.9016542509982
 21
-114.7199999999999
 72
     1
 10
158.9016542509982
 20
-114.7199999999999
 11
159.7415058473918
 21
-114.7199999999999
 72
     1
 10
159.7415058473918
 20
-114.7199999999999
 11
160.6516542509982
 21
-114.7199999999999
 72
     1
 10
160.6516542509982
 20
-114.7199999999999
 11
160.6516542509982
 21
-119.4199999999999
 72
     1
 10
160.6516542509982
 20
-119.4199999999999
 11
160.1516542509982
 21
-119.4199999999999
 72
     1
 10
160.1516542509982
 20
-119.4199999999999
 11
159.8046153744343
 21
-118.8199999999999
 72
     2
 10
158.8327793484388
 20
-118.3331447179281
 40
1.086965191302833
 50
26.60924039545096
 51
90.8147991292736
 73
     0
 72
     1
 10
158.8173222162131
 20
-119.4199999999999
 11
157.9516542509982
 21
-119.4199999999999
 72
     2
 10
157.9516542509982
 20
-118.4199999999999
 40
1.0
 50
90.0
 51
180.0
 73
     0
 72
     1
 10
156.9516542509982
 20
-118.4199999999999
 11
156.9516542509982
 21
-111.2199999999999
 72
     2
 10
157.9516542509982
 20
-111.2199999999999
 40
1.0
 50
180.0
 51
270.0
 73
     0
 72
     1
 10
157.9516542509982
 20
-110.2199999999999
 11
159.6516542509982
 21
-110.2199999999999
 72
     2
 10
159.6516542509982
 20
-111.2199999999999
 40
1.000000000000085
 50
270.0
 51
360.0
 73
     0
 72
     1
 10
160.6516542509983
 20
-111.2199999999999
 11
160.6516542509982
 21
-113.3199999999999
 72
     1
 10
160.6516542509982
 20
-113.3199999999999
 11
159.4516542509982
 21
-113.3199999999999
 72
     1
 10
159.4516542509982
 20
-113.3199999999999
 11
159.4516542509982
 21
-111.9699999999999
 72
     2
 10
158.8016542509982
 20
-111.9699999999999
 40
0.6499999999999773
 50
0.0
 51
90.0
 73
     1
 72
     2
 10
158.8016542509982
 20
-111.9699999999999
 40
0.6500000000000057
 50
90.0
 51
180.0
 73
     1
 72
     1
 10
158.1516542509982
 20
-111.9699999999999
 11
158.1516542509982
 21
-117.65758746051
 72
     2
 10
158.8016542509982
 20
-117.65758746051
 40
0.6500000000000057
 50
180.0
 51
270.0
 73
     1
 72
     2
 10
158.8016542509982
 20
-117.65758746051
 40
0.6500000000000057
 50
270.0
 51
360.0
 73
     1
 97
       23
330
334
330
2B0
330
332
330
333
330
2AF
330
291
330
292
330
31C
330
28F
330
31B
330
2AA
330
329
330
2A9
330
311
330
2AE
330
2AD
330
290
330
2CF
330
2BD
330
2BE
330
2BF
330
2B1
330
335
 75
     1
 76
     0
 52
90.00000000000003
 41
0.15
 77
     0
 78
     1
 53
90.00000000000003
 43
0.0
 44
0.0
 45
-0.15
 46
-0.0000000000000001
 79
     0
 98
        1
 10
0.0
 20
0.0
  0
HATCH
  5
380
330
4F
100
AcDbEntity
  8
1
  6
Continuous
 62
     2
100
AcDbHatch
 10
0.0
 20
0.0
 30
0.0
210
0.0
220
0.0
230
1.0
  2
_USER
 70
     0
 71
     1
 91
        1
 92
        1
 93
       22
 72
     1
 10
143.7516542509982
 20
-119.4199999999999
 11
143.2516542509982
 21
-119.4199999999999
 72
     1
 10
143.2516542509982
 20
-119.4199999999999
 11
142.9048783308657
 21
-118.8199999999999
 72
     2
 10
141.9264261003899
 20
-118.3227040643326
 40
1.097575516743276
 50
26.94184191294435
 51
91.2932531058712
 73
     0
 72
     1
 10
141.9016542509982
 20
-119.4199999999999
 11
141.0516542509982
 21
-119.4199999999999
 72
     2
 10
141.0516542509982
 20
-118.4199999999999
 40
1.0
 50
90.0
 51
180.0
 73
     0
 72
     1
 10
140.0516542509982
 20
-118.4199999999999
 11
140.0516542509982
 21
-111.2199999999999
 72
     2
 10
141.0516542509982
 20
-111.2199999999999
 40
1.0
 50
180.0
 51
270.0
 73
     0
 72
     1
 10
141.0516542509982
 20
-110.2199999999999
 11
142.7516542509982
 21
-110.2199999999999
 72
     2
 10
142.7516542509982
 20
-111.2199999999999
 40
1.0
 50
270.0
 51
360.0
 73
     0
 72
     1
 10
143.7516542509982
 20
-111.2199999999999
 11
143.7516542509982
 21
-113.3199999999999
 72
     1
 10
143.7516542509982
 20
-113.3199999999999
 11
142.5516542509982
 21
-113.3199999999999
 72
     1
 10
142.5516542509982
 20
-113.3199999999999
 11
142.5516542509982
 21
-111.9699999999999
 72
     2
 10
141.9016542509982
 20
-111.9699999999999
 40
0.6500000000000057
 50
0.0
 51
90.0
 73
     1
 72
     2
 10
141.9016542509982
 20
-111.9699999999999
 40
0.6500000000000057
 50
90.0
 51
180.0
 73
     1
 72
     1
 10
141.2516542509982
 20
-111.9699999999999
 11
141.2516542509982
 21
-117.65758746051
 72
     2
 10
141.9016542509982
 20
-117.65758746051
 40
0.6500000000000057
 50
180.0
 51
270.0
 73
     1
 72
     2
 10
141.9016542509982
 20
-117.65758746051
 40
0.6500000000000057
 50
270.0
 51
360.0
 73
     1
 72
     1
 10
142.5516542509982
 20
-117.65758746051
 11
142.5516542509982
 21
-115.9199999999999
 72
     1
 10
142.5516542509982
 20
-115.9199999999999
 11
141.9927287849846
 21
-115.9199999999999
 72
     1
 10
141.9927287849846
 20
-115.9199999999999
 11
141.9927287849846
 21
-114.7199999999999
 72
     1
 10
141.9927287849846
 20
-114.7199999999999
 11
143.7516542509982
 21
-114.7199999999999
 72
     1
 10
143.7516542509982
 20
-114.7199999999999
 11
143.7516542509982
 21
-119.4199999999999
 97
       22
330
27C
330
27D
330
27A
330
2C5
330
339
330
338
330
2C6
330
336
330
337
330
2C7
330
2C8
330
27F
330
314
330
2AC
330
32A
330
2AB
330
315
330
286
330
30E
330
285
330
27E
330
284
 75
     1
 76
     0
 52
90.00000000000003
 41
0.15
 77
     0
 78
     1
 53
90.00000000000003
 43
0.0
 44
0.0
 45
-0.15
 46
-0.0000000000000001
 79
     0
 98
        1
 10
0.0
 20
0.0
  0
ENDBLK
  5
51
330
4F
100
AcDbEntity
  8
0
100
AcDbBlockEnd
  0
BLOCK
  5
444
330
43D
100
AcDbEntity
  8
0
100
AcDbBlockBegin
  2
*D11
 70
     1
 71
     0
 10
0.0
 20
0.0
 30
0.0
  3
*D11
  1

  0
LINE
  5
43E
330
43D
100
AcDbEntity
  8
1
  6
Continuous
 62
     2
100
AcDbLine
 10
126.0669913112087
 20
126.772435483871
 30
0.0
 11
154.066242
 21
126.772435483871
 31
0.0
  0
LINE
  5
43F
330
43D
100
AcDbEntity
  8
1
  6
Continuous
 62
     2
100
AcDbLine
 10
154.066242
 20
106.3889374519707
 30
0.0
 11
154.066242
 21
127.772435483871
 31
0.0
  0
LINE
  5
440
330
43D
100
AcDbEntity
  8
1
  6
Continuous
 62
     2
100
AcDbLine
 10
126.0669913112087
 20
105.667641882972
 30
0.0
 11
126.0669913112087
 21
127.772435483871
 31
0.0
  0
SOLID
  5
441
330
43D
100
AcDbEntity
  8
1
 62
     2
100
AcDbTrace
 10
129.5669913112087
 20
127.2332192254269
 30
0.0
 11
129.5669913112087
 21
126.3116517423151
 31
0.0
 12
126.0669913112087
 22
126.772435483871
 32
0.0
 13
126.0669913112087
 23
126.772435483871
 33
0.0
  0
SOLID
  5
442
330
43D
100
AcDbEntity
  8
1
 62
     2
100
AcDbTrace
 10
150.566242
 20
126.3116517423151
 30
0.0
 11
150.566242
 21
127.2332192254269
 31
0.0
 12
154.066242
 22
126.772435483871
 32
0.0
 13
154.066242
 23
126.772435483871
 33
0.0
  0
MTEXT
  5
443
330
43D
100
AcDbEntity
  8
1
 62
     3
100
AcDbMText
 10
136.658794354839
 20
128.772435483871
 30
0.0
 40
3.5
 41
0.0
 71
     7
 72
     1
  1
28
  7
CONVERTER_15
 11
0.9999999999970621
 21
2.424068405545307E-6
 31
0.0
 73
     1
 44
0.60024009603842
  0
ENDBLK
  5
445
330
43D
100
AcDbEntity
  8
0
100
AcDbBlockEnd
  0
BLOCK
  5
44F
330
448
100
AcDbEntity
  8
0
100
AcDbBlockBegin
  2
*D12
 70
     1
 71
     0
 10
0.0
 20
0.0
 30
0.0
  3
*D12
  1

  0
LINE
  5
449
330
448
100
AcDbEntity
  8
1
  6
Continuous
 62
     2
100
AcDbLine
 10
175.5662365
 20
-23.4166189103372
 30
0.0
 11
104.5662365
 21
-23.4166189103372
 31
0.0
  0
LINE
  5
44A
330
448
100
AcDbEntity
  8
1
  6
Continuous
 62
     2
100
AcDbLine
 10
104.5662365
 20
51.75811411710186
 30
0.0
 11
104.5662365
 21
-24.4166189103372
 31
0.0
  0
LINE
  5
44B
330
448
100
AcDbEntity
  8
1
  6
Continuous
 62
     2
100
AcDbLine
 10
175.5662365
 20
51.75811411710186
 30
0.0
 11
175.5662365
 21
-24.4166189103372
 31
0.0
  0
SOLID
  5
44C
330
448
100
AcDbEntity
  8
1
 62
     2
100
AcDbTrace
 10
172.0662365
 20
-23.87740265189309
 30
0.0
 11
172.0662365
 21
-22.95583516878131
 31
0.0
 12
175.5662365
 22
-23.4166189103372
 32
0.0
 13
175.5662365
 23
-23.4166189103372
 33
0.0
  0
SOLID
  5
44D
330
448
100
AcDbEntity
  8
1
 62
     2
100
AcDbTrace
 10
108.0662365
 20
-22.95583516878131
 30
0.0
 11
108.0662365
 21
-23.87740265189309
 31
0.0
 12
104.5662365
 22
-23.4166189103372
 32
0.0
 13
104.5662365
 23
-23.4166189103372
 33
0.0
  0
MTEXT
  5
44E
330
448
100
AcDbEntity
  8
1
 62
     3
100
AcDbMText
 10
139.075233982065
 20
-21.4166189103372
 30
0.0
 40
3.5
 41
0.0
 71
     7
 72
     1
  1
71
  7
CONVERTER_15
 11
0.9999999999970621
 21
2.424068405545307E-6
 31
0.0
 73
     1
 44
0.60024009603842
  0
ENDBLK
  5
450
330
448
100
AcDbEntity
  8
0
100
AcDbBlockEnd
  0
BLOCK
  5
45C
330
453
100
AcDbEntity
  8
0
100
AcDbBlockBegin
  2
*D13
 70
     1
 71
     0
 10
0.0
 20
0.0
 30
0.0
  3
*D13
  1

  0
LINE
  5
454
330
453
100
AcDbEntity
  8
1
  6
Continuous
 62
     2
100
AcDbLine
 10
130.5662365
 20
42.4820430347926
 30
0.0
 11
137.5662365
 21
42.4820430347926
 31
0.0
  0
LINE
  5
455
330
453
100
AcDbEntity
  8
1
  6
Continuous
 62
     2
100
AcDbLine
 10
137.5662365
 20
42.4820430347926
 30
0.0
 11
142.5662365
 21
42.4820430347926
 31
0.0
  0
LINE
  5
456
330
453
100
AcDbEntity
  8
1
  6
Continuous
 62
     2
100
AcDbLine
 10
142.5662365
 20
42.4820430347926
 30
0.0
 11
149.5662365
 21
42.4820430347926
 31
0.0
  0
LINE
  5
457
330
453
100
AcDbEntity
  8
1
  6
Continuous
 62
     2
100
AcDbLine
 10
142.5662365
 20
37.493943
 30
0.0
 11
142.5662365
 21
43.4820430347926
 31
0.0
  0
LINE
  5
458
330
453
100
AcDbEntity
  8
1
  6
Continuous
 62
     2
100
AcDbLine
 10
137.5662365
 20
37.493943
 30
0.0
 11
137.5662365
 21
43.4820430347926
 31
0.0
  0
SOLID
  5
459
330
453
100
AcDbEntity
  8
1
 62
     2
100
AcDbTrace
 10
134.0662365
 20
42.02125929323672
 30
0.0
 11
134.0662365
 21
42.94282677634849
 31
0.0
 12
137.5662365
 22
42.4820430347926
 32
0.0
 13
137.5662365
 23
42.4820430347926
 33
0.0
  0
SOLID
  5
45A
330
453
100
AcDbEntity
  8
1
 62
     2
100
AcDbTrace
 10
146.0662365
 20
42.94282677634849
 30
0.0
 11
146.0662365
 21
42.02125929323672
 31
0.0
 12
142.5662365
 22
42.4820430347926
 32
0.0
 13
142.5662365
 23
42.4820430347926
 33
0.0
  0
MTEXT
  5
45B
330
453
100
AcDbEntity
  8
1
 62
     3
100
AcDbMText
 10
144.42879803398
 20
44.4820430347926
 30
0.0
 40
3.5
 41
0.0
 71
     7
 72
     1
  1
5
  7
CONVERTER_15
 11
0.9999999999970621
 21
2.424068405545307E-6
 31
0.0
 73
     1
 44
0.60024009603842
  0
ENDBLK
  5
45D
330
453
100
AcDbEntity
  8
0
100
AcDbBlockEnd
  0
BLOCK
  5
467
330
460
100
AcDbEntity
  8
0
100
AcDbBlockBegin
  2
*D14
 70
     1
 71
     0
 10
0.0
 20
0.0
 30
0.0
  3
*D14
  1

  0
LINE
  5
461
330
460
100
AcDbEntity
  8
1
  6
Continuous
 62
     2
100
AcDbLine
 10
-119.357121
 20
126.32458467742
 30
0.0
 11
56.64287899999999
 21
126.32458467742
 31
0.0
  0
LINE
  5
462
330
460
100
AcDbEntity
  8
1
  6
Continuous
 62
     2
100
AcDbLine
 10
56.64287899999999
 20
62.4939435
 30
0.0
 11
56.64287899999999
 21
127.32458467742
 31
0.0
  0
LINE
  5
463
330
460
100
AcDbEntity
  8
1
  6
Continuous
 62
     2
100
AcDbLine
 10
-119.357121
 20
62.493943
 30
0.0
 11
-119.357121
 21
127.32458467742
 31
0.0
  0
SOLID
  5
464
330
460
100
AcDbEntity
  8
1
 62
     2
100
AcDbTrace
 10
-115.857121
 20
126.7853684189759
 30
0.0
 11
-115.857121
 21
125.8638009358641
 31
0.0
 12
-119.357121
 22
126.32458467742
 32
0.0
 13
-119.357121
 23
126.32458467742
 33
0.0
  0
SOLID
  5
465
330
460
100
AcDbEntity
  8
1
 62
     2
100
AcDbTrace
 10
53.14287899999999
 20
125.8638009358641
 30
0.0
 11
53.14287899999999
 21
126.7853684189759
 31
0.0
 12
56.64287899999999
 22
126.32458467742
 32
0.0
 13
56.64287899999999
 23
126.32458467742
 33
0.0
  0
MTEXT
  5
466
330
460
100
AcDbEntity
  8
1
 62
     3
100
AcDbMText
 10
-34.9516169354844
 20
128.32458467742
 30
0.0
 40
3.5
 41
0.0
 71
     7
 72
     1
  1
k
  7
CONVERTER_15
 11
0.9999999999970621
 21
2.424068405545307E-6
 31
0.0
 73
     1
 44
0.60024009603842
  0
ENDBLK
  5
468
330
460
100
AcDbEntity
  8
0
100
AcDbBlockEnd
  0
BLOCK
  5
472
330
46B
100
AcDbEntity
  8
0
100
AcDbBlockBegin
  2
*D15
 70
     1
 71
     0
 10
0.0
 20
0.0
 30
0.0
  3
*D15
  1

  0
LINE
  5
46C
330
46B
100
AcDbEntity
  8
1
  6
Continuous
 62
     2
100
AcDbLine
 10
-119.357121
 20
110.201955645162
 30
0.0
 11
32.89286849999998
 21
110.201955645162
 31
0.0
  0
LINE
  5
46D
330
46B
100
AcDbEntity
  8
1
  6
Continuous
 62
     2
100
AcDbLine
 10
32.89286849999998
 20
60.63118800000001
 30
0.0
 11
32.89286849999998
 21
111.201955645162
 31
0.0
  0
LINE
  5
46E
330
46B
100
AcDbEntity
  8
1
  6
Continuous
 62
     2
100
AcDbLine
 10
-119.357121
 20
62.493943
 30
0.0
 11
-119.357121
 21
111.201955645162
 31
0.0
  0
SOLID
  5
46F
330
46B
100
AcDbEntity
  8
1
 62
     2
100
AcDbTrace
 10
-115.857121
 20
110.6627393867179
 30
0.0
 11
-115.857121
 21
109.7411719036061
 31
0.0
 12
-119.357121
 22
110.201955645162
 32
0.0
 13
-119.357121
 23
110.201955645162
 33
0.0
  0
SOLID
  5
470
330
46B
100
AcDbEntity
  8
1
 62
     2
100
AcDbTrace
 10
29.39286849999998
 20
109.7411719036061
 30
0.0
 11
29.39286849999998
 21
110.6627393867179
 31
0.0
 12
32.89286849999998
 22
110.201955645162
 32
0.0
 13
32.89286849999998
 23
110.201955645162
 33
0.0
  0
MTEXT
  5
471
330
46B
100
AcDbEntity
  8
1
 62
     3
100
AcDbMText
 10
-37.6387217741941
 20
113.251955645162
 30
0.0
 40
3.5
 41
0.0
 71
     7
 72
     1
  1
q
  7
CONVERTER_15
 11
0.9999999999970621
 21
2.424068405545307E-6
 31
0.0
 73
     1
 44
0.60024009603842
  0
ENDBLK
  5
473
330
46B
100
AcDbEntity
  8
0
100
AcDbBlockEnd
  0
BLOCK
  5
47D
330
476
100
AcDbEntity
  8
0
100
AcDbBlockBegin
  2
*D16
 70
     1
 71
     0
 10
0.0
 20
0.0
 30
0.0
  3
*D16
  1

  0
LINE
  5
477
330
476
100
AcDbEntity
  8
1
  6
Continuous
 62
     2
100
AcDbLine
 10
-97.987088709678
 20
-7.506057
 30
0.0
 11
-97.987088709678
 21
62.493943
 31
0.0
  0
LINE
  5
478
330
476
100
AcDbEntity
  8
1
  6
Continuous
 62
     2
100
AcDbLine
 10
-82.357121
 20
62.493943
 30
0.0
 11
-98.987088709678
 21
62.493943
 31
0.0
  0
LINE
  5
479
330
476
100
AcDbEntity
  8
1
  6
Continuous
 62
     2
100
AcDbLine
 10
-82.357121
 20
-7.506057
 30
0.0
 11
-98.987088709678
 21
-7.506057
 31
0.0
  0
SOLID
  5
47A
330
476
100
AcDbEntity
  8
1
 62
     2
100
AcDbTrace
 10
-98.44787245123389
 20
-4.006057
 30
0.0
 11
-97.52630496812212
 21
-4.006057
 31
0.0
 12
-97.987088709678
 22
-7.506057
 32
0.0
 13
-97.987088709678
 23
-7.506057
 33
0.0
  0
SOLID
  5
47B
330
476
100
AcDbEntity
  8
1
 62
     2
100
AcDbTrace
 10
-97.52630496812212
 20
58.993943
 30
0.0
 11
-98.44787245123389
 21
58.993943
 31
0.0
 12
-97.987088709678
 22
62.493943
 32
0.0
 13
-97.987088709678
 23
62.493943
 33
0.0
  0
MTEXT
  5
47C
330
476
100
AcDbEntity
  8
1
 62
     3
100
AcDbMText
 10
-99.987088709678
 20
13.0225846774194
 30
0.0
 40
3.5
 41
0.0
 71
     7
 72
     1
  1
\C3;{\Fgdt;n}\C3;70
  7
CONVERTER_15
 11
0.0
 21
1.0
 31
0.0
 73
     1
 44
0.60024009603842
  0
ENDBLK
  5
47E
330
476
100
AcDbEntity
  8
0
100
AcDbBlockEnd
  0
BLOCK
  5
48A
330
481
100
AcDbEntity
  8
0
100
AcDbBlockBegin
  2
*D17
 70
     1
 71
     0
 10
0.0
 20
0.0
 30
0.0
  3
*D17
  1

  0
LINE
  5
482
330
481
100
AcDbEntity
  8
1
  6
Continuous
 62
     2
100
AcDbLine
 10
-108.958403225807
 20
88.7051169354841
 30
0.0
 11
-119.357121
 21
88.7051169354841
 31
0.0
  0
LINE
  5
483
330
481
100
AcDbEntity
  8
1
  6
Continuous
 62
     2
100
AcDbLine
 10
-119.357121
 20
88.7051169354841
 30
0.0
 11
-126.357121
 21
88.7051169354841
 31
0.0
  0
LINE
  5
484
330
481
100
AcDbEntity
  8
1
  6
Continuous
 62
     2
100
AcDbLine
 10
-126.357121
 20
88.7051169354841
 30
0.0
 11
-133.357121
 21
88.7051169354841
 31
0.0
  0
LINE
  5
485
330
481
100
AcDbEntity
  8
1
  6
Continuous
 62
     2
100
AcDbLine
 10
-126.357121
 20
53.493943
 30
0.0
 11
-126.357121
 21
89.7051169354841
 31
0.0
  0
LINE
  5
486
330
481
100
AcDbEntity
  8
1
  6
Continuous
 62
     2
100
AcDbLine
 10
-119.357121
 20
53.493943
 30
0.0
 11
-119.357121
 21
89.7051169354841
 31
0.0
  0
SOLID
  5
487
330
481
100
AcDbEntity
  8
1
 62
     2
100
AcDbTrace
 10
-115.857121
 20
89.16590067703999
 30
0.0
 11
-115.857121
 21
88.24433319392821
 31
0.0
 12
-119.357121
 22
88.7051169354841
 32
0.0
 13
-119.357121
 23
88.7051169354841
 33
0.0
  0
SOLID
  5
488
330
481
100
AcDbEntity
  8
1
 62
     2
100
AcDbTrace
 10
-129.857121
 20
88.24433319392821
 30
0.0
 11
-129.857121
 21
89.16590067703999
 31
0.0
 12
-126.357121
 22
88.7051169354841
 32
0.0
 13
-126.357121
 23
88.7051169354841
 33
0.0
  0
MTEXT
  5
489
330
481
100
AcDbEntity
  8
1
 62
     3
100
AcDbMText
 10
-110.638403225807
 20
90.7051169354841
 30
0.0
 40
3.5
 41
0.0
 71
     7
 72
     1
  1
7
  7
CONVERTER_15
 11
0.9999999999970621
 21
2.424068405545307E-6
 31
0.0
 73
     1
 44
0.60024009603842
  0
ENDBLK
  5
48B
330
481
100
AcDbEntity
  8
0
100
AcDbBlockEnd
  0
BLOCK
  5
497
330
48E
100
AcDbEntity
  8
0
100
AcDbBlockBegin
  2
*D18
 70
     1
 71
     0
 10
0.0
 20
0.0
 30
0.0
  3
*D18
  1

  0
LINE
  5
48F
330
48E
100
AcDbEntity
  8
1
  6
Continuous
 62
     2
100
AcDbLine
 10
-119.357121
 20
74.0945761502814
 30
0.0
 11
-126.357121
 21
74.0945761502814
 31
0.0
  0
LINE
  5
490
330
48E
100
AcDbEntity
  8
1
  6
Continuous
 62
     2
100
AcDbLine
 10
-126.357121
 20
74.0945761502814
 30
0.0
 11
-127.357121
 21
74.0945761502814
 31
0.0
  0
LINE
  5
491
330
48E
100
AcDbEntity
  8
1
  6
Continuous
 62
     2
100
AcDbLine
 10
-127.357121
 20
74.0945761502814
 30
0.0
 11
-134.357121
 21
74.0945761502814
 31
0.0
  0
LINE
  5
492
330
48E
100
AcDbEntity
  8
1
  6
Continuous
 62
     2
100
AcDbLine
 10
-127.357121
 20
35.49394299999999
 30
0.0
 11
-127.357121
 21
75.0945761502814
 31
0.0
  0
LINE
  5
493
330
48E
100
AcDbEntity
  8
1
  6
Continuous
 62
     2
100
AcDbLine
 10
-126.357121
 20
37.49394299999999
 30
0.0
 11
-126.357121
 21
75.0945761502814
 31
0.0
  0
SOLID
  5
494
330
48E
100
AcDbEntity
  8
1
 62
     2
100
AcDbTrace
 10
-122.857121
 20
74.55535989183728
 30
0.0
 11
-122.857121
 21
73.63379240872551
 31
0.0
 12
-126.357121
 22
74.0945761502814
 32
0.0
 13
-126.357121
 23
74.0945761502814
 33
0.0
  0
SOLID
  5
495
330
48E
100
AcDbEntity
  8
1
 62
     2
100
AcDbTrace
 10
-130.857121
 20
73.63379240872551
 30
0.0
 11
-130.857121
 21
74.55535989183728
 31
0.0
 12
-127.357121
 22
74.0945761502814
 32
0.0
 13
-127.357121
 23
74.0945761502814
 33
0.0
  0
MTEXT
  5
496
330
48E
100
AcDbEntity
  8
1
 62
     3
100
AcDbMText
 10
-122.40105053056
 20
76.0945761502814
 30
0.0
 40
3.5
 41
0.0
 71
     7
 72
     1
  1
1
  7
CONVERTER_15
 11
0.9999999999970621
 21
2.424068405545307E-6
 31
0.0
 73
     1
 44
0.60024009603842
  0
ENDBLK
  5
498
330
48E
100
AcDbEntity
  8
0
100
AcDbBlockEnd
  0
BLOCK
  5
4A4
330
49B
100
AcDbEntity
  8
0
100
AcDbBlockBegin
  2
*D19
 70
     1
 71
     0
 10
0.0
 20
0.0
 30
0.0
  3
*D19
  1

  0
LINE
  5
49C
330
49B
100
AcDbEntity
  8
1
  6
Continuous
 62
     2
100
AcDbLine
 10
-162.357121
 20
58.7990805857457
 30
0.0
 11
-155.357121
 21
58.7990805857457
 31
0.0
  0
LINE
  5
49D
330
49B
100
AcDbEntity
  8
1
  6
Continuous
 62
     2
100
AcDbLine
 10
-155.357121
 20
58.7990805857457
 30
0.0
 11
-153.357121
 21
58.7990805857457
 31
0.0
  0
LINE
  5
49E
330
49B
100
AcDbEntity
  8
1
  6
Continuous
 62
     2
100
AcDbLine
 10
-153.357121
 20
58.7990805857457
 30
0.0
 11
-146.357121
 21
58.7990805857457
 31
0.0
  0
LINE
  5
49F
330
49B
100
AcDbEntity
  8
1
  6
Continuous
 62
     2
100
AcDbLine
 10
-153.357121
 20
37.493943
 30
0.0
 11
-153.357121
 21
59.7990805857457
 31
0.0
  0
LINE
  5
4A0
330
49B
100
AcDbEntity
  8
1
  6
Continuous
 62
     2
100
AcDbLine
 10
-155.357121
 20
35.493943
 30
0.0
 11
-155.357121
 21
59.7990805857457
 31
0.0
  0
SOLID
  5
4A1
330
49B
100
AcDbEntity
  8
1
 62
     2
100
AcDbTrace
 10
-158.857121
 20
58.33829684418981
 30
0.0
 11
-158.857121
 21
59.25986432730159
 31
0.0
 12
-155.357121
 22
58.7990805857457
 32
0.0
 13
-155.357121
 23
58.7990805857457
 33
0.0
  0
SOLID
  5
4A2
330
49B
100
AcDbEntity
  8
1
 62
     2
100
AcDbTrace
 10
-149.857121
 20
59.25986432730159
 30
0.0
 11
-149.857121
 21
58.33829684418981
 31
0.0
 12
-153.357121
 22
58.7990805857457
 32
0.0
 13
-153.357121
 23
58.7990805857457
 33
0.0
  0
MTEXT
  5
4A3
330
49B
100
AcDbEntity
  8
1
 62
     3
100
AcDbMText
 10
-159.852250318383
 20
60.7990805857457
 30
0.0
 40
3.5
 41
0.0
 71
     7
 72
     1
  1
2
  7
CONVERTER_15
 11
0.9999999999970621
 21
2.424068405545307E-6
 31
0.0
 73
     1
 44
0.60024009603842
  0
ENDBLK
  5
4A5
330
49B
100
AcDbEntity
  8
0
100
AcDbBlockEnd
  0
BLOCK
  5
4AF
330
4A8
100
AcDbEntity
  8
0
100
AcDbBlockBegin
  2
*D20
 70
     1
 71
     0
 10
0.0
 20
0.0
 30
0.0
  3
*D20
  1

  0
LINE
  5
4A9
330
4A8
100
AcDbEntity
  8
1
  6
Continuous
 62
     2
100
AcDbLine
 10
-153.357121
 20
58.7990805857457
 30
0.0
 11
-128.357121
 21
58.7990805857457
 31
0.0
  0
LINE
  5
4AA
330
4A8
100
AcDbEntity
  8
1
  6
Continuous
 62
     2
100
AcDbLine
 10
-128.357121
 20
37.493943
 30
0.0
 11
-128.357121
 21
59.7990805857457
 31
0.0
  0
LINE
  5
4AB
330
4A8
100
AcDbEntity
  8
1
  6
Continuous
 62
     2
100
AcDbLine
 10
-153.357121
 20
37.493943
 30
0.0
 11
-153.357121
 21
59.7990805857457
 31
0.0
  0
SOLID
  5
4AC
330
4A8
100
AcDbEntity
  8
1
 62
     2
100
AcDbTrace
 10
-149.857121
 20
59.25986432730159
 30
0.0
 11
-149.857121
 21
58.33829684418981
 31
0.0
 12
-153.357121
 22
58.7990805857457
 32
0.0
 13
-153.357121
 23
58.7990805857457
 33
0.0
  0
SOLID
  5
4AD
330
4A8
100
AcDbEntity
  8
1
 62
     2
100
AcDbTrace
 10
-131.857121
 20
58.33829684418981
 30
0.0
 11
-131.857121
 21
59.25986432730159
 31
0.0
 12
-128.357121
 22
58.7990805857457
 32
0.0
 13
-128.357121
 23
58.7990805857457
 33
0.0
  0
MTEXT
  5
4AE
330
4A8
100
AcDbEntity
  8
1
 62
     3
100
AcDbMText
 10
-141.308608692721
 20
60.7990805857457
 30
0.0
 40
3.5
 41
0.0
 71
     7
 72
     1
  1
25
  7
CONVERTER_15
 11
0.9999999999970621
 21
2.424068405545307E-6
 31
0.0
 73
     1
 44
0.60024009603842
  0
ENDBLK
  5
4B0
330
4A8
100
AcDbEntity
  8
0
100
AcDbBlockEnd
  0
BLOCK
  5
4BA
330
4B3
100
AcDbEntity
  8
0
100
AcDbBlockBegin
  2
*D21
 70
     1
 71
     0
 10
0.0
 20
0.0
 30
0.0
  3
*D21
  1

  0
LINE
  5
4B4
330
4B3
100
AcDbEntity
  8
1
  6
Continuous
 62
     2
100
AcDbLine
 10
-155.357121
 20
74.2555813667502
 30
0.0
 11
-127.357121
 21
74.2555813667502
 31
0.0
  0
LINE
  5
4B5
330
4B3
100
AcDbEntity
  8
1
  6
Continuous
 62
     2
100
AcDbLine
 10
-127.357121
 20
19.49394299999999
 30
0.0
 11
-127.357121
 21
75.2555813667502
 31
0.0
  0
LINE
  5
4B6
330
4B3
100
AcDbEntity
  8
1
  6
Continuous
 62
     2
100
AcDbLine
 10
-155.357121
 20
19.49394299999999
 30
0.0
 11
-155.357121
 21
75.2555813667502
 31
0.0
  0
SOLID
  5
4B7
330
4B3
100
AcDbEntity
  8
1
 62
     2
100
AcDbTrace
 10
-151.857121
 20
74.71636510830609
 30
0.0
 11
-151.857121
 21
73.79479762519432
 31
0.0
 12
-155.357121
 22
74.2555813667502
 32
0.0
 13
-155.357121
 23
74.2555813667502
 33
0.0
  0
SOLID
  5
4B8
330
4B3
100
AcDbEntity
  8
1
 62
     2
100
AcDbTrace
 10
-130.857121
 20
73.79479762519432
 30
0.0
 11
-130.857121
 21
74.71636510830609
 31
0.0
 12
-127.357121
 22
74.2555813667502
 32
0.0
 13
-127.357121
 23
74.2555813667502
 33
0.0
  0
MTEXT
  5
4B9
330
4B3
100
AcDbEntity
  8
1
 62
     3
100
AcDbMText
 10
-141.791624342127
 20
76.2555813667502
 30
0.0
 40
3.5
 41
0.0
 71
     7
 72
     1
  1
28
  7
CONVERTER_15
 11
0.9999999999970621
 21
2.424068405545307E-6
 31
0.0
 73
     1
 44
0.60024009603842
  0
ENDBLK
  5
4BB
330
4B3
100
AcDbEntity
  8
0
100
AcDbBlockEnd
  0
BLOCK
  5
4C5
330
4BE
100
AcDbEntity
  8
0
100
AcDbBlockBegin
  2
*D22
 70
     1
 71
     0
 10
0.0
 20
0.0
 30
0.0
  3
*D22
  1

  0
LINE
  5
4BF
330
4BE
100
AcDbEntity
  8
1
  6
Continuous
 62
     2
100
AcDbLine
 10
-172.811818913482
 20
1.493943
 30
0.0
 11
-172.811818913482
 21
53.493943
 31
0.0
  0
LINE
  5
4C0
330
4BE
100
AcDbEntity
  8
1
  6
Continuous
 62
     2
100
AcDbLine
 10
-119.357121
 20
53.493943
 30
0.0
 11
-173.811818913482
 21
53.493943
 31
0.0
  0
LINE
  5
4C1
330
4BE
100
AcDbEntity
  8
1
  6
Continuous
 62
     2
100
AcDbLine
 10
-119.357121
 20
1.493943
 30
0.0
 11
-173.811818913482
 21
1.493943
 31
0.0
  0
SOLID
  5
4C2
330
4BE
100
AcDbEntity
  8
1
 62
     2
100
AcDbTrace
 10
-173.2726026550379
 20
4.993943
 30
0.0
 11
-172.3510351719261
 21
4.993943
 31
0.0
 12
-172.811818913482
 22
1.493943
 32
0.0
 13
-172.811818913482
 23
1.493943
 33
0.0
  0
SOLID
  5
4C3
330
4BE
100
AcDbEntity
  8
1
 62
     2
100
AcDbTrace
 10
-172.3510351719261
 20
49.993943
 30
0.0
 11
-173.2726026550379
 21
49.993943
 31
0.0
 12
-172.811818913482
 22
53.493943
 32
0.0
 13
-172.811818913482
 23
53.493943
 33
0.0
  0
MTEXT
  5
4C4
330
4BE
100
AcDbEntity
  8
1
 62
     3
100
AcDbMText
 10
-176.474318913482
 20
22.3890425084552
 30
0.0
 40
3.5
 41
0.0
 71
     7
 72
     1
  1
\C3;{\Fgdt;n}\C3;\C3;52\C2;\H2.1;\S^ g6;
  7
CONVERTER_15
 11
0.0
 21
1.0
 31
0.0
 73
     1
 44
0.60024009603842
  0
ENDBLK
  5
4C6
330
4BE
100
AcDbEntity
  8
0
100
AcDbBlockEnd
  0
BLOCK
  5
4D0
330
4C9
100
AcDbEntity
  8
0
100
AcDbBlockBegin
  2
*D23
 70
     1
 71
     0
 10
0.0
 20
0.0
 30
0.0
  3
*D23
  1

  0
LINE
  5
4CA
330
4C9
100
AcDbEntity
  8
1
  6
Continuous
 62
     2
100
AcDbLine
 10
-162.34647984301
 20
19.493943
 30
0.0
 11
-162.34647984301
 21
35.493943
 31
0.0
  0
LINE
  5
4CB
330
4C9
100
AcDbEntity
  8
1
  6
Continuous
 62
     2
100
AcDbLine
 10
-155.357121
 20
35.493943
 30
0.0
 11
-163.34647984301
 21
35.493943
 31
0.0
  0
LINE
  5
4CC
330
4C9
100
AcDbEntity
  8
1
  6
Continuous
 62
     2
100
AcDbLine
 10
-155.357121
 20
19.493943
 30
0.0
 11
-163.34647984301
 21
19.493943
 31
0.0
  0
SOLID
  5
4CD
330
4C9
100
AcDbEntity
  8
1
 62
     2
100
AcDbTrace
 10
-162.8072635845659
 20
22.993943
 30
0.0
 11
-161.8856961014541
 21
22.993943
 31
0.0
 12
-162.34647984301
 22
19.493943
 32
0.0
 13
-162.34647984301
 23
19.493943
 33
0.0
  0
SOLID
  5
4CE
330
4C9
100
AcDbEntity
  8
1
 62
     2
100
AcDbTrace
 10
-161.8856961014541
 20
31.993943
 30
0.0
 11
-162.8072635845659
 21
31.993943
 31
0.0
 12
-162.34647984301
 22
35.493943
 32
0.0
 13
-162.34647984301
 23
35.493943
 33
0.0
  0
MTEXT
  5
4CF
330
4C9
100
AcDbEntity
  8
1
 62
     3
100
AcDbMText
 10
-165.22147984301
 20
20.5549694778921
 30
0.0
 40
3.5
 41
0.0
 71
     7
 72
     1
  1
\C3;{\Fgdt;n}\C3;\C3;16\C2;\H2.1;\S^ k6;
  7
CONVERTER_15
 11
0.0
 21
1.0
 31
0.0
 73
     1
 44
0.60024009603842
  0
ENDBLK
  5
4D1
330
4C9
100
AcDbEntity
  8
0
100
AcDbBlockEnd
  0
BLOCK
  5
4DB
330
4D4
100
AcDbEntity
  8
0
100
AcDbBlockBegin
  2
*D24
 70
     1
 71
     0
 10
0.0
 20
0.0
 30
0.0
  3
*D24
  1

  0
LINE
  5
4D5
330
4D4
100
AcDbEntity
  8
1
  6
Continuous
 62
     2
100
AcDbLine
 10
78.646051857028
 20
-7.5060565
 30
0.0
 11
78.646051857028
 21
104.118931
 31
0.0
  0
LINE
  5
4D6
330
4D4
100
AcDbEntity
  8
1
  6
Continuous
 62
     2
100
AcDbLine
 10
55.55616850000001
 20
104.118931
 30
0.0
 11
79.646051857028
 21
104.118931
 31
0.0
  0
LINE
  5
4D7
330
4D4
100
AcDbEntity
  8
1
  6
Continuous
 62
     2
100
AcDbLine
 10
56.64287899999998
 20
-7.5060565
 30
0.0
 11
79.646051857028
 21
-7.5060565
 31
0.0
  0
SOLID
  5
4D8
330
4D4
100
AcDbEntity
  8
1
 62
     2
100
AcDbTrace
 10
78.18526811547211
 20
-4.0060565
 30
0.0
 11
79.10683559858388
 21
-4.0060565
 31
0.0
 12
78.646051857028
 22
-7.5060565
 32
0.0
 13
78.646051857028
 23
-7.5060565
 33
0.0
  0
SOLID
  5
4D9
330
4D4
100
AcDbEntity
  8
1
 62
     2
100
AcDbTrace
 10
79.10683559858388
 20
100.618931
 30
0.0
 11
78.18526811547211
 21
100.618931
 31
0.0
 12
78.646051857028
 22
104.118931
 32
0.0
 13
78.646051857028
 23
104.118931
 33
0.0
  0
MTEXT
  5
4DA
330
4D4
100
AcDbEntity
  8
1
 62
     3
100
AcDbMText
 10
76.646051857028
 20
44.0944062253766
 30
0.0
 40
3.5
 41
0.0
 71
     7
 72
     1
  1
111
  7
CONVERTER_15
 11
0.0
 21
1.0
 31
0.0
 73
     1
 44
0.60024009603842
  0
ENDBLK
  5
4DC
330
4D4
100
AcDbEntity
  8
0
100
AcDbBlockEnd
  0
BLOCK
  5
4E4
330
4DF
100
AcDbEntity
  8
0
100
AcDbBlockBegin
  2
*D25
 70
     1
 71
     0
 10
0.0
 20
0.0
 30
0.0
  3
*D25
  1

  0
LINE
  5
4E0
330
4DF
100
AcDbEntity
  8
1
  6
Continuous
 62
     2
100
AcDbLine
 10
114.4043857305092
 20
1.24106608906761
 30
0.0
 11
93.34156714332002
 21
-13.15532361256709
 31
0.0
  0
LINE
  5
4E1
330
4DF
100
AcDbEntity
  8
1
  6
Continuous
 62
     2
100
AcDbLine
 10
104.5662365
 20
3.22977188289815
 30
0.0
 11
109.1895990123023
 21
-3.53449665092571
 31
0.0
  0
SOLID
  5
4E2
330
4DF
100
AcDbEntity
  8
1
 62
     2
100
AcDbTrace
 10
111.2548383920652
 20
-0.35351009894686
 30
0.0
 11
111.7748633015113
 21
-1.11433906756239
 31
0.0
 12
108.6253159630673
 22
-2.70891525557688
 32
0.0
 13
108.6253159630673
 23
-2.70891525557688
 33
0.0
  0
MTEXT
  5
4E3
330
4DF
100
AcDbEntity
  8
1
 62
     3
100
AcDbMText
 10
90.53707081229204
 20
-12.64965541181632
 30
0.0
 40
3.5
 41
0.0
 71
     7
 72
     1
  1
\C3;{\Fgdt;n}\C3;86
  7
CONVERTER_15
 11
0.825581395348837
 21
0.5642830492349271
 31
0.0
 73
     1
 44
0.60024009603842
  0
ENDBLK
  5
4E5
330
4DF
100
AcDbEntity
  8
0
100
AcDbBlockEnd
  0
BLOCK
  5
4EC
330
4E7
100
AcDbEntity
  8
0
100
AcDbBlockBegin
  2
*D26
 70
     1
 71
     0
 10
0.0
 20
0.0
 30
0.0
  3
*D26
  1

  0
LINE
  5
4E8
330
4E7
100
AcDbEntity
  8
1
  6
Continuous
 62
     2
100
AcDbLine
 10
174.6983124027332
 20
38.20290273787018
 30
0.0
 11
86.58771290043268
 21
10.95726880013465
 31
0.0
  0
SOLID
  5
4E9
330
4E7
100
AcDbEntity
  8
1
 62
     2
100
AcDbTrace
 10
107.2421784556384
 20
16.86174966292882
 30
0.0
 11
106.9699293777798
 21
17.74218538774586
 31
0.0
 12
110.4498405555937
 22
18.33593605175239
 32
0.0
 13
110.4498405555937
 23
18.33593605175239
 33
0.0
  0
SOLID
  5
4EA
330
4E7
100
AcDbEntity
  8
1
 62
     2
100
AcDbTrace
 10
172.8902945443616
 20
38.12613633707117
 30
0.0
 11
173.1625436222202
 21
37.24570061225414
 31
0.0
 12
169.6826324444063
 22
36.6519499482476
 32
0.0
 13
169.6826324444063
 23
36.6519499482476
 33
0.0
  0
MTEXT
  5
4EB
330
4E7
100
AcDbEntity
  8
1
 62
     3
100
AcDbMText
 10
84.05747749192817
 20
12.26830227703368
 30
0.0
 40
3.5
 41
0.0
 71
     7
 72
     1
  1
\C3;{\Fgdt;n}\C3;\C3;62\C2;\H2.1;±0,1
  7
CONVERTER_15
 11
0.9553676111098821
 21
0.2954195789757292
 31
0.0
 73
     1
 44
0.60024009603842
  0
ENDBLK
  5
4ED
330
4E7
100
AcDbEntity
  8
0
100
AcDbBlockEnd
  0
BLOCK
  5
4F6
330
4EF
100
AcDbEntity
  8
0
100
AcDbBlockBegin
  2
*D27
 70
     1
 71
     0
 10
0.0
 20
0.0
 30
0.0
  3
*D27
  1

  0
LINE
  5
4F0
330
4EF
100
AcDbEntity
  8
1
  6
Continuous
 62
     2
100
AcDbLine
 10
127.602176876058
 20
19.49394299999999
 30
0.0
 11
127.602176876058
 21
37.493943
 31
0.0
  0
LINE
  5
4F1
330
4EF
100
AcDbEntity
  8
1
  6
Continuous
 62
     2
100
AcDbLine
 10
137.5662365
 20
37.493943
 30
0.0
 11
126.602176876058
 21
37.493943
 31
0.0
  0
LINE
  5
4F2
330
4EF
100
AcDbEntity
  8
1
  6
Continuous
 62
     2
100
AcDbLine
 10
140.0662365
 20
19.49394299999999
 30
0.0
 11
126.602176876058
 21
19.49394299999999
 31
0.0
  0
SOLID
  5
4F3
330
4EF
100
AcDbEntity
  8
1
 62
     2
100
AcDbTrace
 10
127.1413931345021
 20
22.99394299999999
 30
0.0
 11
128.0629606176139
 21
22.99394299999999
 31
0.0
 12
127.602176876058
 22
19.49394299999999
 32
0.0
 13
127.602176876058
 23
19.49394299999999
 33
0.0
  0
SOLID
  5
4F4
330
4EF
100
AcDbEntity
  8
1
 62
     2
100
AcDbTrace
 10
128.0629606176139
 20
33.993943
 30
0.0
 11
127.1413931345021
 21
33.993943
 31
0.0
 12
127.602176876058
 22
37.493943
 32
0.0
 13
127.602176876058
 23
37.493943
 33
0.0
  0
MTEXT
  5
4F5
330
4EF
100
AcDbEntity
  8
1
 62
     3
100
AcDbMText
 10
125.602176876058
 20
29.5258652868957
 30
0.0
 40
3.5
 41
0.0
 71
     7
 72
     1
  1
18
  7
CONVERTER_15
 11
0.0
 21
1.0
 31
0.0
 73
     1
 44
0.60024009603842
  0
ENDBLK
  5
4F7
330
4EF
100
AcDbEntity
  8
0
100
AcDbBlockEnd
  0
BLOCK
  5
502
330
4F9
100
AcDbEntity
  8
0
100
AcDbBlockBegin
  2
*D28
 70
     1
 71
     0
 10
0.0
 20
0.0
 30
0.0
  3
*D28
  1

  0
LINE
  5
4FA
330
4F9
100
AcDbEntity
  8
1
  6
Continuous
 62
     2
100
AcDbLine
 10
99.4973884025106
 20
39.91425321678297
 30
0.0
 11
99.4973884025106
 21
46.91425321678297
 31
0.0
  0
LINE
  5
4FB
330
4F9
100
AcDbEntity
  8
1
  6
Continuous
 62
     2
100
AcDbLine
 10
99.4973884025106
 20
46.91425321678297
 30
0.0
 11
99.4973884025106
 21
51.91425321678296
 31
0.0
  0
LINE
  5
4FC
330
4F9
100
AcDbEntity
  8
1
  6
Continuous
 62
     2
100
AcDbLine
 10
99.4973884025106
 20
51.91425321678296
 30
0.0
 11
99.4973884025106
 21
58.91425321678296
 31
0.0
  0
LINE
  5
4FD
330
4F9
100
AcDbEntity
  8
1
  6
Continuous
 62
     2
100
AcDbLine
 10
118.145926283217
 20
51.91425321678296
 30
0.0
 11
98.4973884025106
 21
51.91425321678296
 31
0.0
  0
LINE
  5
4FE
330
4F9
100
AcDbEntity
  8
1
  6
Continuous
 62
     2
100
AcDbLine
 10
118.145926283217
 20
46.91425321678297
 30
0.0
 11
98.4973884025106
 21
46.91425321678297
 31
0.0
  0
SOLID
  5
4FF
330
4F9
100
AcDbEntity
  8
1
 62
     2
100
AcDbTrace
 10
99.95817214406648
 20
43.41425321678297
 30
0.0
 11
99.03660466095471
 21
43.41425321678297
 31
0.0
 12
99.4973884025106
 22
46.91425321678297
 32
0.0
 13
99.4973884025106
 23
46.91425321678297
 33
0.0
  0
SOLID
  5
500
330
4F9
100
AcDbEntity
  8
1
 62
     2
100
AcDbTrace
 10
99.03660466095471
 20
55.41425321678296
 30
0.0
 11
99.95817214406648
 21
55.41425321678296
 31
0.0
 12
99.4973884025106
 22
51.91425321678296
 32
0.0
 13
99.4973884025106
 23
51.91425321678296
 33
0.0
  0
MTEXT
  5
501
330
4F9
100
AcDbEntity
  8
1
 62
     3
100
AcDbMText
 10
97.4973884025106
 20
47.6621042341265
 30
0.0
 40
3.5
 41
0.0
 71
     7
 72
     1
  1
\C3;M\C3;5
  7
CONVERTER_15
 11
0.0
 21
1.0
 31
0.0
 73
     1
 44
0.60024009603842
  0
ENDBLK
  5
503
330
4F9
100
AcDbEntity
  8
0
100
AcDbBlockEnd
  0
BLOCK
  5
50E
330
505
100
AcDbEntity
  8
0
100
AcDbBlockBegin
  2
*D29
 70
     1
 71
     0
 10
0.0
 20
0.0
 30
0.0
  3
*D29
  1

  0
LINE
  5
506
330
505
100
AcDbEntity
  8
1
  6
Continuous
 62
     2
100
AcDbLine
 10
177.1587816319788
 20
-9.5986021319786
 30
0.0
 11
177.8658884131654
 21
-10.30570891316514
 31
0.0
  0
LINE
  5
507
330
505
100
AcDbEntity
  8
1
  6
Continuous
 62
     2
100
AcDbLine
 10
192.4971279196117
 20
27.43144150000001
 30
0.0
 11
193.4971279196117
 21
27.43144150000001
 31
0.0
  0
LINE
  5
508
330
505
100
AcDbEntity
  8
1
  6
Continuous
 62
     2
100
AcDbLine
 10
164.1221688366475
 20
3.43801066335255
 30
0.0
 11
177.1587816319788
 21
-9.5986021319786
 31
0.0
  0
LINE
  5
509
330
505
100
AcDbEntity
  8
1
  6
Continuous
 62
     2
100
AcDbLine
 10
177.005327013636
 20
27.43144150000001
 30
0.0
 11
192.4971279196117
 21
27.43144150000001
 31
0.0
  0
ARC
  5
50A
330
505
100
AcDbEntity
  8
1
  6
Continuous
 62
     2
100
AcDbCircle
 10
140.1287379999997
 20
27.43144150000001
 30
0.0
 40
52.36838991961193
100
AcDbArc
 50
-44.99999999999967
 51
0.0
  0
SOLID
  5
50B
330
505
100
AcDbEntity
  8
1
 62
     2
100
AcDbTrace
 10
179.2130584740161
 20
-6.7276670381892
 30
0.0
 11
179.886113367576
 21
-7.3571777499201
 31
0.0
 12
177.1587816319788
 22
-9.5986021319786
 32
0.0
 13
177.1587816319788
 23
-9.5986021319786
 33
0.0
  0
SOLID
  5
50C
330
505
100
AcDbEntity
  8
1
 62
     2
100
AcDbTrace
 10
192.8407163043273
 20
23.91800035514349
 30
0.0
 11
191.9196633318858
 21
23.94879074139603
 31
0.0
 12
192.4971279196117
 22
27.43144150000001
 32
0.0
 13
192.4971279196117
 23
27.43144150000001
 33
0.0
  0
MTEXT
  5
50D
330
505
100
AcDbEntity
  8
1
 62
     3
100
AcDbMText
 10
185.317206231707
 20
4.97117787808219
 30
0.0
 40
3.5
 41
0.0
 71
     7
 72
     1
  1
45{\Fgdt;~}
  7
CONVERTER_15
 11
0.3896021943735636
 21
0.9209832409654933
 31
0.0
 73
     1
 44
0.60024009603842
  0
ENDBLK
  5
50F
330
505
100
AcDbEntity
  8
0
100
AcDbBlockEnd
  0
BLOCK
  5
51B
330
512
100
AcDbEntity
  8
0
100
AcDbBlockBegin
  2
*D30
 70
     1
 71
     0
 10
0.0
 20
0.0
 30
0.0
  3
*D30
  1

  0
LINE
  5
513
330
512
100
AcDbEntity
  8
1
  6
Continuous
 62
     2
100
AcDbLine
 10
192.2289355429205
 20
27.43144150000001
 30
0.0
 11
193.2289355429205
 21
27.43144150000001
 31
0.0
  0
LINE
  5
514
330
512
100
AcDbEntity
  8
1
  6
Continuous
 62
     2
100
AcDbLine
 10
176.9325284527264
 20
64.36023495272642
 30
0.0
 11
177.6396352339129
 21
65.06734173391297
 31
0.0
  0
LINE
  5
515
330
512
100
AcDbEntity
  8
1
  6
Continuous
 62
     2
100
AcDbLine
 10
177.005327013636
 20
27.43144150000001
 30
0.0
 11
192.2289355429205
 21
27.43144150000001
 31
0.0
  0
LINE
  5
516
330
512
100
AcDbEntity
  8
1
  6
Continuous
 62
     2
100
AcDbLine
 10
164.2114964704432
 20
51.6392029704432
 30
0.0
 11
176.9325284527264
 21
64.36023495272642
 31
0.0
  0
ARC
  5
517
330
512
100
AcDbEntity
  8
1
  6
Continuous
 62
     2
100
AcDbCircle
 10
140.0037350000001
 20
27.43144150000001
 30
0.0
 40
52.22520054292039
100
AcDbArc
 50
0.0
 51
45.00000000000007
  0
SOLID
  5
518
330
512
100
AcDbEntity
  8
1
 62
     2
100
AcDbTrace
 10
191.6511518703809
 20
30.91403933555738
 30
0.0
 11
192.5722020178814
 21
30.94491411034581
 31
0.0
 12
192.2289355429205
 22
27.43144150000001
 32
0.0
 13
192.2289355429205
 23
27.43144150000001
 33
0.0
  0
SOLID
  5
519
330
512
100
AcDbEntity
  8
1
 62
     2
100
AcDbTrace
 10
179.659654813214
 20
62.11856069663654
 30
0.0
 11
178.986542245483
 21
61.48911165414657
 31
0.0
 12
176.9325284527264
 22
64.36023495272642
 32
0.0
 13
176.9325284527264
 23
64.36023495272642
 33
0.0
  0
MTEXT
  5
51A
330
512
100
AcDbEntity
  8
1
 62
     3
100
AcDbMText
 10
186.3619008128141
 20
55.72948447812081
 30
0.0
 40
3.5
 41
0.0
 71
     7
 72
     1
  1
45{\Fgdt;~}
  7
CONVERTER_15
 11
0.4717798414830442
 21
-0.8817163836349156
 31
0.0
 73
     1
 44
0.60024009603842
  0
ENDBLK
  5
51C
330
512
100
AcDbEntity
  8
0
100
AcDbBlockEnd
  0
ENDSEC
  0
SECTION
  2
ENTITIES
  0
INSERT
  5
52
330
1F
100
AcDbEntity
  8
1
100
AcDbBlockReference
  2
M3x10_DIN_84
 10
18.09287
 20
63.3689149604873
 30
0.0
  0
INSERT
  5
53
330
1F
100
AcDbEntity
  8
0
100
AcDbBlockReference
  2
Winkelflanschdose_8-polig_drehbar
 10
406.746688887328
 20
135.800892248901
 30
0.0
  0
INSERT
  5
54
330
1F
100
AcDbEntity
  8
1
100
AcDbBlockReference
  2
M2_5x6_DIN_7985
 10
21.243392
 20
65.8689187191097
 30
0.0
  0
INSERT
  5
55
330
1F
100
AcDbEntity
  8
1
100
AcDbBlockReference
  2
Steckerplatte
 10
17.89286999999999
 20
60.63118800000001
 30
0.0
  0
INSERT
  5
56
330
1F
100
AcDbEntity
  8
1
100
AcDbBlockReference
  2
Abschlu_deckel
 10
113.1448607962715
 20
-7.5060559604687
 30
0.0
  0
INSERT
  5
57
330
1F
100
AcDbEntity
  8
1
100
AcDbBlockReference
  2
Lagerschild_B-Seite
 10
6.642867
 20
-7.88105300000001
 30
0.0
  0
INSERT
  5
58
330
1F
100
AcDbEntity
  8
1
100
AcDbBlockReference
  2
Geh_use
 10
-33.35713800000001
 20
-7.50605200000001
 30
0.0
  0
INSERT
  5
59
330
1F
100
AcDbEntity
  8
0
100
AcDbBlockReference
  2
Winkelflanschdose_12-polig_drehbar
 10
374.8757286191631
 20
171.008929317636
 30
0.0
  0
INSERT
  5
5A
330
1F
100
AcDbEntity
  8
1
100
AcDbBlockReference
  2
tb_frame_A3
 10
0.0
 20
0.0
 30
0.0
  0
POINT
  5
381
330
1F
100
AcDbEntity
  8
1
 62
     3
 60
     1
100
AcDbPoint
 10
120.4330020000018
 20
7.86070850000183
 30
0.0
  0
POINT
  5
382
330
1F
100
AcDbEntity
  8
1
 62
     3
 60
     1
100
AcDbPoint
 10
115.9451142557891
 20
3.3728207557891
 30
0.0
  0
POINT
  5
383
330
1F
100
AcDbEntity
  8
1
 62
     3
 60
     1
100
AcDbPoint
 10
120.4969873015671
 20
47.06319219843296
 30
0.0
  0
POINT
  5
384
330
1F
100
AcDbEntity
  8
1
 62
     3
 60
     1
100
AcDbPoint
 10
115.8020653828982
 20
51.75811411710186
 30
0.0
  0
POINT
  5
385
330
1F
100
AcDbEntity
  8
1
 62
     3
 60
     1
100
AcDbPoint
 10
159.7930119845389
 20
47.2207184845389
 30
0.0
  0
POINT
  5
386
330
1F
100
AcDbEntity
  8
1
 62
     3
 60
     1
100
AcDbPoint
 10
164.2114964704432
 20
51.6392029704432
 30
0.0
  0
POINT
  5
387
330
1F
100
AcDbEntity
  8
1
 62
     3
 60
     1
100
AcDbPoint
 10
164.1221688366475
 20
3.43801066335255
 30
0.0
  0
POINT
  5
388
330
1F
100
AcDbEntity
  8
1
 62
     3
 60
     1
100
AcDbPoint
 10
159.4295983683419
 20
8.13058113165807
 30
0.0
  0
POINT
  5
389
330
1F
100
AcDbEntity
  8
1
 62
     3
 60
     1
100
AcDbPoint
 10
142.5662365
 20
35.09328507678534
 30
0.0
  0
POINT
  5
38A
330
1F
100
AcDbEntity
  8
1
 62
     3
 60
     1
100
AcDbPoint
 10
142.5662365
 20
37.493943
 30
0.0
  0
POINT
  5
38B
330
1F
100
AcDbEntity
  8
1
 62
     3
 60
     1
100
AcDbPoint
 10
137.5662365
 20
37.493943
 30
0.0
  0
POINT
  5
38C
330
1F
100
AcDbEntity
  8
1
 62
     3
 60
     1
100
AcDbPoint
 10
137.5662365
 20
35.09328507678534
 30
0.0
  0
POINT
  5
38D
330
1F
100
AcDbEntity
  8
1
 62
     3
 60
     1
100
AcDbPoint
 10
164.3304076171019
 20
-8.006057
 30
0.0
  0
POINT
  5
38E
330
1F
100
AcDbEntity
  8
1
 62
     3
 60
     1
100
AcDbPoint
 10
115.8020653828982
 20
-8.006057
 30
0.0
  0
POINT
  5
38F
330
1F
100
AcDbEntity
  8
1
 62
     3
 60
     1
100
AcDbPoint
 10
104.5662365
 20
3.22977188289815
 30
0.0
  0
POINT
  5
390
330
1F
100
AcDbEntity
  8
1
 62
     3
 60
     1
100
AcDbPoint
 10
104.5662365
 20
51.75811411710186
 30
0.0
  0
POINT
  5
391
330
1F
100
AcDbEntity
  8
1
 62
     3
 60
     1
100
AcDbPoint
 10
-33.35712100000002
 20
62.993943
 30
0.0
  0
POINT
  5
392
330
1F
100
AcDbEntity
  8
1
 62
     3
 60
     1
100
AcDbPoint
 10
-33.35712100000002
 20
-8.006057
 30
0.0
  0
POINT
  5
393
330
1F
100
AcDbEntity
  8
1
 62
     3
 60
     1
100
AcDbPoint
 10
-70.35712100000002
 20
62.993943
 30
0.0
  0
POINT
  5
394
330
1F
100
AcDbEntity
  8
1
 62
     3
 60
     1
100
AcDbPoint
 10
-70.35712100000002
 20
-8.006057
 30
0.0
  0
POINT
  5
395
330
1F
100
AcDbEntity
  8
1
 62
     3
 60
     1
100
AcDbPoint
 10
-73.357121
 20
58.493943
 30
0.0
  0
POINT
  5
396
330
1F
100
AcDbEntity
  8
1
 62
     3
 60
     1
100
AcDbPoint
 10
-82.357121
 20
58.493943
 30
0.0
  0
POINT
  5
397
330
1F
100
AcDbEntity
  8
1
 62
     3
 60
     1
100
AcDbPoint
 10
-73.357121
 20
-3.506057
 30
0.0
  0
POINT
  5
398
330
1F
100
AcDbEntity
  8
1
 62
     3
 60
     1
100
AcDbPoint
 10
-82.357121
 20
-3.506057
 30
0.0
  0
POINT
  5
399
330
1F
100
AcDbEntity
  8
1
 62
     3
 60
     1
100
AcDbPoint
 10
-82.357121
 20
62.493943
 30
0.0
  0
POINT
  5
39A
330
1F
100
AcDbEntity
  8
1
 62
     3
 60
     1
100
AcDbPoint
 10
-82.357121
 20
-7.506057
 30
0.0
  0
POINT
  5
39B
330
1F
100
AcDbEntity
  8
1
 62
     3
 60
     1
100
AcDbPoint
 10
-119.357121
 20
62.493943
 30
0.0
  0
POINT
  5
39C
330
1F
100
AcDbEntity
  8
1
 62
     3
 60
     1
100
AcDbPoint
 10
-119.357121
 20
-7.506057
 30
0.0
  0
POINT
  5
39D
330
1F
100
AcDbEntity
  8
1
 62
     3
 60
     1
100
AcDbPoint
 10
-73.357121
 20
59.493943
 30
0.0
  0
POINT
  5
39E
330
1F
100
AcDbEntity
  8
1
 62
     3
 60
     1
100
AcDbPoint
 10
-73.357121
 20
-4.506057
 30
0.0
  0
POINT
  5
39F
330
1F
100
AcDbEntity
  8
1
 62
     3
 60
     1
100
AcDbPoint
 10
-119.357121
 20
53.493943
 30
0.0
  0
POINT
  5
3A0
330
1F
100
AcDbEntity
  8
1
 62
     3
 60
     1
100
AcDbPoint
 10
-126.357121
 20
53.493943
 30
0.0
  0
POINT
  5
3A1
330
1F
100
AcDbEntity
  8
1
 62
     3
 60
     1
100
AcDbPoint
 10
-126.357121
 20
1.493943
 30
0.0
  0
POINT
  5
3A2
330
1F
100
AcDbEntity
  8
1
 62
     3
 60
     1
100
AcDbPoint
 10
-119.357121
 20
1.493943
 30
0.0
  0
POINT
  5
3A3
330
1F
100
AcDbEntity
  8
1
 62
     3
 60
     1
100
AcDbPoint
 10
-126.357121
 20
17.493943
 30
0.0
  0
POINT
  5
3A4
330
1F
100
AcDbEntity
  8
1
 62
     3
 60
     1
100
AcDbPoint
 10
-127.357121
 20
17.493943
 30
0.0
  0
POINT
  5
3A5
330
1F
100
AcDbEntity
  8
1
 62
     3
 60
     1
100
AcDbPoint
 10
-127.357121
 20
37.493943
 30
0.0
  0
POINT
  5
3A6
330
1F
100
AcDbEntity
  8
1
 62
     3
 60
     1
100
AcDbPoint
 10
-126.357121
 20
37.493943
 30
0.0
  0
POINT
  5
3A7
330
1F
100
AcDbEntity
  8
1
 62
     3
 60
     1
100
AcDbPoint
 10
-127.357121
 20
35.493943
 30
0.0
  0
POINT
  5
3A8
330
1F
100
AcDbEntity
  8
1
 62
     3
 60
     1
100
AcDbPoint
 10
-155.357121
 20
35.493943
 30
0.0
  0
POINT
  5
3A9
330
1F
100
AcDbEntity
  8
1
 62
     3
 60
     1
100
AcDbPoint
 10
-155.357121
 20
19.493943
 30
0.0
  0
POINT
  5
3AA
330
1F
100
AcDbEntity
  8
1
 62
     3
 60
     1
100
AcDbPoint
 10
-127.357121
 20
19.493943
 30
0.0
  0
POINT
  5
3AB
330
1F
100
AcDbEntity
  8
1
 62
     3
 60
     1
100
AcDbPoint
 10
-153.357121
 20
35.493943
 30
0.0
  0
POINT
  5
3AC
330
1F
100
AcDbEntity
  8
1
 62
     3
 60
     1
100
AcDbPoint
 10
-153.357121
 20
37.493943
 30
0.0
  0
POINT
  5
3AD
330
1F
100
AcDbEntity
  8
1
 62
     3
 60
     1
100
AcDbPoint
 10
-128.357121
 20
37.493943
 30
0.0
  0
POINT
  5
3AE
330
1F
100
AcDbEntity
  8
1
 62
     3
 60
     1
100
AcDbPoint
 10
-128.357121
 20
35.493943
 30
0.0
  0
POINT
  5
3AF
330
1F
100
AcDbEntity
  8
1
 62
     3
 60
     1
100
AcDbPoint
 10
-150.357121
 20
35.09328507678534
 30
0.0
  0
POINT
  5
3B0
330
1F
100
AcDbEntity
  8
1
 62
     3
 60
     1
100
AcDbPoint
 10
-131.357121
 20
35.09328507678534
 30
0.0
  0
POINT
  5
3B1
330
1F
100
AcDbEntity
  8
1
 62
     3
 60
     1
100
AcDbPoint
 10
-62.85712100000002
 20
51.493943
 30
0.0
  0
POINT
  5
3B2
330
1F
100
AcDbEntity
  8
1
 62
     3
 60
     1
100
AcDbPoint
 10
-62.85712100000002
 20
62.993943
 30
0.0
  0
POINT
  5
3B3
330
1F
100
AcDbEntity
  8
1
 62
     3
 60
     1
100
AcDbPoint
 10
-62.85712100000002
 20
3.493943
 30
0.0
  0
POINT
  5
3B4
330
1F
100
AcDbEntity
  8
1
 62
     3
 60
     1
100
AcDbPoint
 10
-62.85712100000002
 20
-8.006057
 30
0.0
  0
POINT
  5
3B5
330
1F
100
AcDbEntity
  8
1
 62
     3
 60
     1
100
AcDbPoint
 10
134.378332704243
 20
-18.4261959664392
 30
0.0
  0
POINT
  5
3B6
330
1F
100
AcDbEntity
  8
1
 62
     3
 60
     1
100
AcDbPoint
 10
137.378332704243
 20
-21.4261959664392
 30
0.0
  0
POINT
  5
3B7
330
1F
100
AcDbEntity
  8
1
 62
     3
 60
     1
100
AcDbPoint
 10
134.378332704243
 20
-21.4261959664392
 30
0.0
  0
POINT
  5
3B8
330
1F
100
AcDbEntity
  8
1
 62
     3
 60
     1
100
AcDbPoint
 10
-159.0
 20
-60.0
 30
0.0
  0
POINT
  5
3B9
330
1F
100
AcDbEntity
  8
1
 62
     3
 60
     1
100
AcDbPoint
 10
-159.0
 20
-34.26573922218802
 30
0.0
  0
POINT
  5
3BA
330
1F
100
AcDbEntity
  8
1
 62
     3
 60
     1
100
AcDbPoint
 10
-159.0
 20
-64.865739222188
 30
0.0
  0
POINT
  5
3BB
330
1F
100
AcDbEntity
  8
1
 62
     3
 60
     1
100
AcDbPoint
 10
-159.0
 20
-82.86573922218801
 30
0.0
  0
POINT
  5
3BC
330
1F
100
AcDbEntity
  8
1
 62
     3
 60
     1
100
AcDbPoint
 10
-159.0
 20
-55.865739222188
 30
0.0
  0
LINE
  5
3BD
330
1F
100
AcDbEntity
  8
1
  6
DOT_CENTER
 62
     2
100
AcDbLine
 10
140.0830009435952
 20
64.86891848900709
 30
0.0
 11
139.9862119330384
 21
-10.56292761000064
 31
0.0
  0
LINE
  5
3BE
330
1F
100
AcDbEntity
  8
1
  6
DOT_CENTER
 62
     2
100
AcDbLine
 10
103.0775863463092
 20
27.43144150000001
 30
0.0
 11
177.005327013636
 21
27.43144150000001
 31
0.0
  0
LINE
  5
3BF
330
1F
100
AcDbEntity
  8
1
  6
DOT_CENTER
 62
     2
100
AcDbLine
 10
115.9451142557891
 20
3.3728207557891
 30
0.0
 11
120.4330020000018
 21
7.86070850000183
 31
0.0
  0
LINE
  5
3C0
330
1F
100
AcDbEntity
  8
1
  6
DOT_CENTER
 62
     2
100
AcDbLine
 10
115.8020653828982
 20
51.75811411710186
 30
0.0
 11
120.4969873015671
 21
47.06319219843296
 31
0.0
  0
LINE
  5
3C1
330
1F
100
AcDbEntity
  8
1
  6
DOT_CENTER
 62
     2
100
AcDbLine
 10
164.2114964704432
 20
51.6392029704432
 30
0.0
 11
159.7930119845389
 21
47.2207184845389
 31
0.0
  0
LINE
  5
3C2
330
1F
100
AcDbEntity
  8
1
  6
DOT_CENTER
 62
     2
100
AcDbLine
 10
159.4295983683419
 20
8.13058113165807
 30
0.0
 11
164.1221688366475
 21
3.43801066335255
 31
0.0
  0
LINE
  5
3C3
330
1F
100
AcDbEntity
  8
1
  6
Continuous
 62
     7
100
AcDbLine
 10
142.5662365
 20
37.493943
 30
0.0
 11
142.5662365
 21
35.09328507678534
 31
0.0
  0
LINE
  5
3C4
330
1F
100
AcDbEntity
  8
1
  6
Continuous
 62
     7
100
AcDbLine
 10
137.5662365
 20
37.493943
 30
0.0
 11
142.5662365
 21
37.493943
 31
0.0
  0
LINE
  5
3C5
330
1F
100
AcDbEntity
  8
1
  6
Continuous
 62
     7
100
AcDbLine
 10
137.5662365
 20
35.09328507678534
 30
0.0
 11
137.5662365
 21
37.493943
 31
0.0
  0
LINE
  5
3C6
330
1F
100
AcDbEntity
  8
1
  6
Continuous
 62
     7
100
AcDbLine
 10
115.8020653828982
 20
-8.006057
 30
0.0
 11
164.3304076171019
 21
-8.006057
 31
0.0
  0
LINE
  5
3C7
330
1F
100
AcDbEntity
  8
1
  6
Continuous
 62
     7
100
AcDbLine
 10
175.5662365
 20
51.75811411710186
 30
0.0
 11
175.441233
 21
3.04788764080172
 31
0.0
  0
LINE
  5
3C8
330
1F
100
AcDbEntity
  8
1
  6
Continuous
 62
     7
100
AcDbLine
 10
115.6201818643335
 20
62.86894000000001
 30
0.0
 11
164.5122911356665
 21
62.86894000000001
 31
0.0
  0
LINE
  5
3C9
330
1F
100
AcDbEntity
  8
1
  6
Continuous
 62
     7
100
AcDbLine
 10
104.5662365
 20
51.75811411710186
 30
0.0
 11
104.5662365
 21
3.22977188289815
 31
0.0
  0
LINE
  5
3CA
330
1F
100
AcDbEntity
  8
1
  6
Continuous
 62
     7
100
AcDbLine
 10
-147.0397488746636
 20
-64.865739222188
 30
0.0
 11
126.960251125336
 21
-64.865739222188
 31
0.0
  0
LINE
  5
3CB
330
1F
100
AcDbEntity
  8
1
  6
Continuous
 62
     2
100
AcDbLine
 10
-81.03974887466359
 20
-34.26573922218802
 30
0.0
 11
-81.03974887466359
 21
-82.86573922218801
 31
0.0
  0
LINE
  5
3CC
330
1F
100
AcDbEntity
  8
1
  6
Continuous
 62
     7
100
AcDbLine
 10
-147.0397488746636
 20
-82.86573922218801
 30
0.0
 11
126.960251125336
 21
-82.86573922218801
 31
0.0
  0
LINE
  5
3CD
330
1F
100
AcDbEntity
  8
1
  6
Continuous
 62
     7
100
AcDbLine
 10
126.960251125336
 20
-34.26573922218802
 30
0.0
 11
126.960251125336
 21
-82.86573922218801
 31
0.0
  0
LINE
  5
3CE
330
1F
100
AcDbEntity
  8
1
  6
Continuous
 62
     7
100
AcDbLine
 10
-147.0397488746636
 20
-34.26573922218802
 30
0.0
 11
126.960251125336
 21
-34.26573922218802
 31
0.0
  0
LINE
  5
3CF
330
1F
100
AcDbEntity
  8
1
  6
Continuous
 62
     2
100
AcDbLine
 10
-44.03974887466369
 20
-34.26573922218802
 30
0.0
 11
-44.03974887466369
 21
-82.86573922218801
 31
0.0
  0
LINE
  5
3D0
330
1F
100
AcDbEntity
  8
1
  6
Continuous
 62
     2
100
AcDbLine
 10
14.96025112533611
 20
-34.26573922218802
 30
0.0
 11
14.96025112533611
 21
-82.86573922218801
 31
0.0
  0
LINE
  5
3D1
330
1F
100
AcDbEntity
  8
1
  6
Continuous
 62
     2
100
AcDbLine
 10
51.960251125336
 20
-34.26573922218802
 30
0.0
 11
51.960251125336
 21
-82.86573922218801
 31
0.0
  0
LINE
  5
3D2
330
1F
100
AcDbEntity
  8
1
  6
Continuous
 62
     2
100
AcDbLine
 10
110.9602511253358
 20
-34.26573922218802
 30
0.0
 11
110.9602511253358
 21
-82.86573922218801
 31
0.0
  0
LINE
  5
3D3
330
1F
100
AcDbEntity
  8
1
  6
Continuous
 62
     2
100
AcDbLine
 10
-147.0397488746636
 20
-55.865739222188
 30
0.0
 11
126.960251125336
 21
-55.865739222188
 31
0.0
  0
LINE
  5
3D4
330
1F
100
AcDbEntity
  8
1
  6
Continuous
 62
     7
100
AcDbLine
 10
-63.74784914804548
 20
-48.68455743483406
 30
0.0
 11
-62.74784914804548
 21
-47.68455743483406
 31
0.0
  0
LINE
  5
3D5
330
1F
100
AcDbEntity
  8
1
  6
Continuous
 62
     7
100
AcDbLine
 10
-24.74784914804547
 20
-48.68455743483406
 30
0.0
 11
-23.74784914804547
 21
-47.68455743483406
 31
0.0
  0
LINE
  5
3D6
330
1F
100
AcDbEntity
  8
1
  6
Continuous
 62
     7
100
AcDbLine
 10
-33.35712100000002
 20
62.993943
 30
0.0
 11
-33.35712100000002
 21
-8.006057
 31
0.0
  0
LINE
  5
3D7
330
1F
100
AcDbEntity
  8
1
  6
Continuous
 62
     7
100
AcDbLine
 10
-33.35712100000002
 20
62.993943
 30
0.0
 11
-62.85712100000002
 21
62.993943
 31
0.0
  0
LINE
  5
3D8
330
1F
100
AcDbEntity
  8
1
  6
Continuous
 62
     7
100
AcDbLine
 10
-33.35712100000002
 20
-8.006057
 30
0.0
 11
-62.85712100000002
 21
-8.006057
 31
0.0
  0
LINE
  5
3D9
330
1F
100
AcDbEntity
  8
1
  6
Continuous
 62
     7
100
AcDbLine
 10
-73.357121
 20
58.493943
 30
0.0
 11
-82.357121
 21
58.493943
 31
0.0
  0
LINE
  5
3DA
330
1F
100
AcDbEntity
  8
1
  6
Continuous
 62
     7
100
AcDbLine
 10
-73.357121
 20
-3.506057
 30
0.0
 11
-82.357121
 21
-3.506057
 31
0.0
  0
LINE
  5
3DB
330
1F
100
AcDbEntity
  8
1
  6
Continuous
 62
     7
100
AcDbLine
 10
-82.357121
 20
62.493943
 30
0.0
 11
-82.357121
 21
-7.506057
 31
0.0
  0
LINE
  5
3DC
330
1F
100
AcDbEntity
  8
1
  6
Continuous
 62
     7
100
AcDbLine
 10
-119.357121
 20
62.493943
 30
0.0
 11
-119.357121
 21
53.493943
 31
0.0
  0
LINE
  5
3DD
330
1F
100
AcDbEntity
  8
1
  6
Continuous
 62
     7
100
AcDbLine
 10
-119.357121
 20
62.493943
 30
0.0
 11
-82.357121
 21
62.493943
 31
0.0
  0
LINE
  5
3DE
330
1F
100
AcDbEntity
  8
1
  6
Continuous
 62
     7
100
AcDbLine
 10
-119.357121
 20
-7.506057
 30
0.0
 11
-82.357121
 21
-7.506057
 31
0.0
  0
LINE
  5
3DF
330
1F
100
AcDbEntity
  8
1
  6
Continuous
 62
     7
100
AcDbLine
 10
-70.35712100000002
 20
62.993943
 30
0.0
 11
-73.357121
 21
59.493943
 31
0.0
  0
LINE
  5
3E0
330
1F
100
AcDbEntity
  8
1
  6
Continuous
 62
     7
100
AcDbLine
 10
-73.357121
 20
59.493943
 30
0.0
 11
-73.357121
 21
-4.506057
 31
0.0
  0
LINE
  5
3E1
330
1F
100
AcDbEntity
  8
1
  6
Continuous
 62
     7
100
AcDbLine
 10
-73.357121
 20
-4.506057
 30
0.0
 11
-70.35712100000002
 21
-8.006057
 31
0.0
  0
LINE
  5
3E2
330
1F
100
AcDbEntity
  8
1
  6
Continuous
 62
     7
100
AcDbLine
 10
-119.357121
 20
53.493943
 30
0.0
 11
-126.357121
 21
53.493943
 31
0.0
  0
LINE
  5
3E3
330
1F
100
AcDbEntity
  8
1
  6
Continuous
 62
     7
100
AcDbLine
 10
-119.357121
 20
53.493943
 30
0.0
 11
-119.357121
 21
1.493943
 31
0.0
  0
LINE
  5
3E4
330
1F
100
AcDbEntity
  8
1
  6
Continuous
 62
     7
100
AcDbLine
 10
-126.357121
 20
53.493943
 30
0.0
 11
-126.357121
 21
37.493943
 31
0.0
  0
LINE
  5
3E5
330
1F
100
AcDbEntity
  8
1
  6
Continuous
 62
     7
100
AcDbLine
 10
-126.357121
 20
1.493943
 30
0.0
 11
-119.357121
 21
1.493943
 31
0.0
  0
LINE
  5
3E6
330
1F
100
AcDbEntity
  8
1
  6
Continuous
 62
     7
100
AcDbLine
 10
-119.357121
 20
1.493943
 30
0.0
 11
-119.357121
 21
-7.506057
 31
0.0
  0
LINE
  5
3E7
330
1F
100
AcDbEntity
  8
1
  6
Continuous
 62
     7
100
AcDbLine
 10
-126.357121
 20
17.493943
 30
0.0
 11
-127.357121
 21
17.493943
 31
0.0
  0
LINE
  5
3E8
330
1F
100
AcDbEntity
  8
1
  6
Continuous
 62
     7
100
AcDbLine
 10
-126.357121
 20
17.493943
 30
0.0
 11
-126.357121
 21
1.493943
 31
0.0
  0
LINE
  5
3E9
330
1F
100
AcDbEntity
  8
1
  6
Continuous
 62
     7
100
AcDbLine
 10
-127.357121
 20
17.493943
 30
0.0
 11
-127.357121
 21
19.493943
 31
0.0
  0
LINE
  5
3EA
330
1F
100
AcDbEntity
  8
1
  6
Continuous
 62
     7
100
AcDbLine
 10
-127.357121
 20
37.493943
 30
0.0
 11
-126.357121
 21
37.493943
 31
0.0
  0
LINE
  5
3EB
330
1F
100
AcDbEntity
  8
1
  6
Continuous
 62
     7
100
AcDbLine
 10
-126.357121
 20
37.493943
 30
0.0
 11
-126.357121
 21
17.493943
 31
0.0
  0
LINE
  5
3EC
330
1F
100
AcDbEntity
  8
1
  6
Continuous
 62
     7
100
AcDbLine
 10
-127.357121
 20
35.493943
 30
0.0
 11
-128.357121
 21
35.493943
 31
0.0
  0
LINE
  5
3ED
330
1F
100
AcDbEntity
  8
1
  6
Continuous
 62
     7
100
AcDbLine
 10
-127.357121
 20
35.493943
 30
0.0
 11
-127.357121
 21
37.493943
 31
0.0
  0
LINE
  5
3EE
330
1F
100
AcDbEntity
  8
1
  6
Continuous
 62
     7
100
AcDbLine
 10
-155.357121
 20
35.493943
 30
0.0
 11
-155.357121
 21
19.493943
 31
0.0
  0
LINE
  5
3EF
330
1F
100
AcDbEntity
  8
1
  6
Continuous
 62
     7
100
AcDbLine
 10
-155.357121
 20
19.493943
 30
0.0
 11
-127.357121
 21
19.493943
 31
0.0
  0
LINE
  5
3F0
330
1F
100
AcDbEntity
  8
1
  6
Continuous
 62
     7
100
AcDbLine
 10
-127.357121
 20
19.493943
 30
0.0
 11
-127.357121
 21
35.493943
 31
0.0
  0
LINE
  5
3F1
330
1F
100
AcDbEntity
  8
1
  6
Continuous
 62
     7
100
AcDbLine
 10
-153.357121
 20
35.493943
 30
0.0
 11
-153.357121
 21
37.493943
 31
0.0
  0
LINE
  5
3F2
330
1F
100
AcDbEntity
  8
1
  6
Continuous
 62
     7
100
AcDbLine
 10
-153.357121
 20
35.493943
 30
0.0
 11
-155.357121
 21
35.493943
 31
0.0
  0
LINE
  5
3F3
330
1F
100
AcDbEntity
  8
1
  6
Continuous
 62
     7
100
AcDbLine
 10
-153.357121
 20
37.493943
 30
0.0
 11
-128.357121
 21
37.493943
 31
0.0
  0
LINE
  5
3F4
330
1F
100
AcDbEntity
  8
1
  6
Continuous
 62
     7
100
AcDbLine
 10
-128.357121
 20
37.493943
 30
0.0
 11
-128.357121
 21
35.493943
 31
0.0
  0
LINE
  5
3F5
330
1F
100
AcDbEntity
  8
1
  6
Continuous
 62
     7
100
AcDbLine
 10
-150.357121
 20
35.09328507678534
 30
0.0
 11
-131.357121
 21
35.09328507678534
 31
0.0
  0
LINE
  5
3F6
330
1F
100
AcDbEntity
  8
1
  6
Continuous
 62
     7
100
AcDbLine
 10
-33.35713800000001
 20
51.493943
 30
0.0
 11
-62.85712100000002
 21
51.493943
 31
0.0
  0
LINE
  5
3F7
330
1F
100
AcDbEntity
  8
1
  6
Continuous
 62
     7
100
AcDbLine
 10
-62.85712100000002
 20
51.493943
 30
0.0
 11
-62.85712100000002
 21
62.993943
 31
0.0
  0
LINE
  5
3F8
330
1F
100
AcDbEntity
  8
1
  6
Continuous
 62
     7
100
AcDbLine
 10
-62.85712100000002
 20
62.993943
 30
0.0
 11
-70.35712100000002
 21
62.993943
 31
0.0
  0
LINE
  5
3F9
330
1F
100
AcDbEntity
  8
1
  6
Continuous
 62
     7
100
AcDbLine
 10
-33.35713800000001
 20
3.493943
 30
0.0
 11
-62.85712100000002
 21
3.493943
 31
0.0
  0
LINE
  5
3FA
330
1F
100
AcDbEntity
  8
1
  6
Continuous
 62
     7
100
AcDbLine
 10
-62.85712100000002
 20
3.493943
 30
0.0
 11
-62.85712100000002
 21
-8.006057
 31
0.0
  0
LINE
  5
3FB
330
1F
100
AcDbEntity
  8
1
  6
Continuous
 62
     7
100
AcDbLine
 10
-62.85712100000002
 20
-8.006057
 30
0.0
 11
-70.35712100000002
 21
-8.006057
 31
0.0
  0
LINE
  5
3FC
330
1F
100
AcDbEntity
  8
1
  6
DOT_CENTER
 62
     2
100
AcDbLine
 10
-31.35712100000002
 20
27.493943
 30
0.0
 11
-64.85712100000002
 21
27.493943
 31
0.0
  0
LINE
  5
3FD
330
1F
100
AcDbEntity
  8
1
  6
DOT_CENTER
 62
     2
100
AcDbLine
 10
-60.85712100000002
 20
27.493943
 30
0.0
 11
-72.35712100000002
 21
27.493943
 31
0.0
  0
LINE
  5
3FE
330
1F
100
AcDbEntity
  8
1
  6
DOT_CENTER
 62
     2
100
AcDbLine
 10
-71.357121
 20
27.493943
 30
0.0
 11
-84.357121
 21
27.493943
 31
0.0
  0
LINE
  5
3FF
330
1F
100
AcDbEntity
  8
1
  6
DOT_CENTER
 62
     2
100
AcDbLine
 10
-121.357121
 20
27.493943
 30
0.0
 11
-80.357121
 21
27.493943
 31
0.0
  0
LINE
  5
400
330
1F
100
AcDbEntity
  8
1
  6
DOT_CENTER
 62
     2
100
AcDbLine
 10
-128.357121
 20
27.493943
 30
0.0
 11
-117.357121
 21
27.493943
 31
0.0
  0
LINE
  5
401
330
1F
100
AcDbEntity
  8
1
  6
DOT_CENTER
 62
     2
100
AcDbLine
 10
-157.357121
 20
27.493943
 30
0.0
 11
-125.357121
 21
27.493943
 31
0.0
  0
LINE
  5
402
330
1F
100
AcDbEntity
  8
1
  6
Continuous
 62
     2
100
AcDbLine
 10
134.378332704243
 20
-18.4261959664392
 30
0.0
 11
137.378332704243
 21
-18.4261959664392
 31
0.0
  0
LINE
  5
403
330
1F
100
AcDbEntity
  8
1
  6
Continuous
 62
     2
100
AcDbLine
 10
137.378332704243
 20
-18.4261959664392
 30
0.0
 11
137.378332704243
 21
-21.4261959664392
 31
0.0
  0
LINE
  5
404
330
1F
100
AcDbEntity
  8
1
  6
Continuous
 62
     2
100
AcDbLine
 10
137.378332704243
 20
-21.4261959664392
 30
0.0
 11
134.378332704243
 21
-21.4261959664392
 31
0.0
  0
LINE
  5
405
330
1F
100
AcDbEntity
  8
1
  6
Continuous
 62
     2
100
AcDbLine
 10
134.378332704243
 20
-21.4261959664392
 30
0.0
 11
134.378332704243
 21
-18.4261959664392
 31
0.0
  0
LINE
  5
406
330
1F
100
AcDbEntity
  8
1
  6
Continuous
 62
     7
100
AcDbLine
 10
-147.0397488746636
 20
-34.26573922218802
 30
0.0
 11
-159.0
 21
-34.26573922218802
 31
0.0
  0
LINE
  5
407
330
1F
100
AcDbEntity
  8
1
  6
Continuous
 62
     7
100
AcDbLine
 10
-147.0397488746636
 20
-64.865739222188
 30
0.0
 11
-159.0
 21
-64.865739222188
 31
0.0
  0
LINE
  5
408
330
1F
100
AcDbEntity
  8
1
  6
Continuous
 62
     7
100
AcDbLine
 10
-147.0397488746636
 20
-82.86573922218801
 30
0.0
 11
-159.0
 21
-82.86573922218801
 31
0.0
  0
LINE
  5
409
330
1F
100
AcDbEntity
  8
1
  6
Continuous
 62
     2
100
AcDbLine
 10
-147.0397488746636
 20
-55.865739222188
 30
0.0
 11
-159.0
 21
-55.865739222188
 31
0.0
  0
LINE
  5
40A
330
1F
100
AcDbEntity
  8
1
  6
Continuous
 62
     7
100
AcDbLine
 10
-159.0
 20
-34.26573922218802
 30
0.0
 11
-159.0
 21
-82.86573922218801
 31
0.0
  0
LINE
  5
40B
330
1F
100
AcDbEntity
  8
1
  6
Continuous
 62
     2
100
AcDbLine
 10
-147.0397488746636
 20
-73.865739222188
 30
0.0
 11
126.960251125336
 21
-73.865739222188
 31
0.0
  0
LINE
  5
40C
330
1F
100
AcDbEntity
  8
1
  6
Continuous
 62
     2
100
AcDbLine
 10
-147.0397488746636
 20
-73.865739222188
 30
0.0
 11
-159.0
 21
-73.865739222188
 31
0.0
  0
ARC
  5
40D
330
1F
100
AcDbEntity
  8
1
  6
Continuous
 62
     2
100
AcDbCircle
 10
161.986546716783
 20
5.57363278321703
 30
0.0
 40
2.500000000000008
100
AcDbArc
 50
14.99999999999994
 51
-75.00000000000013
  0
ARC
  5
40E
330
1F
100
AcDbEntity
  8
1
  6
Continuous
 62
     2
100
AcDbCircle
 10
118.145926283217
 20
5.57363278321704
 30
0.0
 40
2.500000000000036
100
AcDbArc
 50
14.99999999999979
 51
-74.99999999999983
  0
ARC
  5
40F
330
1F
100
AcDbEntity
  8
1
  6
Continuous
 62
     2
100
AcDbCircle
 10
161.986546716783
 20
49.41425321678297
 30
0.0
 40
2.500000000000008
100
AcDbArc
 50
14.99999999999998
 51
-75.0000000000001
  0
ARC
  5
410
330
1F
100
AcDbEntity
  8
1
  6
Continuous
 62
     2
100
AcDbCircle
 10
118.145926283217
 20
49.41425321678297
 30
0.0
 40
2.500000000000038
100
AcDbArc
 50
14.99999999999997
 51
-74.99999999999979
  0
ARC
  5
411
330
1F
100
AcDbEntity
  8
1
  6
Continuous
 62
     7
100
AcDbCircle
 10
140.0662365
 20
27.493943
 30
0.0
 40
10.0
100
AcDbArc
 50
0.0
 51
75.52248781407006
  0
ARC
  5
412
330
1F
100
AcDbEntity
  8
1
  6
Continuous
 62
     7
100
AcDbCircle
 10
140.0662365
 20
27.493943
 30
0.0
 40
9.999999999999993
100
AcDbArc
 50
104.4775121859299
 51
0.0
  0
ARC
  5
413
330
1F
100
AcDbEntity
  8
1
  6
Continuous
 62
     7
100
AcDbCircle
 10
140.0662365
 20
27.493943
 30
0.0
 40
9.499999999999998
100
AcDbArc
 50
105.2575232904564
 51
0.0
  0
ARC
  5
414
330
1F
100
AcDbEntity
  8
1
  6
Continuous
 62
     7
100
AcDbCircle
 10
140.0662365
 20
27.493943
 30
0.0
 40
9.5
100
AcDbArc
 50
0.0
 51
74.74247670954362
  0
ARC
  5
415
330
1F
100
AcDbEntity
  8
1
  6
Continuous
 62
     7
100
AcDbCircle
 10
140.0662365
 20
27.493943
 30
0.0
 40
8.000000000000009
100
AcDbArc
 50
71.79004313571701
 51
108.209956864283
  0
ARC
  5
416
330
1F
100
AcDbEntity
  8
1
  6
Continuous
 62
     7
100
AcDbCircle
 10
140.0662365
 20
27.493943
 30
0.0
 40
8.000000000000009
100
AcDbArc
 50
108.209956864283
 51
71.79004313571701
  0
ARC
  5
417
330
1F
100
AcDbEntity
  8
1
  6
Continuous
 62
     7
100
AcDbCircle
 10
140.0662365
 20
27.493943
 30
0.0
 40
43.0
100
AcDbArc
 50
-145.6474802295405
 51
-124.3525197704595
  0
ARC
  5
418
330
1F
100
AcDbEntity
  8
1
  6
Continuous
 62
     7
100
AcDbCircle
 10
140.0662365
 20
27.493943
 30
0.0
 40
43.00000000000003
100
AcDbArc
 50
-55.6474802295404
 51
-34.64659178653579
  0
ARC
  5
419
330
1F
100
AcDbEntity
  8
1
  6
Continuous
 62
     7
100
AcDbCircle
 10
140.0662365
 20
27.493943
 30
0.0
 40
43.0
100
AcDbArc
 50
34.35251977045955
 51
55.35340938534611
  0
ARC
  5
41A
330
1F
100
AcDbEntity
  8
1
  6
Continuous
 62
     7
100
AcDbCircle
 10
140.0662365
 20
27.493943
 30
0.0
 40
43.00000000000001
100
AcDbArc
 50
124.6465906146539
 51
145.6474802295405
  0
ARC
  5
41B
330
1F
100
AcDbEntity
  8
1
  6
Continuous
 62
     7
100
AcDbCircle
 10
-131.357121
 20
46.52514033367827
 30
0.0
 40
11.43185525689293
100
AcDbArc
 50
-90.0
 51
-74.78602212316503
  0
ARC
  5
41C
330
1F
100
AcDbEntity
  8
1
  6
Continuous
 62
     7
100
AcDbCircle
 10
-150.357121
 20
46.52514033367848
 30
0.0
 40
11.43185525689313
100
AcDbArc
 50
-105.2139778768347
 51
-90.0
  0
ARC
  5
41D
330
1F
100
AcDbEntity
  8
1
  6
Continuous
 62
     7
100
AcDbCircle
 10
-28.20712100000002
 20
27.493943
 30
0.0
 40
42.15000000000001
100
AcDbArc
 50
145.2919507274773
 51
-145.2919507274773
  0
CIRCLE
  5
41E
330
1F
100
AcDbEntity
  8
1
  6
DOT_CENTER
 62
     2
100
AcDbCircle
 10
140.0662365
 20
27.493943
 30
0.0
 40
31.00000000000002
  0
CIRCLE
  5
41F
330
1F
100
AcDbEntity
  8
1
  6
Continuous
 62
     7
100
AcDbCircle
 10
161.986546716783
 20
5.57363278321703
 30
0.0
 40
2.0
  0
CIRCLE
  5
420
330
1F
100
AcDbEntity
  8
1
  6
Continuous
 62
     7
100
AcDbCircle
 10
118.145926283217
 20
5.57363278321704
 30
0.0
 40
2.0
  0
CIRCLE
  5
421
330
1F
100
AcDbEntity
  8
1
  6
Continuous
 62
     7
100
AcDbCircle
 10
161.986546716783
 20
49.41425321678297
 30
0.0
 40
2.0
  0
CIRCLE
  5
422
330
1F
100
AcDbEntity
  8
1
  6
Continuous
 62
     7
100
AcDbCircle
 10
118.145926283217
 20
49.41425321678297
 30
0.0
 40
2.0
  0
CIRCLE
  5
423
330
1F
100
AcDbEntity
  8
1
  6
Continuous
 62
     7
100
AcDbCircle
 10
140.0662365
 20
27.493943
 30
0.0
 40
26.0
  0
CIRCLE
  5
424
330
1F
100
AcDbEntity
  8
1
  6
Continuous
 62
     7
100
AcDbCircle
 10
140.0662365
 20
27.493943
 30
0.0
 40
35.0
  0
MTEXT
  5
425
330
1F
100
AcDbEntity
  8
1
 62
     3
100
AcDbMText
 10
-155.0397488746636
 20
-78.365739222188
 30
0.0
 40
3.5
 41
0.0
 71
     4
 72
     1
  1
KSG 268... D(-MF)-R..(/S23)/PLG70
  7
CONVERTER_15
 73
     1
 44
1.32052821128451
  0
MTEXT
  5
426
330
1F
100
AcDbEntity
  8
1
 62
     3
100
AcDbMText
 10
-63.03974887466364
 20
-78.365739222188
 30
0.0
 40
3.5
 41
0.0
 71
     5
 72
     1
  1
213
  7
CONVERTER_15
 73
     1
 44
1.32052821128451
  0
MTEXT
  5
427
330
1F
100
AcDbEntity
  8
1
 62
     3
100
AcDbMText
 10
-15.03974887466379
 20
-78.365739222188
 30
0.0
 40
3.5
 41
0.0
 71
     5
 72
     1
  1
258
  7
CONVERTER_15
 73
     1
 44
1.32052821128451
  0
MTEXT
  5
428
330
1F
100
AcDbEntity
  8
1
 62
     3
100
AcDbMText
 10
118.9602511253358
 20
-78.365739222188
 30
0.0
 40
3.5
 41
0.0
 71
     5
 72
     1
  1
192
  7
CONVERTER_15
 73
     1
 44
1.32052821128451
  0
MTEXT
  5
429
330
1F
100
AcDbEntity
  8
1
 62
     7
100
AcDbMText
 10
-15.03974887466379
 20
-60.665739222188
 30
0.0
 40
3.5
 41
0.0
 71
     5
 72
     1
  1
k
  7
CONVERTER_15
 73
     1
 44
1.32052821128451
  0
MTEXT
  5
42A
330
1F
100
AcDbEntity
  8
1
 62
     3
100
AcDbMText
 10
-15.03974887466379
 20
-69.365739222188
 30
0.0
 40
3.5
 41
0.0
 71
     5
 72
     1
  1
218
  7
CONVERTER_15
 73
     1
 44
1.32052821128451
  0
MTEXT
  5
42B
330
1F
100
AcDbEntity
  8
1
 62
     3
100
AcDbMText
 10
-63.03974887466364
 20
-69.365739222188
 30
0.0
 40
3.5
 41
0.0
 71
     5
 72
     1
  1
176
  7
CONVERTER_15
 73
     1
 44
1.32052821128451
  0
MTEXT
  5
42C
330
1F
100
AcDbEntity
  8
1
 62
     3
100
AcDbMText
 10
-142.0397488746636
 20
-51.665739222188
 30
0.0
 40
3.5
 41
0.0
 71
     4
 72
     1
  1
Motor-Typ
  7
CONVERTER_15
 73
     1
 44
1.32052821128451
  0
MTEXT
  5
42D
330
1F
100
AcDbEntity
  8
1
 62
     7
100
AcDbMText
 10
118.9602511253358
 20
-60.665739222188
 30
0.0
 40
3.5
 41
0.0
 71
     5
 72
     1
  1
q
  7
CONVERTER_15
 73
     1
 44
1.32052821128451
  0
MTEXT
  5
42E
330
1F
100
AcDbEntity
  8
1
 62
     3
100
AcDbMText
 10
118.9602511253358
 20
-69.365739222188
 30
0.0
 40
3.5
 41
0.0
 71
     5
 72
     1
  1
152
  7
CONVERTER_15
 73
     1
 44
1.32052821128451
  0
MTEXT
  5
42F
330
1F
100
AcDbEntity
  8
1
 62
     7
100
AcDbMText
 10
-44.51084806178847
 20
-44.65926293009738
 30
0.0
 40
3.5
 41
0.0
 71
     4
 72
     1
  1
mit Resolver und Bremse\Pwith resolver and Brake\Pavec resolveur et frein
  7
CONVERTER_15
 73
     1
 44
1.08043217286915
  0
MTEXT
  5
430
330
1F
100
AcDbEntity
  8
1
 62
     7
100
AcDbMText
 10
16.08915193821134
 20
-44.65926293009738
 30
0.0
 40
3.5
 41
0.0
 71
     4
 72
     1
  1
mit Drehgeber\Pwith encoder\Pavec codeur
  7
CONVERTER_15
 73
     1
 44
1.08043217286915
  0
MTEXT
  5
431
330
1F
100
AcDbEntity
  8
1
 62
     7
100
AcDbMText
 10
51.2291519382112
 20
-44.65926293009738
 30
0.0
 40
3.5
 41
0.0
 71
     4
 72
     1
  1
mit Drehgeber und Bremse\Pwith encoder and brake\Pavec codeur et frein
  7
CONVERTER_15
 73
     1
 44
1.08043217286915
  0
MTEXT
  5
432
330
1F
100
AcDbEntity
  8
1
 62
     7
100
AcDbMText
 10
-81.17084806178836
 20
-44.65926293009738
 30
0.0
 40
3.5
 41
0.0
 71
     4
 72
     1
  1
mit Resolver\Pwith resolver\Pavec resolveur
  7
CONVERTER_15
 73
     1
 44
1.08043217286915
  0
MTEXT
  5
433
330
1F
100
AcDbEntity
  8
1
 62
     3
100
AcDbMText
 10
32.96025112533606
 20
-78.365739222188
 30
0.0
 40
3.5
 41
0.0
 71
     5
 72
     1
  1
max. 269
  7
CONVERTER_15
 73
     1
 44
1.32052821128451
  0
MTEXT
  5
434
330
1F
100
AcDbEntity
  8
1
 62
     7
100
AcDbMText
 10
32.96025112533606
 20
-60.665739222188
 30
0.0
 40
3.5
 41
0.0
 71
     5
 72
     1
  1
k
  7
CONVERTER_15
 73
     1
 44
1.32052821128451
  0
MTEXT
  5
435
330
1F
100
AcDbEntity
  8
1
 62
     3
100
AcDbMText
 10
32.96025112533606
 20
-69.365739222188
 30
0.0
 40
3.5
 41
0.0
 71
     5
 72
     1
  1
max. 229
  7
CONVERTER_15
 73
     1
 44
1.32052821128451
  0
MTEXT
  5
436
330
1F
100
AcDbEntity
  8
1
 62
     7
100
AcDbMText
 10
-63.03974887466364
 20
-60.665739222188
 30
0.0
 40
3.5
 41
0.0
 71
     5
 72
     1
  1
k
  7
CONVERTER_15
 73
     1
 44
1.32052821128451
  0
MTEXT
  5
437
330
1F
100
AcDbEntity
  8
1
 62
     7
100
AcDbMText
 10
82.6203585107656
 20
-60.665739222188
 30
0.0
 40
3.5
 41
0.0
 71
     5
 72
     1
  1
k
  7
CONVERTER_15
 73
     1
 44
1.32052821128451
  0
MTEXT
  5
438
330
1F
100
AcDbEntity
  8
1
 62
     3
100
AcDbMText
 10
82.6203585107656
 20
-69.365739222188
 30
0.0
 40
3.5
 41
0.0
 71
     5
 72
     1
  1
max. 270
  7
CONVERTER_15
 73
     1
 44
1.32052821128451
  0
MTEXT
  5
439
330
1F
100
AcDbEntity
  8
1
 62
     3
100
AcDbMText
 10
82.6203585107656
 20
-78.365739222188
 30
0.0
 40
3.5
 41
0.0
 71
     5
 72
     1
  1
max. 310
  7
CONVERTER_15
 73
     1
 44
1.32052821128451
  0
MTEXT
  5
43A
330
1F
100
AcDbEntity
  8
1
 62
     3
100
AcDbMText
 10
-155.0397488746636
 20
-69.365739222188
 30
0.0
 40
3.5
 41
0.0
 71
     4
 72
     1
  1
KSG 264... D(-MF)-R..(/S23)/PLG70
  7
CONVERTER_15
 73
     1
 44
1.32052821128451
  0
MTEXT
  5
43B
330
1F
100
AcDbEntity
  8
1
 62
     3
100
AcDbMText
 10
-156.6123203299716
 20
-102.365739222188
 30
0.0
 40
3.5
 41
0.0
 71
     4
 72
     1
  1
Welle mit Passfedernut nach DIN 6885-1(Standard)
  7
CONVERTER_15
 73
     1
 44
1.32052821128451
  0
MTEXT
  5
43C
330
1F
100
AcDbEntity
  8
1
 62
     3
100
AcDbMText
 10
-156.6123203299716
 20
-114.365739222188
 30
0.0
 40
3.5
 41
0.0
 71
     4
 72
     1
  1
Welle ohne Passfedernut Sonderausführung/S22
  7
CONVERTER_15
 73
     1
 44
1.32052821128451
  0
DIMENSION
  5
447
330
1F
100
AcDbEntity
  8
1
100
AcDbDimension
  2
*D11
 10
126.0669913112087
 20
126.772435483871
 30
0.0
 11
138.758794354839
 21
130.522435483871
 31
0.0
 70
    32
  1
<>
 71
     5
 42
-1.0
 53
0.00013888888889
  3
ME10_DIM_10
100
AcDbAlignedDimension
 13
154.066242
 23
106.3889374519707
 33
0.0
 14
126.0669913112087
 24
105.667641882972
 34
0.0
100
AcDbRotatedDimension
  0
DIMENSION
  5
452
330
1F
100
AcDbEntity
  8
1
100
AcDbDimension
  2
*D12
 10
175.5662365
 20
-23.4166189103372
 30
0.0
 11
140.755233982065
 21
-19.6666189103372
 31
0.0
 70
    32
  1
<>
 71
     5
 42
-1.0
 53
0.00013888888889
  3
ME10_DIM_11
100
AcDbAlignedDimension
 13
104.5662365
 23
51.75811411710186
 33
0.0
 14
175.5662365
 24
51.75811411710186
 34
0.0
100
AcDbRotatedDimension
  0
DIMENSION
  5
45F
330
1F
100
AcDbEntity
  8
1
100
AcDbDimension
  2
*D13
 10
137.5662365
 20
42.4820430347926
 30
0.0
 11
145.26879803398
 21
46.2320430347926
 31
0.0
 70
    32
  1
<>
 71
     5
 42
-1.0
 53
0.00013888888889
  3
ME10_DIM_12
100
AcDbAlignedDimension
 13
142.5662365
 23
37.493943
 33
0.0
 14
137.5662365
 24
37.493943
 34
0.0
100
AcDbRotatedDimension
  0
DIMENSION
  5
46A
330
1F
100
AcDbEntity
  8
1
100
AcDbDimension
  2
*D14
 10
-119.357121
 20
126.32458467742
 30
0.0
 11
-34.1116169354844
 21
130.07458467742
 31
0.0
 70
    32
  1
k
 71
     5
 42
-1.0
 53
0.00013888888889
  3
ME10_DIM_13
100
AcDbAlignedDimension
 13
56.64287899999998
 23
62.4939435
 33
0.0
 14
-119.357121
 24
62.493943
 34
0.0
100
AcDbRotatedDimension
  0
DIMENSION
  5
475
330
1F
100
AcDbEntity
  8
1
100
AcDbDimension
  2
*D15
 10
-119.357121
 20
110.201955645162
 30
0.0
 11
-36.7987217741941
 21
113.951955645162
 31
0.0
 70
    32
  1
q
 71
     5
 42
-1.0
 53
0.00013888888889
  3
ME10_DIM_14
100
AcDbAlignedDimension
 13
32.89286849999999
 23
60.63118800000001
 33
0.0
 14
-119.357121
 24
62.493943
 34
0.0
100
AcDbRotatedDimension
  0
DIMENSION
  5
480
330
1F
100
AcDbEntity
  8
1
100
AcDbDimension
  2
*D16
 10
-97.987088709678
 20
-7.506057
 30
0.0
 11
-101.737088709678
 21
19.0075846774194
 31
0.0
 70
    32
  1
<>
 71
     5
 42
-1.0
 53
90.0
  3
ME10_DIM_15
100
AcDbAlignedDimension
 13
-82.357121
 23
62.493943
 33
0.0
 14
-82.357121
 24
-7.506057
 34
0.0
 50
90.0
100
AcDbRotatedDimension
  0
DIMENSION
  5
48D
330
1F
100
AcDbEntity
  8
1
100
AcDbDimension
  2
*D17
 10
-119.357121
 20
88.7051169354841
 30
0.0
 11
-109.798403225807
 21
92.4551169354841
 31
0.0
 70
    32
  1
<>
 71
     5
 42
-1.0
 53
0.00013888888889
  3
ME10_DIM_16
100
AcDbAlignedDimension
 13
-126.357121
 23
53.493943
 33
0.0
 14
-119.357121
 24
53.493943
 34
0.0
100
AcDbRotatedDimension
  0
DIMENSION
  5
49A
330
1F
100
AcDbEntity
  8
1
100
AcDbDimension
  2
*D18
 10
-126.357121
 20
74.0945761502814
 30
0.0
 11
-121.98105053056
 21
77.8445761502814
 31
0.0
 70
    32
  1
<>
 71
     5
 42
-1.0
 53
0.00013888888889
  3
ME10_DIM_17
100
AcDbAlignedDimension
 13
-127.357121
 23
35.493943
 33
0.0
 14
-126.357121
 24
37.493943
 34
0.0
100
AcDbRotatedDimension
  0
DIMENSION
  5
4A7
330
1F
100
AcDbEntity
  8
1
100
AcDbDimension
  2
*D19
 10
-155.357121
 20
58.7990805857457
 30
0.0
 11
-159.012250318383
 21
62.5490805857457
 31
0.0
 70
    32
  1
<>
 71
     5
 42
-1.0
 53
0.00013888888889
  3
ME10_DIM_18
100
AcDbAlignedDimension
 13
-153.357121
 23
37.493943
 33
0.0
 14
-155.357121
 24
35.493943
 34
0.0
100
AcDbRotatedDimension
  0
DIMENSION
  5
4B2
330
1F
100
AcDbEntity
  8
1
100
AcDbDimension
  2
*D20
 10
-153.357121
 20
58.7990805857457
 30
0.0
 11
-139.208608692721
 21
62.5490805857457
 31
0.0
 70
    32
  1
<>
 71
     5
 42
-1.0
 53
0.00013888888889
  3
ME10_DIM_19
100
AcDbAlignedDimension
 13
-128.357121
 23
37.493943
 33
0.0
 14
-153.357121
 24
37.493943
 34
0.0
100
AcDbRotatedDimension
  0
DIMENSION
  5
4BD
330
1F
100
AcDbEntity
  8
1
100
AcDbDimension
  2
*D21
 10
-155.357121
 20
74.2555813667502
 30
0.0
 11
-139.691624342127
 21
78.0055813667502
 31
0.0
 70
    32
  1
<>
 71
     5
 42
-1.0
 53
0.00013888888889
  3
ME10_DIM_20
100
AcDbAlignedDimension
 13
-127.357121
 23
19.493943
 33
0.0
 14
-155.357121
 24
19.493943
 34
0.0
100
AcDbRotatedDimension
  0
DIMENSION
  5
4C8
330
1F
100
AcDbEntity
  8
1
100
AcDbDimension
  2
*D22
 10
-172.811818913482
 20
1.493943
 30
0.0
 11
-178.224318913482
 21
30.5090425084552
 31
0.0
 70
    32
  1
<>
 71
     5
 42
-1.0
 53
90.0
  3
ME10_DIM_21
100
AcDbAlignedDimension
 13
-119.357121
 23
53.493943
 33
0.0
 14
-119.357121
 24
1.493943
 34
0.0
 50
90.0
100
AcDbRotatedDimension
  0
DIMENSION
  5
4D3
330
1F
100
AcDbEntity
  8
1
100
AcDbDimension
  2
*D23
 10
-162.34647984301
 20
19.493943
 30
0.0
 11
-166.97147984301
 21
28.2549694778921
 31
0.0
 70
    32
  1
<>
 71
     5
 42
-1.0
 53
90.0
  3
ME10_DIM_22
100
AcDbAlignedDimension
 13
-155.357121
 23
35.493943
 33
0.0
 14
-155.357121
 24
19.493943
 34
0.0
 50
90.0
100
AcDbRotatedDimension
  0
DIMENSION
  5
4DE
330
1F
100
AcDbEntity
  8
1
100
AcDbDimension
  2
*D24
 10
78.646051857028
 20
-7.5060565
 30
0.0
 11
74.896051857028
 21
46.1944062253766
 31
0.0
 70
    32
  1
111
 71
     5
 42
-1.0
 53
90.0
  3
ME10_DIM_23
100
AcDbAlignedDimension
 13
55.55616850000001
 23
104.118931
 33
0.0
 14
56.64287899999998
 24
-7.5060565
 34
0.0
 50
90.0
100
AcDbRotatedDimension
  0
INSERT
  5
4E6
330
1F
100
AcDbEntity
  8
1
100
AcDbBlockReference
  2
*D25
 10
0.0
 20
0.0
 30
0.0
  0
INSERT
  5
4EE
330
1F
100
AcDbEntity
  8
1
100
AcDbBlockReference
  2
*D26
 10
0.0
 20
0.0
 30
0.0
  0
INSERT
  5
4F8
330
1F
100
AcDbEntity
  8
1
100
AcDbBlockReference
  2
*D27
 10
0.0
 20
0.0
 30
0.0
  0
INSERT
  5
504
330
1F
100
AcDbEntity
  8
1
100
AcDbBlockReference
  2
*D28
 10
0.0
 20
0.0
 30
0.0
  0
DIMENSION
  5
511
330
1F
100
AcDbEntity
  8
1
100
AcDbDimension
  2
*D29
 10
188.5108215972996
 20
7.3909262981297
 30
0.0
 11
184.905460318688
 21
8.48961010040965
 31
0.0
 70
    37
  1
<>
 71
     5
 42
-1.0
  3
ME10_DIM_24
100
AcDb3PointAngularDimension
 13
159.4295983683419
 23
8.13058113165807
 33
0.0
 14
177.005327013636
 24
27.43144150000001
 34
0.0
 15
140.1287379999997
 25
27.43144150000001
 35
0.0
  0
DIMENSION
  5
51E
330
1F
100
AcDbEntity
  8
1
100
AcDbDimension
  2
*D30
 10
188.2535288629015
 20
47.41716049971997
 30
0.0
 11
189.357986395943
 21
53.8394127391206
 31
0.0
 70
    37
  1
<>
 71
     5
 42
-1.0
  3
ME10_DIM_25
100
AcDb3PointAngularDimension
 13
177.005327013636
 23
27.43144150000001
 33
0.0
 14
164.2114964704432
 24
51.6392029704432
 34
0.0
 15
140.0037350000001
 25
27.43144150000001
 35
0.0
  0
ENDSEC
  0
SECTION
  2
OBJECTS
  0
DICTIONARY
  5
C
330
0
100
AcDbDictionary
281
     1
  3
ACAD_GROUP
350
D
  3
ACAD_LAYOUT
350
1A
  3
ACAD_MLINESTYLE
350
17
  3
ACAD_PLOTSETTINGS
350
19
  3
ACAD_PLOTSTYLENAME
350
E
  0
DICTIONARY
  5
D
102
{ACAD_REACTORS
330
C
102
}
330
C
100
AcDbDictionary
281
     1
  0
DICTIONARY
  5
1A
102
{ACAD_REACTORS
330
C
102
}
330
C
100
AcDbDictionary
281
     1
  3
Layout1
350
1E
  3
Layout2
350
26
  3
Model
350
22
  0
DICTIONARY
  5
17
102
{ACAD_REACTORS
330
C
102
}
330
C
100
AcDbDictionary
281
     1
  3
Standard
350
18
  0
DICTIONARY
  5
19
102
{ACAD_REACTORS
330
C
102
}
330
C
100
AcDbDictionary
281
     1
  0
ACDBDICTIONARYWDFLT
  5
E
102
{ACAD_REACTORS
330
C
102
}
330
C
100
AcDbDictionary
281
     1
  3
Normal
350
F
100
AcDbDictionaryWithDefault
340
F
  0
LAYOUT
  5
1E
102
{ACAD_REACTORS
330
1A
102
}
330
1A
100
AcDbPlotSettings
  1

  2

  4

  6

 40
0.0
 41
0.0
 42
0.0
 43
0.0
 44
0.0
 45
0.0
 46
0.0
 47
0.0
 48
0.0
 49
0.0
140
0.0
141
0.0
142
1.0
143
1.0
 70
   688
 72
     0
 73
     0
 74
     5
  7

 75
    16
 76
     0
 77
     2
 78
   300
147
1.0
148
0.0
149
0.0
100
AcDbLayout
  1
Layout1
 70
     1
 71
     1
 10
0.0
 20
0.0
 11
0.0
 21
0.0
 12
0.0
 22
0.0
 32
0.0
 14
0.0
 24
0.0
 34
0.0
 15
0.0
 25
0.0
 35
0.0
146
0.0
 13
0.0
 23
0.0
 33
0.0
 16
1.0
 26
0.0
 36
0.0
 17
0.0
 27
1.0
 37
0.0
 76
     0
330
1B
  0
LAYOUT
  5
26
102
{ACAD_REACTORS
330
1A
102
}
330
1A
100
AcDbPlotSettings
  1

  2

  4

  6

 40
0.0
 41
0.0
 42
0.0
 43
0.0
 44
0.0
 45
0.0
 46
0.0
 47
0.0
 48
0.0
 49
0.0
140
0.0
141
0.0
142
1.0
143
1.0
 70
   688
 72
     0
 73
     0
 74
     5
  7

 75
    16
 76
     0
 77
     2
 78
   300
147
1.0
148
0.0
149
0.0
100
AcDbLayout
  1
Layout2
 70
     1
 71
     2
 10
0.0
 20
0.0
 11
0.0
 21
0.0
 12
0.0
 22
0.0
 32
0.0
 14
0.0
 24
0.0
 34
0.0
 15
0.0
 25
0.0
 35
0.0
146
0.0
 13
0.0
 23
0.0
 33
0.0
 16
1.0
 26
0.0
 36
0.0
 17
0.0
 27
1.0
 37
0.0
 76
     0
330
23
  0
LAYOUT
  5
22
102
{ACAD_REACTORS
330
1A
102
}
330
1A
100
AcDbPlotSettings
  1

  2

  4

  6

 40
0.0
 41
0.0
 42
0.0
 43
0.0
 44
0.0
 45
0.0
 46
0.0
 47
0.0
 48
0.0
 49
0.0
140
0.0
141
0.0
142
1.0
143
1.0
 70
  1712
 72
     0
 73
     0
 74
     0
  7

 75
     0
 76
     0
 77
     2
 78
   300
147
1.0
148
0.0
149
0.0
100
AcDbLayout
  1
Model
 70
     1
 71
     0
 10
0.0
 20
0.0
 11
0.0
 21
0.0
 12
0.0
 22
0.0
 32
0.0
 14
-198.880000000001
 24
-142.5
 34
0.0
 15
205.0
 25
142.0
 35
0.0
146
0.0
 13
0.0
 23
0.0
 33
0.0
 16
1.0
 26
0.0
 36
0.0
 17
0.0
 27
1.0
 37
0.0
 76
     0
330
1F
  0
MLINESTYLE
  5
18
102
{ACAD_REACTORS
330
17
102
}
330
17
100
AcDbMlineStyle
  2
Standard
 70
     0
  3

 62
   256
 51
90.0
 52
90.0
 71
     2
 49
0.5
 62
   256
  6
BYLAYER
 49
-0.5
 62
   256
  6
BYLAYER
  0
ACDBPLACEHOLDER
  5
F
102
{ACAD_REACTORS
330
E
102
}
330
E
  0
ENDSEC
  0
EOF
