  0
SECTION
  2
HEADER
  9
$ACADVER
  1
AC1018
  9
$ACADMAINTVER
 70
     0
  9
$DWGCODEPAGE
  3
ANSI_1252
  9
$INSBASE
 10
0.0
 20
0.0
 30
0.0
  9
$EXTMIN
 10
-397.760000000002
 20
-285.0
 30
0.0
  9
$EXTMAX
 10
410.0
 20
284.0
 30
0.0
  9
$LIMMIN
 10
0.0
 20
0.0
  9
$LIMMAX
 10
12.0
 20
9.0
  9
$ORTHOMODE
 70
     0
  9
$REGENMODE
 70
     1
  9
$FILLMODE
 70
     1
  9
$QTEXTMODE
 70
     0
  9
$MIRRTEXT
 70
     1
  9
$LTSCALE
 40
1.0
  9
$ATTMODE
 70
     1
  9
$TEXTSIZE
 40
0.2
  9
$TRACEWID
 40
0.05
  9
$TEXTSTYLE
  7
Standard
  9
$CLAYER
  8
0
  9
$CELTYPE
  6
ByLayer
  9
$CECOLOR
 62
   256
  9
$CELTSCALE
 40
1.0
  9
$DISPSILH
 70
     0
  9
$DIMSCALE
 40
1.0
  9
$DIMASZ
 40
0.18
  9
$DIMEXO
 40
0.0625
  9
$DIMDLI
 40
0.38
  9
$DIMRND
 40
0.0
  9
$DIMDLE
 40
0.0
  9
$DIMEXE
 40
0.18
  9
$DIMTP
 40
0.0
  9
$DIMTM
 40
0.0
  9
$DIMTXT
 40
0.18
  9
$DIMCEN
 40
0.09
  9
$DIMTSZ
 40
0.0
  9
$DIMTOL
 70
     0
  9
$DIMLIM
 70
     0
  9
$DIMTIH
 70
     1
  9
$DIMTOH
 70
     1
  9
$DIMSE1
 70
     0
  9
$DIMSE2
 70
     0
  9
$DIMTAD
 70
     0
  9
$DIMZIN
 70
     0
  9
$DIMBLK
  1

  9
$DIMASO
 70
     1
  9
$DIMSHO
 70
     1
  9
$DIMPOST
  1

  9
$DIMAPOST
  1

  9
$DIMALT
 70
     0
  9
$DIMALTD
 70
     2
  9
$DIMALTF
 40
25.4
  9
$DIMLFAC
 40
1.0
  9
$DIMTOFL
 70
     0
  9
$DIMTVP
 40
0.0
  9
$DIMTIX
 70
     0
  9
$DIMSOXD
 70
     0
  9
$DIMSAH
 70
     0
  9
$DIMBLK1
  1

  9
$DIMBLK2
  1

  9
$DIMSTYLE
  2
Standard
  9
$DIMCLRD
 70
     0
  9
$DIMCLRE
 70
     0
  9
$DIMCLRT
 70
     0
  9
$DIMTFAC
 40
1.0
  9
$DIMGAP
 40
0.09
  9
$DIMJUST
 70
     0
  9
$DIMSD1
 70
     0
  9
$DIMSD2
 70
     0
  9
$DIMTOLJ
 70
     1
  9
$DIMTZIN
 70
     0
  9
$DIMALTZ
 70
     0
  9
$DIMALTTZ
 70
     0
  9
$DIMUPT
 70
     0
  9
$DIMDEC
 70
     4
  9
$DIMTDEC
 70
     4
  9
$DIMALTU
 70
     2
  9
$DIMALTTD
 70
     2
  9
$DIMTXSTY
  7
Standard
  9
$DIMAUNIT
 70
     0
  9
$DIMADEC
 70
     0
  9
$DIMALTRND
 40
0.0
  9
$DIMAZIN
 70
     0
  9
$DIMDSEP
 70
    46
  9
$DIMATFIT
 70
     3
  9
$DIMFRAC
 70
     0
  9
$DIMLDRBLK
  1

  9
$DIMLUNIT
 70
     2
  9
$DIMLWD
 70
    -2
  9
$DIMLWE
 70
    -2
  9
$DIMTMOVE
 70
     0
  9
$LUNITS
 70
     2
  9
$LUPREC
 70
     4
  9
$SKETCHINC
 40
0.1
  9
$FILLETRAD
 40
0.5
  9
$AUNITS
 70
     0
  9
$AUPREC
 70
     0
  9
$MENU
  1
.
  9
$ELEVATION
 40
0.0
  9
$PELEVATION
 40
0.0
  9
$THICKNESS
 40
0.0
  9
$LIMCHECK
 70
     0
  9
$CHAMFERA
 40
0.5
  9
$CHAMFERB
 40
0.5
  9
$CHAMFERC
 40
1.0
  9
$CHAMFERD
 40
0.0
  9
$SKPOLY
 70
     0
  9
$TDCREATE
 40
2454957.546545011
  9
$TDUCREATE
 40
2454957.463211678
  9
$TDUPDATE
 40
2454957.546545023
  9
$TDUUPDATE
 40
2454957.46321169
  9
$TDINDWG
 40
0.0000000116
  9
$TDUSRTIMER
 40
0.0000000116
  9
$USRTIMER
 70
     1
  9
$ANGBASE
 50
0.0
  9
$ANGDIR
 70
     0
  9
$PDMODE
 70
     0
  9
$PDSIZE
 40
0.0
  9
$PLINEWID
 40
0.0
  9
$SPLFRAME
 70
     0
  9
$SPLINETYPE
 70
     6
  9
$SPLINESEGS
 70
     8
  9
$HANDSEED
  5
447
  9
$SURFTAB1
 70
     6
  9
$SURFTAB2
 70
     6
  9
$SURFTYPE
 70
     6
  9
$SURFU
 70
     6
  9
$SURFV
 70
     6
  9
$UCSBASE
  2

  9
$UCSNAME
  2

  9
$UCSORG
 10
0.0
 20
0.0
 30
0.0
  9
$UCSXDIR
 10
1.0
 20
0.0
 30
0.0
  9
$UCSYDIR
 10
0.0
 20
1.0
 30
0.0
  9
$UCSORTHOREF
  2

  9
$UCSORTHOVIEW
 70
     0
  9
$UCSORGTOP
 10
0.0
 20
0.0
 30
0.0
  9
$UCSORGBOTTOM
 10
0.0
 20
0.0
 30
0.0
  9
$UCSORGLEFT
 10
0.0
 20
0.0
 30
0.0
  9
$UCSORGRIGHT
 10
0.0
 20
0.0
 30
0.0
  9
$UCSORGFRONT
 10
0.0
 20
0.0
 30
0.0
  9
$UCSORGBACK
 10
0.0
 20
0.0
 30
0.0
  9
$PUCSBASE
  2

  9
$PUCSNAME
  2

  9
$PUCSORG
 10
0.0
 20
0.0
 30
0.0
  9
$PUCSXDIR
 10
1.0
 20
0.0
 30
0.0
  9
$PUCSYDIR
 10
0.0
 20
1.0
 30
0.0
  9
$PUCSORTHOREF
  2

  9
$PUCSORTHOVIEW
 70
     0
  9
$PUCSORGTOP
 10
0.0
 20
0.0
 30
0.0
  9
$PUCSORGBOTTOM
 10
0.0
 20
0.0
 30
0.0
  9
$PUCSORGLEFT
 10
0.0
 20
0.0
 30
0.0
  9
$PUCSORGRIGHT
 10
0.0
 20
0.0
 30
0.0
  9
$PUCSORGFRONT
 10
0.0
 20
0.0
 30
0.0
  9
$PUCSORGBACK
 10
0.0
 20
0.0
 30
0.0
  9
$USERI1
 70
     0
  9
$USERI2
 70
     0
  9
$USERI3
 70
     0
  9
$USERI4
 70
     0
  9
$USERI5
 70
     0
  9
$USERR1
 40
14.5
  9
$USERR2
 40
0.0
  9
$USERR3
 40
0.0
  9
$USERR4
 40
0.0
  9
$USERR5
 40
0.0
  9
$WORLDVIEW
 70
     1
  9
$SHADEDGE
 70
     3
  9
$SHADEDIF
 70
    70
  9
$TILEMODE
 70
     1
  9
$MAXACTVP
 70
    64
  9
$PINSBASE
 10
0.0
 20
0.0
 30
0.0
  9
$PLIMCHECK
 70
     0
  9
$PEXTMIN
 10
1.00000000000000E+20
 20
1.00000000000000E+20
 30
1.00000000000000E+20
  9
$PEXTMAX
 10
-1.00000000000000E+20
 20
-1.00000000000000E+20
 30
-1.00000000000000E+20
  9
$PLIMMIN
 10
0.0
 20
0.0
  9
$PLIMMAX
 10
12.0
 20
9.0
  9
$UNITMODE
 70
     0
  9
$VISRETAIN
 70
     1
  9
$PLINEGEN
 70
     0
  9
$PSLTSCALE
 70
     1
  9
$TREEDEPTH
 70
  3020
  9
$CMLSTYLE
  2
Standard
  9
$CMLJUST
 70
     0
  9
$CMLSCALE
 40
1.0
  9
$PROXYGRAPHICS
 70
     1
  9
$MEASUREMENT
 70
     1
  9
$CELWEIGHT
370
    -1
  9
$ENDCAPS
280
     0
  9
$JOINSTYLE
280
     0
  9
$LWDISPLAY
290
     0
  9
$INSUNITS
 70
     1
  9
$HYPERLINKBASE
  1

  9
$STYLESHEET
  1

  9
$XEDIT
290
     1
  9
$CEPSNTYPE
380
     0
  9
$PSTYLEMODE
290
     1
  9
$FINGERPRINTGUID
  2
{B5AC79F2-7369-40B1-9C31-EFC5BF68A0FE}
  9
$VERSIONGUID
  2
{FAEB1C32-E019-11D5-929B-00C0DF256EC4}
  9
$EXTNAMES
290
     1
  9
$PSVPSCALE
 40
0.0
  9
$OLESTARTUP
290
     0
  9
$SORTENTS
280
   127
  9
$INDEXCTL
280
     0
  9
$HIDETEXT
280
     1
  9
$XCLIPFRAME
290
     0
  9
$HALOGAP
280
     0
  9
$OBSCOLOR
 70
   257
  9
$OBSLTYPE
280
     0
  9
$INTERSECTIONDISPLAY
280
     0
  9
$INTERSECTIONCOLOR
 70
   257
  9
$DIMASSOC
280
     2
  9
$PROJECTNAME
  1

  0
ENDSEC
  0
SECTION
  2
CLASSES
  0
CLASS
  1
ACDBDICTIONARYWDFLT
  2
AcDbDictionaryWithDefault
  3
ObjectDBX Classes
 90
        0
 91
        3
280
     0
281
     0
  0
CLASS
  1

  2
exOdDbCircle
  3

 90
        0
 91
        3
280
     0
281
     1
  0
CLASS
  1

  2
exOdDbSpline
  3

 90
        0
 91
        3
280
     0
281
     1
  0
ENDSEC
  0
SECTION
  2
TABLES
  0
TABLE
  2
VPORT
  5
8
330
0
100
AcDbSymbolTable
 70
     1
  0
VPORT
  5
29
330
8
100
AcDbSymbolTableRecord
100
AcDbViewportTableRecord
  2
*Active
 70
     0
 10
0.0
 20
0.0
 11
1.0
 21
1.0
 12
6.11999999999901
 22
-0.5
 13
0.0
 23
0.0
 14
0.5
 24
0.5
 15
0.5
 25
0.5
 16
0.0
 26
0.0
 36
1.0
 17
0.0
 27
0.0
 37
0.0
 40
625.9000000000001
 41
1.60267857142857
 42
50.0
 43
0.0
 44
0.0
 50
0.0
 51
0.0
 71
     0
 72
   100
 73
     1
 74
     3
 75
     0
 76
     0
 77
     0
 78
     0
281
     0
 65
     1
110
0.0
120
0.0
130
0.0
111
1.0
121
0.0
131
0.0
112
0.0
122
1.0
132
0.0
 79
     0
146
0.0
  0
ENDTAB
  0
TABLE
  2
LTYPE
  5
5
330
0
100
AcDbSymbolTable
 70
     8
  0
LTYPE
  5
14
330
5
100
AcDbSymbolTableRecord
100
AcDbLinetypeTableRecord
  2
ByBlock
 70
     0
  3

 72
    65
 73
     0
 40
0.0
  0
LTYPE
  5
15
330
5
100
AcDbSymbolTableRecord
100
AcDbLinetypeTableRecord
  2
ByLayer
 70
     0
  3

 72
    65
 73
     0
 40
0.0
  0
LTYPE
  5
16
330
5
100
AcDbSymbolTableRecord
100
AcDbLinetypeTableRecord
  2
Continuous
 70
     0
  3
Solid line
 72
    65
 73
     0
 40
0.0
  0
LTYPE
  5
2A
330
5
100
AcDbSymbolTableRecord
100
AcDbLinetypeTableRecord
  2
DASHED
 70
     0
  3
Dashed
 72
    65
 73
     2
 40
15.0
 49
7.0
 74
     0
 49
-8.0
 74
     0
  0
LTYPE
  5
2B
330
5
100
AcDbSymbolTableRecord
100
AcDbLinetypeTableRecord
  2
DOTTED
 70
     0
  3
Dotted
 72
    65
 73
     2
 40
1.0
 49
0.0
 74
     0
 49
-1.0
 74
     0
  0
LTYPE
  5
2C
330
5
100
AcDbSymbolTableRecord
100
AcDbLinetypeTableRecord
  2
DOT_CENTER
 70
     0
  3
Dot_Center
 72
    65
 73
     4
 40
14.0
 49
12.0
 74
     0
 49
-1.0
 74
     0
 49
0.0
 74
     0
 49
-1.0
 74
     0
  0
LTYPE
  5
2D
330
5
100
AcDbSymbolTableRecord
100
AcDbLinetypeTableRecord
  2
LONG_DASHED
 70
     0
  3
Long_Dashed
 72
    65
 73
     2
 40
15.0
 49
10.0
 74
     0
 49
-5.0
 74
     0
  0
LTYPE
  5
2E
330
5
100
AcDbSymbolTableRecord
100
AcDbLinetypeTableRecord
  2
DASH_CENTER
 70
     0
  3
Dash_Center
 72
    65
 73
     4
 40
14.0
 49
11.0
 74
     0
 49
-1.0
 74
     0
 49
1.0
 74
     0
 49
-1.0
 74
     0
  0
LTYPE
  5
2F
330
5
100
AcDbSymbolTableRecord
100
AcDbLinetypeTableRecord
  2
PHANTOM
 70
     0
  3
Phantom
 72
    65
 73
     6
 40
13.0
 49
10.0
 74
     0
 49
-1.0
 74
     0
 49
0.0
 74
     0
 49
-1.0
 74
     0
 49
0.0
 74
     0
 49
-1.0
 74
     0
  0
LTYPE
  5
30
330
5
100
AcDbSymbolTableRecord
100
AcDbLinetypeTableRecord
  2
CENTER_DASH_DASH
 70
     0
  3
Center_Dash_Dash
 72
    65
 73
     6
 40
14.0
 49
9.0
 74
     0
 49
-1.0
 74
     0
 49
1.0
 74
     0
 49
-1.0
 74
     0
 49
1.0
 74
     0
 49
-1.0
 74
     0
  0
ENDTAB
  0
TABLE
  2
LAYER
  5
2
330
0
100
AcDbSymbolTable
 70
     2
  0
LAYER
  5
10
330
2
100
AcDbSymbolTableRecord
100
AcDbLayerTableRecord
  2
0
 70
     0
 62
     7
  6
Continuous
370
    -3
390
F
  0
LAYER
  5
31
330
2
100
AcDbSymbolTableRecord
100
AcDbLayerTableRecord
  2
1
 70
     0
 62
     7
  6
Continuous
370
    -3
390
F
  0
ENDTAB
  0
TABLE
  2
STYLE
  5
3
330
0
100
AcDbSymbolTable
 70
     6
  0
STYLE
  5
11
330
3
100
AcDbSymbolTableRecord
100
AcDbTextStyleTableRecord
  2
Standard
 70
     0
 40
0.0
 41
1.0
 50
0.0
 71
     0
 42
0.2
  3
txt
  4

  0
STYLE
  5
2F4
330
3
100
AcDbSymbolTableRecord
100
AcDbTextStyleTableRecord
  2
CONVERTER_11
 70
     0
 40
0.0
 41
0.855
 50
0.0
 71
     0
 42
0.2
  3
complex.shx
  4

  0
STYLE
  5
2F6
330
3
100
AcDbSymbolTableRecord
100
AcDbTextStyleTableRecord
  2
CONVERTER_12
 70
     0
 40
0.0
 41
0.9
 50
0.0
 71
     0
 42
0.2
  3
txt.shx
  4

  0
STYLE
  5
2FE
330
3
100
AcDbSymbolTableRecord
100
AcDbTextStyleTableRecord
  2
CONVERTER_13
 70
     0
 40
0.0
 41
0.765
 50
0.0
 71
     0
 42
0.2
  3
txt.shx
  4

  0
STYLE
  5
300
330
3
100
AcDbSymbolTableRecord
100
AcDbTextStyleTableRecord
  2
CONVERTER_14
 70
     0
 40
0.0
 41
0.81
 50
0.0
 71
     0
 42
0.2
  3
txt.shx
  4

  0
STYLE
  5
304
330
3
100
AcDbSymbolTableRecord
100
AcDbTextStyleTableRecord
  2
CONVERTER_15
 70
     0
 40
0.0
 41
0.72
 50
0.0
 71
     0
 42
0.2
  3
txt.shx
  4

  0
ENDTAB
  0
TABLE
  2
VIEW
  5
6
330
0
100
AcDbSymbolTable
 70
     0
  0
ENDTAB
  0
TABLE
  2
UCS
  5
7
330
0
100
AcDbSymbolTable
 70
     0
  0
ENDTAB
  0
TABLE
  2
APPID
  5
9
330
0
100
AcDbSymbolTable
 70
     1
  0
APPID
  5
12
330
9
100
AcDbSymbolTableRecord
100
AcDbRegAppTableRecord
  2
ACAD
 70
     0
  0
ENDTAB
  0
TABLE
  2
DIMSTYLE
  5
A
330
0
100
AcDbSymbolTable
 70
    21
100
AcDbDimStyleTable
  0
DIMSTYLE
105
27
330
A
100
AcDbSymbolTableRecord
100
AcDbDimStyleTableRecord
  2
Standard
 70
     0
340
11
  0
DIMSTYLE
105
352
102
{ACAD_REACTORS
330
353
102
}
330
A
100
AcDbSymbolTableRecord
100
AcDbDimStyleTableRecord
  2
ME10_DIM_10
 70
     0
 41
7.0
 42
0.0
 44
2.0
 73
     0
 74
     0
 77
     1
 78
     8
140
7.0
147
4.0
172
     1
173
     1
176
     2
177
     2
178
     3
271
     3
340
304
  0
DIMSTYLE
105
35D
102
{ACAD_REACTORS
330
35E
102
}
330
A
100
AcDbSymbolTableRecord
100
AcDbDimStyleTableRecord
  2
ME10_DIM_11
 70
     0
 41
7.0
 42
0.0
 44
2.0
 73
     0
 74
     0
 77
     1
 78
     8
140
7.0
147
4.0
172
     1
173
     1
176
     2
177
     2
178
     3
271
     3
340
304
  0
DIMSTYLE
105
368
102
{ACAD_REACTORS
330
369
102
}
330
A
100
AcDbSymbolTableRecord
100
AcDbDimStyleTableRecord
  2
ME10_DIM_12
 70
     0
 41
7.0
 42
0.0
 44
2.0
 73
     0
 74
     0
 77
     1
 78
     8
140
7.0
147
4.0
172
     1
173
     1
176
     2
177
     2
178
     3
271
     3
340
304
  0
DIMSTYLE
105
373
102
{ACAD_REACTORS
330
374
102
}
330
A
100
AcDbSymbolTableRecord
100
AcDbDimStyleTableRecord
  2
ME10_DIM_13
 70
     0
 41
7.0
 42
0.0
 44
2.0
 73
     0
 74
     0
 77
     1
 78
     8
140
7.0
147
4.0
172
     1
173
     1
176
     2
177
     2
178
     3
271
     3
340
304
  0
DIMSTYLE
105
37E
102
{ACAD_REACTORS
330
37F
102
}
330
A
100
AcDbSymbolTableRecord
100
AcDbDimStyleTableRecord
  2
ME10_DIM_14
 70
     0
 41
7.0
 42
0.0
 44
2.0
 73
     0
 74
     0
 77
     1
 78
     8
140
7.0
147
4.0
172
     1
173
     1
176
     2
177
     2
178
     3
271
     3
340
304
  0
DIMSTYLE
105
389
102
{ACAD_REACTORS
330
38A
102
}
330
A
100
AcDbSymbolTableRecord
100
AcDbDimStyleTableRecord
  2
ME10_DIM_15
 70
     0
 41
7.0
 42
0.0
 44
2.0
 73
     0
 74
     0
 77
     1
 78
     8
140
7.0
147
4.0
172
     1
173
     1
176
     2
177
     2
178
     3
271
     3
340
304
  0
DIMSTYLE
105
394
102
{ACAD_REACTORS
330
395
102
}
330
A
100
AcDbSymbolTableRecord
100
AcDbDimStyleTableRecord
  2
ME10_DIM_16
 70
     0
 41
7.0
 42
0.0
 44
2.0
 73
     0
 74
     0
 77
     1
 78
     8
140
7.0
147
4.0
172
     1
173
     1
176
     2
177
     2
178
     3
271
     3
340
304
  0
DIMSTYLE
105
3A1
102
{ACAD_REACTORS
330
3A2
102
}
330
A
100
AcDbSymbolTableRecord
100
AcDbDimStyleTableRecord
  2
ME10_DIM_17
 70
     0
 41
7.0
 42
0.0
 44
2.0
 73
     0
 74
     0
 77
     1
 78
     8
140
7.0
147
4.0
172
     1
173
     1
176
     2
177
     2
178
     3
271
     3
340
304
  0
DIMSTYLE
105
3AE
102
{ACAD_REACTORS
330
3AF
102
}
330
A
100
AcDbSymbolTableRecord
100
AcDbDimStyleTableRecord
  2
ME10_DIM_18
 70
     0
 41
7.0
 42
0.0
 44
2.0
 71
     1
 73
     0
 74
     0
 77
     1
 78
     8
140
7.0
146
0.6
147
4.0
172
     1
173
     1
176
     2
177
     2
178
     3
271
     3
272
     0
340
304
  0
DIMSTYLE
105
3BB
102
{ACAD_REACTORS
330
3BC
102
}
330
A
100
AcDbSymbolTableRecord
100
AcDbDimStyleTableRecord
  2
ME10_DIM_19
 70
     0
 41
7.0
 42
0.0
 44
2.0
 48
-9.0
 71
     1
 73
     0
 74
     0
 77
     1
 78
     8
140
7.0
146
0.6
147
4.0
172
     1
173
     1
176
     2
177
     2
178
     3
271
     3
272
     0
340
304
  0
DIMSTYLE
105
3C6
102
{ACAD_REACTORS
330
3C7
102
}
330
A
100
AcDbSymbolTableRecord
100
AcDbDimStyleTableRecord
  2
ME10_DIM_20
 70
     0
  3
{\Fgdt;8}<>
 41
7.0
 42
0.0
 44
2.0
 73
     0
 74
     0
 77
     1
 78
     8
140
7.0
147
4.0
172
     1
173
     1
176
     2
177
     2
178
     3
271
     3
340
304
  0
DIMSTYLE
105
3D1
102
{ACAD_REACTORS
330
3D2
102
}
330
A
100
AcDbSymbolTableRecord
100
AcDbDimStyleTableRecord
  2
ME10_DIM_21
 70
     0
 41
7.0
 42
0.0
 44
2.0
 73
     0
 74
     0
 77
     1
 78
     8
140
7.0
147
4.0
172
     1
173
     1
176
     2
177
     2
178
     3
271
     3
340
304
  0
DIMSTYLE
105
3DE
102
{ACAD_REACTORS
330
3DF
102
}
330
A
100
AcDbSymbolTableRecord
100
AcDbDimStyleTableRecord
  2
ME10_DIM_22
 70
     0
  3
{\Fgdt;n}<>
 41
7.0
 42
0.0
 44
2.0
 48
-5.0
 71
     1
 73
     0
 74
     0
 77
     1
 78
     8
140
7.0
146
0.6
147
4.0
172
     1
173
     1
176
     2
177
     2
178
     3
271
     3
272
     0
340
304
  0
DIMSTYLE
105
3EB
102
{ACAD_REACTORS
330
3EC
102
}
330
A
100
AcDbSymbolTableRecord
100
AcDbDimStyleTableRecord
  2
ME10_DIM_23
 70
     0
 41
7.0
 42
0.0
 44
2.0
 73
     0
 74
     0
 77
     1
 78
     8
140
7.0
147
4.0
172
     1
173
     1
176
     2
177
     2
178
     3
271
     3
340
304
  0
DIMSTYLE
105
3F8
102
{ACAD_REACTORS
330
3F9
102
}
330
A
100
AcDbSymbolTableRecord
100
AcDbDimStyleTableRecord
  2
ME10_DIM_24
 70
     0
  3
{\Fgdt;n}<>
 41
7.0
 42
0.0
 44
2.0
 73
     0
 74
     0
 77
     1
 78
     8
140
7.0
147
4.0
172
     1
173
     1
176
     2
177
     2
178
     3
271
     3
340
304
  0
DIMSTYLE
105
403
102
{ACAD_REACTORS
330
404
102
}
330
A
100
AcDbSymbolTableRecord
100
AcDbDimStyleTableRecord
  2
ME10_DIM_25
 70
     0
  3
{\Fgdt;n}<>
 41
7.0
 42
0.0
 44
2.0
 48
-6.0
 71
     1
 73
     0
 74
     0
 77
     1
 78
     8
140
7.0
146
0.6
147
4.0
172
     1
173
     1
176
     2
177
     2
178
     3
271
     3
272
     0
340
304
  0
DIMSTYLE
105
410
102
{ACAD_REACTORS
330
411
102
}
330
A
100
AcDbSymbolTableRecord
100
AcDbDimStyleTableRecord
  2
ME10_DIM_26
 70
     0
 41
7.0
 42
0.0
 44
2.0
 73
     0
 74
     0
 77
     1
 78
     8
140
7.0
147
4.0
172
     1
173
     1
176
     2
177
     2
178
     3
271
     3
340
304
  0
DIMSTYLE
105
41D
102
{ACAD_REACTORS
330
41E
102
}
330
A
100
AcDbSymbolTableRecord
100
AcDbDimStyleTableRecord
  2
ME10_DIM_27
 70
     0
 41
7.0
 42
0.0
 44
2.0
 73
     0
 74
     0
 77
     1
 78
     8
140
7.0
147
4.0
172
     1
173
     1
176
     2
177
     2
178
     3
271
     3
340
304
  0
DIMSTYLE
105
428
102
{ACAD_REACTORS
330
429
102
}
330
A
100
AcDbSymbolTableRecord
100
AcDbDimStyleTableRecord
  2
ME10_DIM_28
 70
     0
 41
7.0
 42
0.0
 44
2.0
 73
     0
 74
     0
 77
     1
 78
     8
140
7.0
147
4.0
172
     1
173
     1
176
     2
177
     2
178
     3
271
     3
340
304
  0
DIMSTYLE
105
445
102
{ACAD_REACTORS
330
446
102
}
330
A
100
AcDbSymbolTableRecord
100
AcDbDimStyleTableRecord
  2
ME10_DIM_29
 70
     0
 41
7.0
 42
0.0
 44
2.0
 73
     0
 74
     0
 77
     1
 78
     8
140
7.0
147
4.0
172
     1
173
     1
176
     2
177
     2
178
     3
271
     3
340
304
  0
ENDTAB
  0
TABLE
  2
BLOCK_RECORD
  5
1
330
0
100
AcDbSymbolTable
 70
    37
  0
BLOCK_RECORD
  5
1F
330
1
100
AcDbSymbolTableRecord
100
AcDbBlockTableRecord
  2
*Model_Space
340
22
  0
BLOCK_RECORD
  5
1B
330
1
100
AcDbSymbolTableRecord
100
AcDbBlockTableRecord
  2
*Paper_Space
340
1E
  0
BLOCK_RECORD
  5
23
330
1
100
AcDbSymbolTableRecord
100
AcDbBlockTableRecord
  2
*Paper_Space0
340
26
  0
BLOCK_RECORD
  5
32
330
1
100
AcDbSymbolTableRecord
100
AcDbBlockTableRecord
  2
Verschlu_schraube
340
0
102
{BLKREFS
331
3F
102
}
  0
BLOCK_RECORD
  5
35
330
1
100
AcDbSymbolTableRecord
100
AcDbBlockTableRecord
  2
Stecker
340
0
102
{BLKREFS
331
40
102
}
  0
BLOCK_RECORD
  5
38
330
1
100
AcDbSymbolTableRecord
100
AcDbBlockTableRecord
  2
Linsenschraube_DIN_7985_-_M3_5_x_14_-__-_
340
0
102
{BLKREFS
331
41
102
}
  0
BLOCK_RECORD
  5
3B
330
1
100
AcDbSymbolTableRecord
100
AcDbBlockTableRecord
  2
Zylinderschraube_DIN_912_-_M4_x_6_-_
340
0
102
{BLKREFS
331
42
102
}
  0
BLOCK_RECORD
  5
3E
330
1
100
AcDbSymbolTableRecord
100
AcDbBlockTableRecord
  2
Servoverst_rker
340
0
102
{BLKREFS
331
60
102
}
  0
BLOCK_RECORD
  5
45
330
1
100
AcDbSymbolTableRecord
100
AcDbBlockTableRecord
  2
Pa_feder
340
0
102
{BLKREFS
331
61
102
}
  0
BLOCK_RECORD
  5
48
330
1
100
AcDbSymbolTableRecord
100
AcDbBlockTableRecord
  2
Flachlagerschild_B5_A90
340
0
102
{BLKREFS
331
62
102
}
  0
BLOCK_RECORD
  5
4B
330
1
100
AcDbSymbolTableRecord
100
AcDbBlockTableRecord
  2
Rotor
340
0
102
{BLKREFS
331
63
102
}
  0
BLOCK_RECORD
  5
4E
330
1
100
AcDbSymbolTableRecord
100
AcDbBlockTableRecord
  2
Sechskantschraube
340
0
102
{BLKREFS
331
64
102
}
  0
BLOCK_RECORD
  5
51
330
1
100
AcDbSymbolTableRecord
100
AcDbBlockTableRecord
  2
Geh_use
340
0
102
{BLKREFS
331
65
102
}
  0
BLOCK_RECORD
  5
54
330
1
100
AcDbSymbolTableRecord
100
AcDbBlockTableRecord
  2
Lagerschild_B-Seite
340
0
102
{BLKREFS
331
66
102
}
  0
BLOCK_RECORD
  5
57
330
1
100
AcDbSymbolTableRecord
100
AcDbBlockTableRecord
  2
Abschlu_deckel
340
0
102
{BLKREFS
331
67
102
}
  0
BLOCK_RECORD
  5
5A
330
1
100
AcDbSymbolTableRecord
100
AcDbBlockTableRecord
  2
Steckerplatte
340
0
102
{BLKREFS
331
68
102
}
  0
BLOCK_RECORD
  5
5D
330
1
100
AcDbSymbolTableRecord
100
AcDbBlockTableRecord
  2
tb_frame_A3
340
0
102
{BLKREFS
331
69
102
}
  0
BLOCK_RECORD
  5
349
330
1
100
AcDbSymbolTableRecord
100
AcDbBlockTableRecord
  2
*D15
340
0
  0
BLOCK_RECORD
  5
354
330
1
100
AcDbSymbolTableRecord
100
AcDbBlockTableRecord
  2
*D16
340
0
  0
BLOCK_RECORD
  5
35F
330
1
100
AcDbSymbolTableRecord
100
AcDbBlockTableRecord
  2
*D17
340
0
  0
BLOCK_RECORD
  5
36A
330
1
100
AcDbSymbolTableRecord
100
AcDbBlockTableRecord
  2
*D18
340
0
  0
BLOCK_RECORD
  5
375
330
1
100
AcDbSymbolTableRecord
100
AcDbBlockTableRecord
  2
*D19
340
0
  0
BLOCK_RECORD
  5
380
330
1
100
AcDbSymbolTableRecord
100
AcDbBlockTableRecord
  2
*D20
340
0
  0
BLOCK_RECORD
  5
38B
330
1
100
AcDbSymbolTableRecord
100
AcDbBlockTableRecord
  2
*D21
340
0
  0
BLOCK_RECORD
  5
396
330
1
100
AcDbSymbolTableRecord
100
AcDbBlockTableRecord
  2
*D22
340
0
  0
BLOCK_RECORD
  5
3A3
330
1
100
AcDbSymbolTableRecord
100
AcDbBlockTableRecord
  2
*D23
340
0
  0
BLOCK_RECORD
  5
3B0
330
1
100
AcDbSymbolTableRecord
100
AcDbBlockTableRecord
  2
*D24
340
0
  0
BLOCK_RECORD
  5
3BD
330
1
100
AcDbSymbolTableRecord
100
AcDbBlockTableRecord
  2
*D25
340
0
  0
BLOCK_RECORD
  5
3C8
330
1
100
AcDbSymbolTableRecord
100
AcDbBlockTableRecord
  2
*D26
340
0
  0
BLOCK_RECORD
  5
3D3
330
1
100
AcDbSymbolTableRecord
100
AcDbBlockTableRecord
  2
*D27
340
0
  0
BLOCK_RECORD
  5
3E0
330
1
100
AcDbSymbolTableRecord
100
AcDbBlockTableRecord
  2
*D28
340
0
  0
BLOCK_RECORD
  5
3ED
330
1
100
AcDbSymbolTableRecord
100
AcDbBlockTableRecord
  2
*D29
340
0
  0
BLOCK_RECORD
  5
3FA
330
1
100
AcDbSymbolTableRecord
100
AcDbBlockTableRecord
  2
*D30
340
0
  0
BLOCK_RECORD
  5
405
330
1
100
AcDbSymbolTableRecord
100
AcDbBlockTableRecord
  2
*D31
340
0
  0
BLOCK_RECORD
  5
412
330
1
100
AcDbSymbolTableRecord
100
AcDbBlockTableRecord
  2
*D32
340
0
  0
BLOCK_RECORD
  5
41F
330
1
100
AcDbSymbolTableRecord
100
AcDbBlockTableRecord
  2
*D33
340
0
  0
BLOCK_RECORD
  5
42A
330
1
100
AcDbSymbolTableRecord
100
AcDbBlockTableRecord
  2
*D34
340
0
102
{BLKREFS
331
431
102
}
  0
BLOCK_RECORD
  5
432
330
1
100
AcDbSymbolTableRecord
100
AcDbBlockTableRecord
  2
*D35
340
0
102
{BLKREFS
331
439
102
}
  0
BLOCK_RECORD
  5
43A
330
1
100
AcDbSymbolTableRecord
100
AcDbBlockTableRecord
  2
*D36
340
0
  0
ENDTAB
  0
ENDSEC
  0
SECTION
  2
BLOCKS
  0
BLOCK
  5
20
330
1F
100
AcDbEntity
  8
0
100
AcDbBlockBegin
  2
*Model_Space
 70
     0
 71
     0
 10
0.0
 20
0.0
 30
0.0
  3
*Model_Space
  1

  0
ENDBLK
  5
21
330
1F
100
AcDbEntity
  8
0
100
AcDbBlockEnd
  0
BLOCK
  5
1C
330
1B
100
AcDbEntity
 67
     1
  8
0
100
AcDbBlockBegin
  2
*Paper_Space
 70
     0
 71
     0
 10
0.0
 20
0.0
 30
0.0
  3
*Paper_Space
  1

  0
ENDBLK
  5
1D
330
1B
100
AcDbEntity
 67
     1
  8
0
100
AcDbBlockEnd
  0
BLOCK
  5
24
330
23
100
AcDbEntity
  8
0
100
AcDbBlockBegin
  2
*Paper_Space0
 70
     0
 71
     0
 10
0.0
 20
0.0
 30
0.0
  3
*Paper_Space0
  1

  0
ENDBLK
  5
25
330
23
100
AcDbEntity
  8
0
100
AcDbBlockEnd
  0
BLOCK
  5
33
330
32
100
AcDbEntity
  8
0
100
AcDbBlockBegin
  2
Verschlu_schraube
 70
     0
 71
     0
 10
76.0958684834117
 20
150.493943
 30
0.0
  3
Verschlu_schraube
  1

  0
LINE
  5
6A
330
32
100
AcDbEntity
  8
1
  6
Continuous
 62
     2
100
AcDbLine
 10
168.3228977104025
 20
165.2062536012294
 30
0.0
 11
169.3835578821823
 21
166.2669137730092
 31
0.0
  0
LINE
  5
6B
330
32
100
AcDbEntity
  8
1
  6
Continuous
 62
     2
100
AcDbLine
 10
176.8081790846411
 20
156.7209722269908
 30
0.0
 11
177.8688392564209
 21
157.7816323987706
 31
0.0
  0
LINE
  5
6C
330
32
100
AcDbEntity
  8
1
  6
Continuous
 62
     2
100
AcDbLine
 10
169.3835578821823
 20
166.2669137730092
 30
0.0
 11
177.8688392564209
 21
157.7816323987706
 31
0.0
  0
LINE
  5
6D
330
32
100
AcDbEntity
  8
1
  6
Continuous
 62
     2
100
AcDbLine
 10
168.3228977104025
 20
165.2062536012294
 30
0.0
 11
176.8081790846411
 21
156.7209722269908
 31
0.0
  0
CIRCLE
  5
6E
330
32
100
AcDbEntity
  8
1
  6
Continuous
 62
     3
100
AcDbCircle
 10
173.0958684834117
 20
161.493943
 30
0.0
 40
9.0
  0
ENDBLK
  5
34
330
32
100
AcDbEntity
  8
0
100
AcDbBlockEnd
  0
BLOCK
  5
36
330
35
100
AcDbEntity
  8
0
100
AcDbBlockBegin
  2
Stecker
 70
     0
 71
     0
 10
-127.6772655575278
 20
124.993943
 30
0.0
  3
Stecker
  1

  0
LINE
  5
6F
330
35
100
AcDbEntity
  8
1
  6
Continuous
 62
     3
100
AcDbLine
 10
195.4958684834117
 20
164.1472428322843
 30
0.0
 11
195.4958684834117
 21
158.8406431677157
 31
0.0
  0
LINE
  5
70
330
35
100
AcDbEntity
  8
1
  6
Continuous
 62
     3
100
AcDbLine
 10
212.6958684834117
 20
164.1472428322843
 30
0.0
 11
212.6958684834117
 21
158.8406431677157
 31
0.0
  0
LINE
  5
71
330
35
100
AcDbEntity
  8
1
  6
Continuous
 62
     2
100
AcDbLine
 10
202.8458684834117
 20
167.3622902971528
 30
0.0
 11
202.8458684834117
 21
165.993943
 31
0.0
  0
LINE
  5
72
330
35
100
AcDbEntity
  8
1
  6
Continuous
 62
     2
100
AcDbLine
 10
205.3458684834117
 20
167.3622902971528
 30
0.0
 11
205.3458684834117
 21
165.993943
 31
0.0
  0
LINE
  5
73
330
35
100
AcDbEntity
  8
1
  6
Continuous
 62
     2
100
AcDbLine
 10
202.8458684834117
 20
165.993943
 30
0.0
 11
205.3458684834117
 21
165.993943
 31
0.0
  0
LINE
  5
74
330
35
100
AcDbEntity
  8
1
  6
DOT_CENTER
 62
     2
100
AcDbLine
 10
213.9958684834117
 20
161.493943
 30
0.0
 11
194.1958684834117
 21
161.493943
 31
0.0
  0
LINE
  5
75
330
35
100
AcDbEntity
  8
1
  6
DOT_CENTER
 62
     2
100
AcDbLine
 10
204.0958684834117
 20
171.393943
 30
0.0
 11
204.0958684834117
 21
151.593943
 31
0.0
  0
LINE
  5
76
330
35
100
AcDbEntity
  8
1
  6
Continuous
 62
     3
100
AcDbLine
 10
226.4958684834117
 20
164.1472428322843
 30
0.0
 11
226.4958684834117
 21
158.8406431677157
 31
0.0
  0
LINE
  5
77
330
35
100
AcDbEntity
  8
1
  6
Continuous
 62
     3
100
AcDbLine
 10
243.6958684834117
 20
164.1472428322843
 30
0.0
 11
243.6958684834117
 21
158.8406431677157
 31
0.0
  0
LINE
  5
78
330
35
100
AcDbEntity
  8
1
  6
DOT_CENTER
 62
     2
100
AcDbLine
 10
244.9958684834116
 20
161.493943
 30
0.0
 11
225.1958684834117
 21
161.493943
 31
0.0
  0
LINE
  5
79
330
35
100
AcDbEntity
  8
1
  6
DOT_CENTER
 62
     2
100
AcDbLine
 10
235.0958684834117
 20
171.393943
 30
0.0
 11
235.0958684834117
 21
151.593943
 31
0.0
  0
LINE
  5
7A
330
35
100
AcDbEntity
  8
1
  6
Continuous
 62
     2
100
AcDbLine
 10
235.8029752645983
 20
135.993943
 30
0.0
 11
237.9242956081579
 21
133.8726226564403
 31
0.0
  0
LINE
  5
7B
330
35
100
AcDbEntity
  8
1
  6
Continuous
 62
     2
100
AcDbLine
 10
237.9242956081579
 20
138.1152633435597
 30
0.0
 11
235.8029752645983
 21
135.993943
 31
0.0
  0
LINE
  5
7C
330
35
100
AcDbEntity
  8
1
  6
Continuous
 62
     2
100
AcDbLine
 10
235.0958684834117
 20
135.2868362188134
 30
0.0
 11
232.9745481398521
 21
133.1655158752538
 31
0.0
  0
LINE
  5
7D
330
35
100
AcDbEntity
  8
1
  6
Continuous
 62
     2
100
AcDbLine
 10
234.3887617022251
 20
135.993943
 30
0.0
 11
232.2674413586655
 21
133.8726226564403
 31
0.0
  0
LINE
  5
7E
330
35
100
AcDbEntity
  8
1
  6
Continuous
 62
     2
100
AcDbLine
 10
237.2171888269713
 20
138.8223701247462
 30
0.0
 11
235.0958684834117
 21
136.7010497811866
 31
0.0
  0
LINE
  5
7F
330
35
100
AcDbEntity
  8
1
  6
Continuous
 62
     2
100
AcDbLine
 10
232.9745481398521
 20
138.8223701247462
 30
0.0
 11
233.3281015304453
 21
138.4688167341529
 31
0.0
  0
LINE
  5
80
330
35
100
AcDbEntity
  8
1
  6
Continuous
 62
     2
100
AcDbLine
 10
235.0958684834117
 20
135.2868362188134
 30
0.0
 11
237.2171888269713
 21
133.1655158752538
 31
0.0
  0
LINE
  5
81
330
35
100
AcDbEntity
  8
1
  6
Continuous
 62
     2
100
AcDbLine
 10
232.2674413586655
 20
138.1152633435597
 30
0.0
 11
234.3887617022251
 21
135.993943
 31
0.0
  0
LINE
  5
82
330
35
100
AcDbEntity
  8
1
  6
Continuous
 62
     3
100
AcDbLine
 10
229.899716060705
 20
144.993943
 30
0.0
 11
224.7035636379984
 21
135.993943
 31
0.0
  0
LINE
  5
83
330
35
100
AcDbEntity
  8
1
  6
Continuous
 62
     3
100
AcDbLine
 10
229.899716060705
 20
126.993943
 30
0.0
 11
224.7035636379984
 21
135.993943
 31
0.0
  0
LINE
  5
84
330
35
100
AcDbEntity
  8
1
  6
Continuous
 62
     3
100
AcDbLine
 10
245.488173328825
 20
135.993943
 30
0.0
 11
240.2920209061183
 21
126.993943
 31
0.0
  0
LINE
  5
85
330
35
100
AcDbEntity
  8
1
  6
Continuous
 62
     3
100
AcDbLine
 10
240.2920209061183
 20
144.993943
 30
0.0
 11
245.488173328825
 21
135.993943
 31
0.0
  0
LINE
  5
86
330
35
100
AcDbEntity
  8
1
  6
Continuous
 62
     3
100
AcDbLine
 10
240.2920209061183
 20
144.993943
 30
0.0
 11
229.899716060705
 21
144.993943
 31
0.0
  0
LINE
  5
87
330
35
100
AcDbEntity
  8
1
  6
Continuous
 62
     3
100
AcDbLine
 10
240.2920209061183
 20
126.993943
 30
0.0
 11
229.899716060705
 21
126.993943
 31
0.0
  0
LINE
  5
88
330
35
100
AcDbEntity
  8
1
  6
Continuous
 62
     2
100
AcDbLine
 10
235.0530091089347
 20
140.1937243126423
 30
0.0
 11
233.3281015304453
 21
138.4688167341529
 31
0.0
  0
LINE
  5
89
330
35
100
AcDbEntity
  8
1
  6
Continuous
 62
     2
100
AcDbLine
 10
233.3281015304453
 20
138.4688167341529
 30
0.0
 11
235.0958684834117
 21
136.7010497811866
 31
0.0
  0
LINE
  5
8A
330
35
100
AcDbEntity
  8
1
  6
Continuous
 62
     2
100
AcDbLine
 10
230.8960871707694
 20
136.036802374477
 30
0.0
 11
232.3933875612956
 21
137.5341027650032
 31
0.0
  0
LINE
  5
8B
330
35
100
AcDbEntity
  8
1
  6
DOT_CENTER
 62
     2
100
AcDbLine
 10
243.3458684834117
 20
135.993943
 30
0.0
 11
226.8458684834117
 21
135.993943
 31
0.0
  0
LINE
  5
8C
330
35
100
AcDbEntity
  8
1
  6
DOT_CENTER
 62
     2
100
AcDbLine
 10
235.0958684834117
 20
144.243943
 30
0.0
 11
235.0958684834117
 21
127.743943
 31
0.0
  0
LINE
  5
8D
330
35
100
AcDbEntity
  8
1
  6
Continuous
 62
     2
100
AcDbLine
 10
170.9745481398521
 20
138.8223701247462
 30
0.0
 11
171.3059174457796
 21
138.4910008188186
 31
0.0
  0
LINE
  5
8E
330
35
100
AcDbEntity
  8
1
  6
Continuous
 62
     2
100
AcDbLine
 10
170.2674413586655
 20
138.1152633435597
 30
0.0
 11
170.598810664593
 21
137.7838940376321
 31
0.0
  0
LINE
  5
8F
330
35
100
AcDbEntity
  8
1
  6
Continuous
 62
     3
100
AcDbLine
 10
167.8997160607051
 20
144.993943
 30
0.0
 11
162.7035636379984
 21
135.993943
 31
0.0
  0
LINE
  5
90
330
35
100
AcDbEntity
  8
1
  6
Continuous
 62
     3
100
AcDbLine
 10
167.8997160607051
 20
126.993943
 30
0.0
 11
162.7035636379984
 21
135.993943
 31
0.0
  0
LINE
  5
91
330
35
100
AcDbEntity
  8
1
  6
Continuous
 62
     3
100
AcDbLine
 10
183.488173328825
 20
135.993943
 30
0.0
 11
178.2920209061183
 21
126.993943
 31
0.0
  0
LINE
  5
92
330
35
100
AcDbEntity
  8
1
  6
Continuous
 62
     3
100
AcDbLine
 10
178.2920209061183
 20
144.993943
 30
0.0
 11
183.488173328825
 21
135.993943
 31
0.0
  0
LINE
  5
93
330
35
100
AcDbEntity
  8
1
  6
Continuous
 62
     3
100
AcDbLine
 10
178.2920209061183
 20
144.993943
 30
0.0
 11
167.8997160607051
 21
144.993943
 31
0.0
  0
LINE
  5
94
330
35
100
AcDbEntity
  8
1
  6
Continuous
 62
     3
100
AcDbLine
 10
178.2920209061183
 20
126.993943
 30
0.0
 11
167.8997160607051
 21
126.993943
 31
0.0
  0
LINE
  5
95
330
35
100
AcDbEntity
  8
1
  6
Continuous
 62
     2
100
AcDbLine
 10
171.3059174457796
 20
138.4910008188186
 30
0.0
 11
173.0079391003205
 21
140.1930224733595
 31
0.0
  0
LINE
  5
96
330
35
100
AcDbEntity
  8
1
  6
Continuous
 62
     2
100
AcDbLine
 10
170.598810664593
 20
137.7838940376321
 30
0.0
 11
168.8967890100522
 21
136.0818723830913
 31
0.0
  0
LINE
  5
97
330
35
100
AcDbEntity
  8
1
  6
DOT_CENTER
 62
     2
100
AcDbLine
 10
181.3458684834119
 20
135.9939430000001
 30
0.0
 11
164.8458684834119
 21
135.9939430000001
 31
0.0
  0
LINE
  5
98
330
35
100
AcDbEntity
  8
1
  6
DOT_CENTER
 62
     2
100
AcDbLine
 10
173.0958684834119
 20
144.2439430000001
 30
0.0
 11
173.0958684834119
 21
127.7439430000001
 31
0.0
  0
LINE
  5
99
330
35
100
AcDbEntity
  8
1
  6
DOT_CENTER
 62
     2
100
AcDbLine
 10
-32.31743876873479
 20
135.993943
 30
0.0
 11
-21.31743876873479
 21
135.993943
 31
0.0
  0
LINE
  5
9A
330
35
100
AcDbEntity
  8
1
  6
Continuous
 62
     7
100
AcDbLine
 10
-27.85713199999999
 20
131.743943
 30
0.0
 11
-27.85713199999999
 21
129.243943
 31
0.0
  0
LINE
  5
9B
330
35
100
AcDbEntity
  8
1
  6
Continuous
 62
     7
100
AcDbLine
 10
-27.85713199999999
 20
129.243943
 30
0.0
 11
-27.85713199999999
 21
128.493943
 31
0.0
  0
LINE
  5
9C
330
35
100
AcDbEntity
  8
1
  6
Continuous
 62
     2
100
AcDbLine
 10
-30.35713199999999
 20
129.243943
 30
0.0
 11
-27.85713199999999
 21
129.243943
 31
0.0
  0
LINE
  5
9D
330
35
100
AcDbEntity
  8
1
  6
Continuous
 62
     7
100
AcDbLine
 10
-27.85713199999999
 20
142.743943
 30
0.0
 11
-27.85713199999999
 21
131.743943
 31
0.0
  0
LINE
  5
9E
330
35
100
AcDbEntity
  8
1
  6
Continuous
 62
     2
100
AcDbLine
 10
-30.35713199999999
 20
142.743943
 30
0.0
 11
-27.85713199999999
 21
142.743943
 31
0.0
  0
LINE
  5
9F
330
35
100
AcDbEntity
  8
1
  6
Continuous
 62
     7
100
AcDbLine
 10
-27.85713199999999
 20
128.493943
 30
0.0
 11
-30.35713199999999
 21
128.493943
 31
0.0
  0
LINE
  5
A0
330
35
100
AcDbEntity
  8
1
  6
Continuous
 62
     7
100
AcDbLine
 10
-27.85713199999999
 20
143.493943
 30
0.0
 11
-30.35713199999999
 21
143.493943
 31
0.0
  0
LINE
  5
A1
330
35
100
AcDbEntity
  8
1
  6
Continuous
 62
     7
100
AcDbLine
 10
-37.35713199999999
 20
142.743943
 30
0.0
 11
-37.35713199999999
 21
129.243943
 31
0.0
  0
LINE
  5
A2
330
35
100
AcDbEntity
  8
1
  6
Continuous
 62
     7
100
AcDbLine
 10
-30.35713199999999
 20
142.743943
 30
0.0
 11
-30.35713199999999
 21
128.493943
 31
0.0
  0
LINE
  5
A3
330
35
100
AcDbEntity
  8
1
  6
Continuous
 62
     7
100
AcDbLine
 10
-30.35713199999999
 20
129.243943
 30
0.0
 11
-37.35713199999999
 21
129.243943
 31
0.0
  0
LINE
  5
A4
330
35
100
AcDbEntity
  8
1
  6
Continuous
 62
     7
100
AcDbLine
 10
-30.35713199999999
 20
142.743943
 30
0.0
 11
-37.35713199999999
 21
142.743943
 31
0.0
  0
LINE
  5
A5
330
35
100
AcDbEntity
  8
1
  6
Continuous
 62
     7
100
AcDbLine
 10
-30.35713199999999
 20
143.493943
 30
0.0
 11
-30.35713199999999
 21
142.743943
 31
0.0
  0
LINE
  5
A6
330
35
100
AcDbEntity
  8
1
  6
Continuous
 62
     7
100
AcDbLine
 10
-27.85713199999999
 20
128.493943
 30
0.0
 11
-27.85713199999999
 21
126.993943
 31
0.0
  0
LINE
  5
A7
330
35
100
AcDbEntity
  8
1
  6
Continuous
 62
     7
100
AcDbLine
 10
-27.85713199999999
 20
143.493943
 30
0.0
 11
-27.85713199999999
 21
142.743943
 31
0.0
  0
LINE
  5
A8
330
35
100
AcDbEntity
  8
1
  6
Continuous
 62
     7
100
AcDbLine
 10
-25.35713199999999
 20
126.993943
 30
0.0
 11
-25.35713199999999
 21
144.993943
 31
0.0
  0
LINE
  5
A9
330
35
100
AcDbEntity
  8
1
  6
Continuous
 62
     7
100
AcDbLine
 10
-27.85713199999999
 20
144.993943
 30
0.0
 11
-27.85713199999999
 21
143.493943
 31
0.0
  0
LINE
  5
AA
330
35
100
AcDbEntity
  8
1
  6
Continuous
 62
     7
100
AcDbLine
 10
-25.35713199999999
 20
144.993943
 30
0.0
 11
-27.85713199999999
 21
144.993943
 31
0.0
  0
LINE
  5
AB
330
35
100
AcDbEntity
  8
1
  6
Continuous
 62
     7
100
AcDbLine
 10
-27.85713199999999
 20
126.993943
 30
0.0
 11
-25.35713199999999
 21
126.993943
 31
0.0
  0
LINE
  5
AC
330
35
100
AcDbEntity
  8
1
  6
Continuous
 62
     7
100
AcDbLine
 10
-39.35713199999999
 20
153.993943
 30
0.0
 11
-39.35713199999999
 21
152.993943
 31
0.0
  0
LINE
  5
AD
330
35
100
AcDbEntity
  8
1
  6
Continuous
 62
     7
100
AcDbLine
 10
-32.85713199999999
 20
153.993943
 30
0.0
 11
-32.85713199999999
 21
152.993943
 31
0.0
  0
LINE
  5
AE
330
35
100
AcDbEntity
  8
1
  6
Continuous
 62
     2
100
AcDbLine
 10
-39.35713199999999
 20
153.993943
 30
0.0
 11
-32.85713199999999
 21
153.993943
 31
0.0
  0
LINE
  5
AF
330
35
100
AcDbEntity
  8
1
  6
Continuous
 62
     7
100
AcDbLine
 10
-39.35713199999999
 20
168.993943
 30
0.0
 11
-39.35713199999999
 21
153.993943
 31
0.0
  0
LINE
  5
B0
330
35
100
AcDbEntity
  8
1
  6
Continuous
 62
     7
100
AcDbLine
 10
-32.85713199999999
 20
168.993943
 30
0.0
 11
-32.85713199999999
 21
153.993943
 31
0.0
  0
LINE
  5
B1
330
35
100
AcDbEntity
  8
1
  6
Continuous
 62
     2
100
AcDbLine
 10
-39.35713199999999
 20
168.993943
 30
0.0
 11
-32.85713199999999
 21
168.993943
 31
0.0
  0
LINE
  5
B2
330
35
100
AcDbEntity
  8
1
  6
Continuous
 62
     7
100
AcDbLine
 10
-39.35713199999999
 20
169.993943
 30
0.0
 11
-39.35713199999999
 21
168.993943
 31
0.0
  0
LINE
  5
B3
330
35
100
AcDbEntity
  8
1
  6
Continuous
 62
     7
100
AcDbLine
 10
-43.35713199999999
 20
168.243943
 30
0.0
 11
-43.35713199999999
 21
154.743943
 31
0.0
  0
LINE
  5
B4
330
35
100
AcDbEntity
  8
1
  6
Continuous
 62
     7
100
AcDbLine
 10
-43.35713199999999
 20
168.243943
 30
0.0
 11
-39.35713199999999
 21
168.243943
 31
0.0
  0
LINE
  5
B5
330
35
100
AcDbEntity
  8
1
  6
Continuous
 62
     7
100
AcDbLine
 10
-43.35713199999999
 20
154.743943
 30
0.0
 11
-39.35713199999999
 21
154.743943
 31
0.0
  0
LINE
  5
B6
330
35
100
AcDbEntity
  8
1
  6
Continuous
 62
     7
100
AcDbLine
 10
-32.85713199999999
 20
152.993943
 30
0.0
 11
-32.85713199999999
 21
152.893943
 31
0.0
  0
LINE
  5
B7
330
35
100
AcDbEntity
  8
1
  6
Continuous
 62
     7
100
AcDbLine
 10
-32.85713199999999
 20
152.993943
 30
0.0
 11
-39.35713199999999
 21
152.993943
 31
0.0
  0
LINE
  5
B8
330
35
100
AcDbEntity
  8
1
  6
Continuous
 62
     7
100
AcDbLine
 10
-32.85713199999999
 20
169.993943
 30
0.0
 11
-32.85713199999999
 21
168.993943
 31
0.0
  0
LINE
  5
B9
330
35
100
AcDbEntity
  8
1
  6
Continuous
 62
     7
100
AcDbLine
 10
-32.85713199999999
 20
169.993943
 30
0.0
 11
-39.35713199999999
 21
169.993943
 31
0.0
  0
LINE
  5
BA
330
35
100
AcDbEntity
  8
1
  6
Continuous
 62
     7
100
AcDbLine
 10
-32.85713199999999
 20
170.093943
 30
0.0
 11
-32.85713199999999
 21
169.993943
 31
0.0
  0
LINE
  5
BB
330
35
100
AcDbEntity
  8
1
  6
Continuous
 62
     7
100
AcDbLine
 10
-30.35713199999999
 20
152.893943
 30
0.0
 11
-30.35713199999999
 21
152.493943
 31
0.0
  0
LINE
  5
BC
330
35
100
AcDbEntity
  8
1
  6
Continuous
 62
     7
100
AcDbLine
 10
-30.35713199999999
 20
152.893943
 30
0.0
 11
-32.85713199999999
 21
152.893943
 31
0.0
  0
LINE
  5
BD
330
35
100
AcDbEntity
  8
1
  6
Continuous
 62
     7
100
AcDbLine
 10
-30.35713199999999
 20
170.093943
 30
0.0
 11
-30.35713199999999
 21
152.893943
 31
0.0
  0
LINE
  5
BE
330
35
100
AcDbEntity
  8
1
  6
Continuous
 62
     7
100
AcDbLine
 10
-30.35713199999999
 20
170.093943
 30
0.0
 11
-32.85713199999999
 21
170.093943
 31
0.0
  0
LINE
  5
BF
330
35
100
AcDbEntity
  8
1
  6
Continuous
 62
     7
100
AcDbLine
 10
-30.35713199999999
 20
170.493943
 30
0.0
 11
-30.35713199999999
 21
170.093943
 31
0.0
  0
LINE
  5
C0
330
35
100
AcDbEntity
  8
1
  6
Continuous
 62
     7
100
AcDbLine
 10
-25.35713199999999
 20
152.493943
 30
0.0
 11
-30.35713199999999
 21
152.493943
 31
0.0
  0
LINE
  5
C1
330
35
100
AcDbEntity
  8
1
  6
Continuous
 62
     7
100
AcDbLine
 10
-25.35713199999999
 20
170.493943
 30
0.0
 11
-30.35713199999999
 21
170.493943
 31
0.0
  0
LINE
  5
C2
330
35
100
AcDbEntity
  8
1
  6
DOT_CENTER
 62
     2
100
AcDbLine
 10
-28.35713199999999
 20
135.993943
 30
0.0
 11
-39.35713199999999
 21
135.993943
 31
0.0
  0
LINE
  5
C3
330
35
100
AcDbEntity
  8
1
  6
DOT_CENTER
 62
     2
100
AcDbLine
 10
-30.85713199999999
 20
161.493943
 30
0.0
 11
-41.35713199999999
 21
161.493943
 31
0.0
  0
ARC
  5
C4
330
35
100
AcDbEntity
  8
1
  6
Continuous
 62
     3
100
AcDbCircle
 10
204.0958684834117
 20
161.493943
 30
0.0
 40
8.999999999999986
100
AcDbArc
 50
-162.8537900011084
 51
-17.14620999889161
  0
ARC
  5
C5
330
35
100
AcDbEntity
  8
1
  6
Continuous
 62
     3
100
AcDbCircle
 10
204.0958684834117
 20
161.493943
 30
0.0
 40
8.999999999999986
100
AcDbArc
 50
17.14620999889161
 51
162.8537900011084
  0
ARC
  5
C6
330
35
100
AcDbEntity
  8
1
  6
Continuous
 62
     2
100
AcDbCircle
 10
204.0958684834117
 20
161.493943
 30
0.0
 40
6.000000000000057
100
AcDbArc
 50
102.0246991805657
 51
77.9753008194343
  0
ARC
  5
C7
330
35
100
AcDbEntity
  8
1
  6
Continuous
 62
     2
100
AcDbCircle
 10
235.0958684834117
 20
161.493943
 30
0.0
 40
5.75
100
AcDbArc
 50
0.0
 51
80.0229160488877
  0
ARC
  5
C8
330
35
100
AcDbEntity
  8
1
  6
Continuous
 62
     2
100
AcDbCircle
 10
235.0958684834117
 20
161.493943
 30
0.0
 40
5.750000000000033
100
AcDbArc
 50
99.97708395111204
 51
0.0
  0
ARC
  5
C9
330
35
100
AcDbEntity
  8
1
  6
Continuous
 62
     2
100
AcDbCircle
 10
235.0958684834117
 20
167.243943
 30
0.0
 40
0.9999999999999936
100
AcDbArc
 50
-175.0114580244458
 51
-4.98854197555403
  0
ARC
  5
CA
330
35
100
AcDbEntity
  8
1
  6
Continuous
 62
     3
100
AcDbCircle
 10
235.0958684834117
 20
161.493943
 30
0.0
 40
8.999999999999986
100
AcDbArc
 50
-162.8537900011084
 51
-17.14620999889161
  0
ARC
  5
CB
330
35
100
AcDbEntity
  8
1
  6
Continuous
 62
     3
100
AcDbCircle
 10
235.0958684834117
 20
161.493943
 30
0.0
 40
8.999999999999986
100
AcDbArc
 50
17.14620999889161
 51
162.8537900011084
  0
ARC
  5
CC
330
35
100
AcDbEntity
  8
1
  6
Continuous
 62
     2
100
AcDbCircle
 10
235.0958684834117
 20
135.993943
 30
0.0
 40
4.200000000000017
100
AcDbArc
 50
0.0
 51
90.58469140280702
  0
ARC
  5
CD
330
35
100
AcDbEntity
  8
1
  6
Continuous
 62
     2
100
AcDbCircle
 10
235.0958684834117
 20
135.993943
 30
0.0
 40
4.200000000000006
100
AcDbArc
 50
179.415308597193
 51
0.0
  0
ARC
  5
CE
330
35
100
AcDbEntity
  8
1
  6
Continuous
 62
     2
100
AcDbCircle
 10
173.0958684834117
 20
135.993943
 30
0.0
 40
4.200000000000017
100
AcDbArc
 50
0.0
 51
91.1996072956788
  0
ARC
  5
CF
330
35
100
AcDbEntity
  8
1
  6
Continuous
 62
     2
100
AcDbCircle
 10
173.0958684834117
 20
135.993943
 30
0.0
 40
4.19999999999998
100
AcDbArc
 50
178.8003927043196
 51
0.0
  0
ARC
  5
D0
330
35
100
AcDbEntity
  8
1
  6
Continuous
 62
     2
100
AcDbCircle
 10
173.0958684834117
 20
135.993943
 30
0.0
 40
4.199999999999977
100
AcDbArc
 50
91.1996072956788
 51
178.8003927043196
  0
CIRCLE
  5
D1
330
35
100
AcDbEntity
  8
1
  6
Continuous
 62
     2
100
AcDbCircle
 10
204.0958684834117
 20
161.493943
 30
0.0
 40
1.0
  0
CIRCLE
  5
D2
330
35
100
AcDbEntity
  8
1
  6
Continuous
 62
     2
100
AcDbCircle
 10
206.4055673146899
 20
160.5372344190873
 30
0.0
 40
0.499999999999975
  0
CIRCLE
  5
D3
330
35
100
AcDbEntity
  8
1
  6
Continuous
 62
     2
100
AcDbCircle
 10
205.0525770643245
 20
159.1842441687218
 30
0.0
 40
0.4999999999999859
  0
CIRCLE
  5
D4
330
35
100
AcDbEntity
  8
1
  6
Continuous
 62
     2
100
AcDbCircle
 10
206.3458684834117
 20
157.5968286829701
 30
0.0
 40
0.4999999999999672
  0
CIRCLE
  5
D5
330
35
100
AcDbEntity
  8
1
  6
Continuous
 62
     2
100
AcDbCircle
 10
204.0958684834117
 20
156.993943
 30
0.0
 40
0.5
  0
CIRCLE
  5
D6
330
35
100
AcDbEntity
  8
1
  6
Continuous
 62
     2
100
AcDbCircle
 10
201.8458684834116
 20
157.5968286829701
 30
0.0
 40
0.4999999999999918
  0
CIRCLE
  5
D7
330
35
100
AcDbEntity
  8
1
  6
Continuous
 62
     2
100
AcDbCircle
 10
203.1391599024991
 20
159.1842441687218
 30
0.0
 40
0.4999999999999424
  0
CIRCLE
  5
D8
330
35
100
AcDbEntity
  8
1
  6
Continuous
 62
     2
100
AcDbCircle
 10
201.7861696521335
 20
160.5372344190873
 30
0.0
 40
0.499999999999975
  0
CIRCLE
  5
D9
330
35
100
AcDbEntity
  8
1
  6
Continuous
 62
     2
100
AcDbCircle
 10
200.1987541663817
 20
159.2439430000001
 30
0.0
 40
0.4999999999999918
  0
CIRCLE
  5
DA
330
35
100
AcDbEntity
  8
1
  6
Continuous
 62
     2
100
AcDbCircle
 10
199.5958684834117
 20
161.4939430000001
 30
0.0
 40
0.5
  0
CIRCLE
  5
DB
330
35
100
AcDbEntity
  8
1
  6
Continuous
 62
     2
100
AcDbCircle
 10
200.1987541663817
 20
163.7439430000001
 30
0.0
 40
0.4999999999999918
  0
CIRCLE
  5
DC
330
35
100
AcDbEntity
  8
1
  6
Continuous
 62
     2
100
AcDbCircle
 10
201.7861696521335
 20
162.4506515809127
 30
0.0
 40
0.5000000000000537
  0
CIRCLE
  5
DD
330
35
100
AcDbEntity
  8
1
  6
Continuous
 62
     2
100
AcDbCircle
 10
203.1391599024989
 20
163.8036418312782
 30
0.0
 40
0.5000000000000012
  0
CIRCLE
  5
DE
330
35
100
AcDbEntity
  8
1
  6
Continuous
 62
     2
100
AcDbCircle
 10
201.8458684834117
 20
165.3910573170301
 30
0.0
 40
0.4999999999999492
  0
CIRCLE
  5
DF
330
35
100
AcDbEntity
  8
1
  6
Continuous
 62
     2
100
AcDbCircle
 10
206.3458684834117
 20
165.39105731703
 30
0.0
 40
0.4999999999999918
  0
CIRCLE
  5
E0
330
35
100
AcDbEntity
  8
1
  6
Continuous
 62
     2
100
AcDbCircle
 10
205.0525770643244
 20
163.8036418312782
 30
0.0
 40
0.4999999999999686
  0
CIRCLE
  5
E1
330
35
100
AcDbEntity
  8
1
  6
Continuous
 62
     2
100
AcDbCircle
 10
206.4055673146899
 20
162.4506515809127
 30
0.0
 40
0.4999999999999424
  0
CIRCLE
  5
E2
330
35
100
AcDbEntity
  8
1
  6
Continuous
 62
     2
100
AcDbCircle
 10
201.8458684834116
 20
157.5968286829701
 30
0.0
 40
0.4999999999999918
  0
CIRCLE
  5
E3
330
35
100
AcDbEntity
  8
1
  6
Continuous
 62
     2
100
AcDbCircle
 10
200.1987541663817
 20
159.2439430000001
 30
0.0
 40
0.4999999999999918
  0
CIRCLE
  5
E4
330
35
100
AcDbEntity
  8
1
  6
Continuous
 62
     2
100
AcDbCircle
 10
199.5958684834117
 20
161.4939430000001
 30
0.0
 40
0.5
  0
CIRCLE
  5
E5
330
35
100
AcDbEntity
  8
1
  6
Continuous
 62
     2
100
AcDbCircle
 10
200.1987541663817
 20
163.7439430000001
 30
0.0
 40
0.4999999999999918
  0
CIRCLE
  5
E6
330
35
100
AcDbEntity
  8
1
  6
Continuous
 62
     2
100
AcDbCircle
 10
201.8458684834117
 20
165.3910573170301
 30
0.0
 40
0.4999999999999492
  0
CIRCLE
  5
E7
330
35
100
AcDbEntity
  8
1
  6
Continuous
 62
     2
100
AcDbCircle
 10
206.3458684834117
 20
165.39105731703
 30
0.0
 40
0.4999999999999918
  0
CIRCLE
  5
E8
330
35
100
AcDbEntity
  8
1
  6
Continuous
 62
     2
100
AcDbCircle
 10
207.9929828004417
 20
163.743943
 30
0.0
 40
0.4999999999999918
  0
CIRCLE
  5
E9
330
35
100
AcDbEntity
  8
1
  6
Continuous
 62
     2
100
AcDbCircle
 10
208.5958684834117
 20
161.493943
 30
0.0
 40
0.5
  0
CIRCLE
  5
EA
330
35
100
AcDbEntity
  8
1
  6
Continuous
 62
     2
100
AcDbCircle
 10
207.9929828004417
 20
159.243943
 30
0.0
 40
0.4999999999999918
  0
CIRCLE
  5
EB
330
35
100
AcDbEntity
  8
1
  6
Continuous
 62
     2
100
AcDbCircle
 10
206.3458684834117
 20
157.5968286829701
 30
0.0
 40
0.4999999999999672
  0
CIRCLE
  5
EC
330
35
100
AcDbEntity
  8
1
  6
Continuous
 62
     2
100
AcDbCircle
 10
204.0958684834117
 20
156.993943
 30
0.0
 40
0.5
  0
CIRCLE
  5
ED
330
35
100
AcDbEntity
  8
1
  6
Continuous
 62
     2
100
AcDbCircle
 10
231.631766868274
 20
159.493943
 30
0.0
 40
0.4999999999999918
  0
CIRCLE
  5
EE
330
35
100
AcDbEntity
  8
1
  6
Continuous
 62
     2
100
AcDbCircle
 10
231.6317668682739
 20
163.493943
 30
0.0
 40
0.4999999999999918
  0
CIRCLE
  5
EF
330
35
100
AcDbEntity
  8
1
  6
Continuous
 62
     2
100
AcDbCircle
 10
235.0958684834117
 20
161.493943
 30
0.0
 40
0.5
  0
CIRCLE
  5
F0
330
35
100
AcDbEntity
  8
1
  6
Continuous
 62
     2
100
AcDbCircle
 10
238.5599700985495
 20
163.493943
 30
0.0
 40
0.4999999999999918
  0
CIRCLE
  5
F1
330
35
100
AcDbEntity
  8
1
  6
Continuous
 62
     2
100
AcDbCircle
 10
238.5599700985495
 20
159.493943
 30
0.0
 40
0.4999999999999918
  0
CIRCLE
  5
F2
330
35
100
AcDbEntity
  8
1
  6
Continuous
 62
     2
100
AcDbCircle
 10
235.0958684834117
 20
157.493943
 30
0.0
 40
0.5
  0
CIRCLE
  5
F3
330
35
100
AcDbEntity
  8
1
  6
Continuous
 62
     2
100
AcDbCircle
 10
235.0958684834117
 20
161.493943
 30
0.0
 40
6.75
  0
CIRCLE
  5
F4
330
35
100
AcDbEntity
  8
1
  6
Continuous
 62
     2
100
AcDbCircle
 10
238.5599700985495
 20
163.493943
 30
0.0
 40
1.5
  0
CIRCLE
  5
F5
330
35
100
AcDbEntity
  8
1
  6
Continuous
 62
     2
100
AcDbCircle
 10
231.6317668682739
 20
163.493943
 30
0.0
 40
1.5
  0
CIRCLE
  5
F6
330
35
100
AcDbEntity
  8
1
  6
Continuous
 62
     2
100
AcDbCircle
 10
231.631766868274
 20
159.493943
 30
0.0
 40
1.5
  0
CIRCLE
  5
F7
330
35
100
AcDbEntity
  8
1
  6
Continuous
 62
     2
100
AcDbCircle
 10
235.0958684834117
 20
157.493943
 30
0.0
 40
1.5
  0
CIRCLE
  5
F8
330
35
100
AcDbEntity
  8
1
  6
Continuous
 62
     2
100
AcDbCircle
 10
238.5599700985495
 20
159.493943
 30
0.0
 40
1.5
  0
CIRCLE
  5
F9
330
35
100
AcDbEntity
  8
1
  6
Continuous
 62
     2
100
AcDbCircle
 10
235.0958684834117
 20
161.493943
 30
0.0
 40
1.5
  0
CIRCLE
  5
FA
330
35
100
AcDbEntity
  8
1
  6
Continuous
 62
     2
100
AcDbCircle
 10
237.5958684834117
 20
135.993943
 30
0.0
 40
0.5
  0
CIRCLE
  5
FB
330
35
100
AcDbEntity
  8
1
  6
Continuous
 62
     2
100
AcDbCircle
 10
235.0958684834117
 20
133.493943
 30
0.0
 40
0.5
  0
CIRCLE
  5
FC
330
35
100
AcDbEntity
  8
1
  6
Continuous
 62
     2
100
AcDbCircle
 10
232.5958684834117
 20
135.993943
 30
0.0
 40
0.5
  0
CIRCLE
  5
FD
330
35
100
AcDbEntity
  8
1
  6
Continuous
 62
     2
100
AcDbCircle
 10
235.0958684834117
 20
138.493943
 30
0.0
 40
0.5
  0
CIRCLE
  5
FE
330
35
100
AcDbEntity
  8
1
  6
Continuous
 62
     2
100
AcDbCircle
 10
235.0958684834117
 20
135.993943
 30
0.0
 40
5.849999999999994
  0
CIRCLE
  5
FF
330
35
100
AcDbEntity
  8
1
  6
Continuous
 62
     2
100
AcDbCircle
 10
235.0958684834117
 20
135.993943
 30
0.0
 40
6.75
  0
CIRCLE
  5
100
330
35
100
AcDbEntity
  8
1
  6
Continuous
 62
     2
100
AcDbCircle
 10
235.0958684834117
 20
135.993943
 30
0.0
 40
7.5
  0
CIRCLE
  5
101
330
35
100
AcDbEntity
  8
1
  6
Continuous
 62
     2
100
AcDbCircle
 10
235.0958684834117
 20
135.993943
 30
0.0
 40
0.5
  0
CIRCLE
  5
102
330
35
100
AcDbEntity
  8
1
  6
Continuous
 62
     2
100
AcDbCircle
 10
175.5958684834117
 20
135.993943
 30
0.0
 40
0.5
  0
CIRCLE
  5
103
330
35
100
AcDbEntity
  8
1
  6
Continuous
 62
     2
100
AcDbCircle
 10
173.0958684834117
 20
133.493943
 30
0.0
 40
0.5
  0
CIRCLE
  5
104
330
35
100
AcDbEntity
  8
1
  6
Continuous
 62
     2
100
AcDbCircle
 10
170.5958684834117
 20
135.993943
 30
0.0
 40
0.5
  0
CIRCLE
  5
105
330
35
100
AcDbEntity
  8
1
  6
Continuous
 62
     2
100
AcDbCircle
 10
173.0958684834117
 20
138.493943
 30
0.0
 40
0.5
  0
CIRCLE
  5
106
330
35
100
AcDbEntity
  8
1
  6
Continuous
 62
     2
100
AcDbCircle
 10
173.0958684834117
 20
135.993943
 30
0.0
 40
5.849999999999994
  0
CIRCLE
  5
107
330
35
100
AcDbEntity
  8
1
  6
Continuous
 62
     2
100
AcDbCircle
 10
173.0958684834117
 20
135.993943
 30
0.0
 40
6.75
  0
CIRCLE
  5
108
330
35
100
AcDbEntity
  8
1
  6
Continuous
 62
     2
100
AcDbCircle
 10
173.0958684834117
 20
135.993943
 30
0.0
 40
7.5
  0
CIRCLE
  5
109
330
35
100
AcDbEntity
  8
1
  6
Continuous
 62
     2
100
AcDbCircle
 10
173.0958684834117
 20
135.993943
 30
0.0
 40
0.5
  0
ARC
  5
10A
330
35
100
AcDbEntity
  8
1
  6
Continuous
 62
     2
100
AcDbCircle
 10
232.6209947492588
 20
138.4688167341529
 30
0.0
 40
0.500000000000004
100
AcDbArc
 50
45.0
 51
135.0000000000023
  0
ARC
  5
10B
330
35
100
AcDbEntity
  8
1
  6
Continuous
 62
     2
100
AcDbCircle
 10
232.6209947492588
 20
138.4688167341529
 30
0.0
 40
0.5000000000000241
100
AcDbArc
 50
135.0000000000023
 51
-135.0000000000069
  0
ARC
  5
10C
330
35
100
AcDbEntity
  8
1
  6
Continuous
 62
     2
100
AcDbCircle
 10
237.5707422175645
 20
133.5190692658471
 30
0.0
 40
0.5000000000001246
100
AcDbArc
 50
-44.99999999999079
 51
44.99999999998388
  0
ARC
  5
10D
330
35
100
AcDbEntity
  8
1
  6
Continuous
 62
     2
100
AcDbCircle
 10
237.5707422175645
 20
133.5190692658471
 30
0.0
 40
0.4999999999999639
100
AcDbArc
 50
-134.9999999999908
 51
-44.99999999999079
  0
ARC
  5
10E
330
35
100
AcDbEntity
  8
1
  6
Continuous
 62
     2
100
AcDbCircle
 10
232.6209947492588
 20
133.5190692658471
 30
0.0
 40
0.5000000000000442
100
AcDbArc
 50
-135.0
 51
-45.0000000000023
  0
ARC
  5
10F
330
35
100
AcDbEntity
  8
1
  6
Continuous
 62
     2
100
AcDbCircle
 10
232.6209947492588
 20
133.5190692658471
 30
0.0
 40
0.499999999999984
100
AcDbArc
 50
135.0000000000069
 51
-135.0
  0
ARC
  5
110
330
35
100
AcDbEntity
  8
1
  6
Continuous
 62
     2
100
AcDbCircle
 10
237.5707422175645
 20
138.4688167341529
 30
0.0
 40
0.5000000000001045
100
AcDbArc
 50
44.99999999998849
 51
134.9999999999931
  0
ARC
  5
111
330
35
100
AcDbEntity
  8
1
  6
Continuous
 62
     2
100
AcDbCircle
 10
237.5707422175645
 20
138.4688167341529
 30
0.0
 40
0.5000000000000643
100
AcDbArc
 50
-44.99999999998388
 51
44.99999999998849
  0
ARC
  5
112
330
35
100
AcDbEntity
  8
1
  6
Continuous
 62
     2
100
AcDbCircle
 10
170.6209947492588
 20
138.4688167341529
 30
0.0
 40
0.500000000000004
100
AcDbArc
 50
45.0
 51
135.0000000000023
  0
ARC
  5
113
330
35
100
AcDbEntity
  8
1
  6
Continuous
 62
     2
100
AcDbCircle
 10
170.6209947492588
 20
138.4688167341529
 30
0.0
 40
0.5000000000000241
100
AcDbArc
 50
135.0000000000023
 51
-135.0000000000069
  0
ENDBLK
  5
37
330
35
100
AcDbEntity
  8
0
100
AcDbBlockEnd
  0
BLOCK
  5
39
330
38
100
AcDbEntity
  8
0
100
AcDbBlockBegin
  2
Linsenschraube_DIN_7985_-_M3_5_x_14_-__-_
 70
     0
 71
     0
 10
112.5958684834117
 20
130.493943
 30
0.0
  3
Linsenschraube_DIN_7985_-_M3_5_x_14_-__-_
  1

  0
LINE
  5
114
330
38
100
AcDbEntity
  8
1
  6
Continuous
 62
     2
100
AcDbLine
 10
205.3333053484117
 20
137.231379865
 30
0.0
 11
202.8584316184117
 21
134.756506135
 31
0.0
  0
LINE
  5
115
330
38
100
AcDbEntity
  8
1
  6
Continuous
 62
     2
100
AcDbLine
 10
202.8584316184117
 20
137.231379865
 30
0.0
 11
205.3333053484117
 21
134.756506135
 31
0.0
  0
CIRCLE
  5
116
330
38
100
AcDbEntity
  8
1
  6
Continuous
 62
     2
100
AcDbCircle
 10
204.0958684834117
 20
135.993943
 30
0.0
 40
3.5
  0
ENDBLK
  5
3A
330
38
100
AcDbEntity
  8
0
100
AcDbBlockEnd
  0
BLOCK
  5
3C
330
3B
100
AcDbEntity
  8
0
100
AcDbBlockBegin
  2
Zylinderschraube_DIN_912_-_M4_x_6_-_
 70
     0
 71
     0
 10
-104.3468827331383
 20
18.993943
 30
0.0
  3
Zylinderschraube_DIN_912_-_M4_x_6_-_
  1

  0
LINE
  5
117
330
3B
100
AcDbEntity
  8
1
  6
DOT_CENTER
 62
     2
100
AcDbLine
 10
-2.35713199999999
 20
22.493943
 30
0.0
 11
5.64286800000001
 21
22.493943
 31
0.0
  0
LINE
  5
118
330
3B
100
AcDbEntity
  8
1
  6
DOT_CENTER
 62
     2
100
AcDbLine
 10
-2.35713199999999
 20
177.493943
 30
0.0
 11
5.64286800000001
 21
177.493943
 31
0.0
  0
LINE
  5
119
330
3B
100
AcDbEntity
  8
1
  6
Continuous
 62
     7
100
AcDbLine
 10
-0.35713199999999
 20
179.493943
 30
0.0
 11
-0.35713199999999
 21
175.493943
 31
0.0
  0
LINE
  5
11A
330
3B
100
AcDbEntity
  8
1
  6
LONG_DASHED
 62
     2
100
AcDbLine
 10
1.64286800000001
 20
175.993943
 30
0.0
 11
3.64286800000001
 21
175.993943
 31
0.0
  0
LINE
  5
11B
330
3B
100
AcDbEntity
  8
1
  6
LONG_DASHED
 62
     2
100
AcDbLine
 10
3.64286800000001
 20
177.493943
 30
0.0
 11
1.64286800000001
 21
177.493943
 31
0.0
  0
LINE
  5
11C
330
3B
100
AcDbEntity
  8
1
  6
LONG_DASHED
 62
     2
100
AcDbLine
 10
1.64286800000001
 20
175.993943
 30
0.0
 11
1.64286800000001
 21
178.993943
 31
0.0
  0
LINE
  5
11D
330
3B
100
AcDbEntity
  8
1
  6
LONG_DASHED
 62
     2
100
AcDbLine
 10
3.64286800000001
 20
178.993943
 30
0.0
 11
1.64286800000001
 21
178.993943
 31
0.0
  0
LINE
  5
11E
330
3B
100
AcDbEntity
  8
1
  6
Continuous
 62
     7
100
AcDbLine
 10
-0.35713199999999
 20
180.993943
 30
0.0
 11
-0.35713199999999
 21
173.993943
 31
0.0
  0
LINE
  5
11F
330
3B
100
AcDbEntity
  8
1
  6
Continuous
 62
     7
100
AcDbLine
 10
-0.35713199999999
 20
173.993943
 30
0.0
 11
3.64286800000001
 21
173.993943
 31
0.0
  0
LINE
  5
120
330
3B
100
AcDbEntity
  8
1
  6
Continuous
 62
     7
100
AcDbLine
 10
3.64286800000001
 20
173.993943
 30
0.0
 11
3.64286800000001
 21
180.993943
 31
0.0
  0
LINE
  5
121
330
3B
100
AcDbEntity
  8
1
  6
Continuous
 62
     7
100
AcDbLine
 10
3.64286800000001
 20
180.993943
 30
0.0
 11
-0.35713199999999
 21
180.993943
 31
0.0
  0
LINE
  5
122
330
3B
100
AcDbEntity
  8
1
  6
Continuous
 62
     7
100
AcDbLine
 10
-0.35713199999999
 20
24.493943
 30
0.0
 11
-0.35713199999999
 21
20.493943
 31
0.0
  0
LINE
  5
123
330
3B
100
AcDbEntity
  8
1
  6
LONG_DASHED
 62
     2
100
AcDbLine
 10
3.64286800000001
 20
23.993943
 30
0.0
 11
1.64286800000001
 21
23.993943
 31
0.0
  0
LINE
  5
124
330
3B
100
AcDbEntity
  8
1
  6
LONG_DASHED
 62
     2
100
AcDbLine
 10
1.64286800000001
 20
22.493943
 30
0.0
 11
3.64286800000001
 21
22.493943
 31
0.0
  0
LINE
  5
125
330
3B
100
AcDbEntity
  8
1
  6
LONG_DASHED
 62
     2
100
AcDbLine
 10
1.64286800000001
 20
20.993943
 30
0.0
 11
1.64286800000001
 21
23.993943
 31
0.0
  0
LINE
  5
126
330
3B
100
AcDbEntity
  8
1
  6
LONG_DASHED
 62
     2
100
AcDbLine
 10
1.64286800000001
 20
20.993943
 30
0.0
 11
3.64286800000001
 21
20.993943
 31
0.0
  0
LINE
  5
127
330
3B
100
AcDbEntity
  8
1
  6
Continuous
 62
     7
100
AcDbLine
 10
-0.35713199999999
 20
25.993943
 30
0.0
 11
-0.35713199999999
 21
18.993943
 31
0.0
  0
LINE
  5
128
330
3B
100
AcDbEntity
  8
1
  6
Continuous
 62
     7
100
AcDbLine
 10
3.64286800000001
 20
25.993943
 30
0.0
 11
-0.35713199999999
 21
25.993943
 31
0.0
  0
LINE
  5
129
330
3B
100
AcDbEntity
  8
1
  6
Continuous
 62
     7
100
AcDbLine
 10
3.64286800000001
 20
18.993943
 30
0.0
 11
3.64286800000001
 21
25.993943
 31
0.0
  0
LINE
  5
12A
330
3B
100
AcDbEntity
  8
1
  6
Continuous
 62
     7
100
AcDbLine
 10
-0.35713199999999
 20
18.993943
 30
0.0
 11
3.64286800000001
 21
18.993943
 31
0.0
  0
ENDBLK
  5
3D
330
3B
100
AcDbEntity
  8
0
100
AcDbBlockEnd
  0
BLOCK
  5
43
330
3E
100
AcDbEntity
  8
0
100
AcDbBlockBegin
  2
Servoverst_rker
 70
     0
 71
     0
 10
-77.90413151658831
 20
72.993943
 30
0.0
  3
Servoverst_rker
  1

  0
INSERT
  5
3F
330
3E
100
AcDbEntity
  8
1
100
AcDbBlockReference
  2
Verschlu_schraube
 10
76.0958684834117
 20
150.493943
 30
0.0
  0
INSERT
  5
40
330
3E
100
AcDbEntity
  8
1
100
AcDbBlockReference
  2
Stecker
 10
-127.6772655575278
 20
124.993943
 30
0.0
  0
INSERT
  5
41
330
3E
100
AcDbEntity
  8
1
100
AcDbBlockReference
  2
Linsenschraube_DIN_7985_-_M3_5_x_14_-__-_
 10
112.5958684834117
 20
130.493943
 30
0.0
  0
INSERT
  5
42
330
3E
100
AcDbEntity
  8
1
100
AcDbBlockReference
  2
Zylinderschraube_DIN_912_-_M4_x_6_-_
 10
-104.3468827331383
 20
18.993943
 30
0.0
  0
LINE
  5
12B
330
3E
100
AcDbEntity
  8
1
  6
Continuous
 62
     7
100
AcDbLine
 10
158.5958684834117
 20
21.493943
 30
0.0
 11
157.0958684834117
 21
20.993943
 31
0.0
  0
LINE
  5
12C
330
3E
100
AcDbEntity
  8
1
  6
Continuous
 62
     7
100
AcDbLine
 10
159.5958684834117
 20
20.493943
 30
0.0
 11
159.0958684834117
 21
18.993943
 31
0.0
  0
LINE
  5
12D
330
3E
100
AcDbEntity
  8
1
  6
Continuous
 62
     7
100
AcDbLine
 10
248.5958684834117
 20
20.493943
 30
0.0
 11
249.0958684834117
 21
18.993943
 31
0.0
  0
LINE
  5
12E
330
3E
100
AcDbEntity
  8
1
  6
Continuous
 62
     7
100
AcDbLine
 10
249.5958684834117
 20
21.493943
 30
0.0
 11
251.0958684834117
 21
20.993943
 31
0.0
  0
LINE
  5
12F
330
3E
100
AcDbEntity
  8
1
  6
Continuous
 62
     7
100
AcDbLine
 10
249.5958684834117
 20
178.493943
 30
0.0
 11
251.0958684834117
 21
178.993943
 31
0.0
  0
LINE
  5
130
330
3E
100
AcDbEntity
  8
1
  6
Continuous
 62
     7
100
AcDbLine
 10
248.5958684834117
 20
179.493943
 30
0.0
 11
249.0958684834117
 21
180.993943
 31
0.0
  0
LINE
  5
131
330
3E
100
AcDbEntity
  8
1
  6
Continuous
 62
     7
100
AcDbLine
 10
158.5958684834117
 20
178.493943
 30
0.0
 11
157.0958684834117
 21
178.993943
 31
0.0
  0
LINE
  5
132
330
3E
100
AcDbEntity
  8
1
  6
Continuous
 62
     7
100
AcDbLine
 10
159.5958684834117
 20
179.493943
 30
0.0
 11
159.0958684834117
 21
180.993943
 31
0.0
  0
LINE
  5
133
330
3E
100
AcDbEntity
  8
1
  6
Continuous
 62
     7
100
AcDbLine
 10
158.5958684834117
 20
21.493943
 30
0.0
 11
159.5958684834117
 21
20.493943
 31
0.0
  0
LINE
  5
134
330
3E
100
AcDbEntity
  8
1
  6
Continuous
 62
     7
100
AcDbLine
 10
249.5958684834117
 20
21.493943
 30
0.0
 11
248.5958684834117
 21
20.493943
 31
0.0
  0
LINE
  5
135
330
3E
100
AcDbEntity
  8
1
  6
Continuous
 62
     7
100
AcDbLine
 10
248.5958684834117
 20
179.493943
 30
0.0
 11
249.5958684834117
 21
178.493943
 31
0.0
  0
LINE
  5
136
330
3E
100
AcDbEntity
  8
1
  6
Continuous
 62
     7
100
AcDbLine
 10
159.5958684834117
 20
179.493943
 30
0.0
 11
158.5958684834117
 21
178.493943
 31
0.0
  0
LINE
  5
137
330
3E
100
AcDbEntity
  8
1
  6
Continuous
 62
     7
100
AcDbLine
 10
157.0958684834117
 20
20.993943
 30
0.0
 11
159.0958684834117
 21
18.993943
 31
0.0
  0
LINE
  5
138
330
3E
100
AcDbEntity
  8
1
  6
Continuous
 62
     7
100
AcDbLine
 10
251.0958684834117
 20
20.993943
 30
0.0
 11
249.0958684834117
 21
18.993943
 31
0.0
  0
LINE
  5
139
330
3E
100
AcDbEntity
  8
1
  6
Continuous
 62
     7
100
AcDbLine
 10
249.0958684834117
 20
180.993943
 30
0.0
 11
251.0958684834117
 21
178.993943
 31
0.0
  0
LINE
  5
13A
330
3E
100
AcDbEntity
  8
1
  6
Continuous
 62
     7
100
AcDbLine
 10
159.0958684834117
 20
180.993943
 30
0.0
 11
157.0958684834117
 21
178.993943
 31
0.0
  0
LINE
  5
13B
330
3E
100
AcDbEntity
  8
1
  6
Continuous
 62
     7
100
AcDbLine
 10
158.5958684834117
 20
178.493943
 30
0.0
 11
158.5958684834117
 21
21.493943
 31
0.0
  0
LINE
  5
13C
330
3E
100
AcDbEntity
  8
1
  6
Continuous
 62
     7
100
AcDbLine
 10
248.5958684834117
 20
179.493943
 30
0.0
 11
159.5958684834117
 21
179.493943
 31
0.0
  0
LINE
  5
13D
330
3E
100
AcDbEntity
  8
1
  6
Continuous
 62
     7
100
AcDbLine
 10
249.5958684834117
 20
21.493943
 30
0.0
 11
249.5958684834117
 21
178.493943
 31
0.0
  0
LINE
  5
13E
330
3E
100
AcDbEntity
  8
1
  6
Continuous
 62
     7
100
AcDbLine
 10
159.5958684834117
 20
20.493943
 30
0.0
 11
248.5958684834117
 21
20.493943
 31
0.0
  0
LINE
  5
13F
330
3E
100
AcDbEntity
  8
1
  6
DOT_CENTER
 62
     2
100
AcDbLine
 10
204.0958684834117
 20
140.668943
 30
0.0
 11
204.0958684834117
 21
131.318943
 31
0.0
  0
LINE
  5
140
330
3E
100
AcDbEntity
  8
1
  6
DOT_CENTER
 62
     2
100
AcDbLine
 10
208.7708684834117
 20
135.993943
 30
0.0
 11
199.4208684834117
 21
135.993943
 31
0.0
  0
LINE
  5
141
330
3E
100
AcDbEntity
  8
1
  6
Continuous
 62
     7
100
AcDbLine
 10
-25.35713199999999
 20
90.243943
 30
0.0
 11
-25.35713199999999
 21
18.993943
 31
0.0
  0
LINE
  5
142
330
3E
100
AcDbEntity
  8
1
  6
Continuous
 62
     7
100
AcDbLine
 10
157.0958684834117
 20
178.993943
 30
0.0
 11
157.0958684834117
 21
20.993943
 31
0.0
  0
LINE
  5
143
330
3E
100
AcDbEntity
  8
1
  6
Continuous
 62
     7
100
AcDbLine
 10
249.0958684834117
 20
180.993943
 30
0.0
 11
159.0958684834117
 21
180.993943
 31
0.0
  0
LINE
  5
144
330
3E
100
AcDbEntity
  8
1
  6
Continuous
 62
     7
100
AcDbLine
 10
251.0958684834117
 20
20.993943
 30
0.0
 11
251.0958684834117
 21
178.993943
 31
0.0
  0
LINE
  5
145
330
3E
100
AcDbEntity
  8
1
  6
Continuous
 62
     7
100
AcDbLine
 10
159.0958684834117
 20
18.993943
 30
0.0
 11
249.0958684834117
 21
18.993943
 31
0.0
  0
LINE
  5
146
330
3E
100
AcDbEntity
  8
1
  6
Continuous
 62
     7
100
AcDbLine
 10
-0.35713199999999
 20
168.493943
 30
0.0
 11
49.00001085714287
 21
168.493943
 31
0.0
  0
LINE
  5
147
330
3E
100
AcDbEntity
  8
1
  6
Continuous
 62
     7
100
AcDbLine
 10
-0.35713199999999
 20
180.993943
 30
0.0
 11
-25.35713199999999
 21
180.993943
 31
0.0
  0
LINE
  5
148
330
3E
100
AcDbEntity
  8
1
  6
Continuous
 62
     7
100
AcDbLine
 10
-0.35713199999999
 20
180.993943
 30
0.0
 11
-0.35713199999999
 21
168.493943
 31
0.0
  0
LINE
  5
149
330
3E
100
AcDbEntity
  8
1
  6
Continuous
 62
     7
100
AcDbLine
 10
-0.35713199999999
 20
31.493943
 30
0.0
 11
49.00001085714287
 21
31.493943
 31
0.0
  0
LINE
  5
14A
330
3E
100
AcDbEntity
  8
1
  6
Continuous
 62
     7
100
AcDbLine
 10
-0.35713199999999
 20
18.993943
 30
0.0
 11
-25.35713199999999
 21
18.993943
 31
0.0
  0
LINE
  5
14B
330
3E
100
AcDbEntity
  8
1
  6
Continuous
 62
     7
100
AcDbLine
 10
-0.35713199999999
 20
31.493943
 30
0.0
 11
-0.35713199999999
 21
18.993943
 31
0.0
  0
LINE
  5
14C
330
3E
100
AcDbEntity
  8
1
  6
Continuous
 62
     7
100
AcDbLine
 10
62.26574559857802
 20
69.33629403888554
 30
0.0
 11
52.53532295768501
 21
26.76569498497859
 31
0.0
  0
LINE
  5
14D
330
3E
100
AcDbEntity
  8
1
  6
Continuous
 62
     7
100
AcDbLine
 10
52.52278219307671
 20
173.2016964175173
 30
0.0
 11
62.27273833116637
 21
130.1290739941859
 31
0.0
  0
LINE
  5
14E
330
3E
100
AcDbEntity
  8
1
  6
Continuous
 62
     7
100
AcDbLine
 10
62.64286800000001
 20
126.81744386791
 30
0.0
 11
62.64286800000001
 21
72.67866606141763
 31
0.0
  0
LINE
  5
14F
330
3E
100
AcDbEntity
  8
1
  6
Continuous
 62
     7
100
AcDbLine
 10
-25.35713199999999
 20
180.993943
 30
0.0
 11
-25.35713199999999
 21
90.243943
 31
0.0
  0
LINE
  5
150
330
3E
100
AcDbEntity
  8
1
  6
Continuous
 62
     7
100
AcDbLine
 10
49.00001085714287
 20
31.493943
 30
0.0
 11
46.49814809074188
 21
20.54829339699572
 31
0.0
  0
LINE
  5
151
330
3E
100
AcDbEntity
  8
1
  6
Continuous
 62
     7
100
AcDbLine
 10
49.00001085714287
 20
168.493943
 30
0.0
 11
46.49814809074188
 21
179.4395926030043
 31
0.0
  0
LINE
  5
152
330
3E
100
AcDbEntity
  8
1
  6
Continuous
 62
     7
100
AcDbLine
 10
44.54843107759817
 20
18.993943
 30
0.0
 11
-0.35713199999999
 21
18.993943
 31
0.0
  0
LINE
  5
153
330
3E
100
AcDbEntity
  8
1
  6
Continuous
 62
     7
100
AcDbLine
 10
44.54843107759817
 20
180.993943
 30
0.0
 11
-0.35713199999999
 21
180.993943
 31
0.0
  0
LINE
  5
154
330
3E
100
AcDbEntity
  8
1
  6
Continuous
 62
     7
100
AcDbLine
 10
57.76574559857802
 20
69.84403249377883
 30
0.0
 11
49.00001085714287
 21
31.493943
 31
0.0
  0
LINE
  5
155
330
3E
100
AcDbEntity
  8
1
  6
Continuous
 62
     7
100
AcDbLine
 10
57.76574559857802
 20
130.1438535062212
 30
0.0
 11
49.00001085714287
 21
168.493943
 31
0.0
  0
LINE
  5
156
330
3E
100
AcDbEntity
  8
1
  6
Continuous
 62
     7
100
AcDbLine
 10
58.14286800000001
 20
126.8014814836891
 30
0.0
 11
58.14286800000001
 21
73.18640451631092
 31
0.0
  0
LINE
  5
157
330
3E
100
AcDbEntity
  8
1
  6
Continuous
 62
     2
100
AcDbLine
 10
204.7822724706471
 20
143.5043032166132
 30
0.0
 11
204.7822724706471
 21
145.1391960500395
 31
0.0
  0
LINE
  5
158
330
3E
100
AcDbEntity
  8
1
  6
Continuous
 62
     2
100
AcDbLine
 10
203.582272470647
 20
143.5043032166132
 30
0.0
 11
205.9822724706471
 21
143.5043032166132
 31
0.0
  0
LINE
  5
159
330
3E
100
AcDbEntity
  8
1
  6
Continuous
 62
     2
100
AcDbLine
 10
203.9822724706471
 20
143.1043032166132
 30
0.0
 11
205.6757650639457
 21
143.1043032166132
 31
0.0
  0
LINE
  5
15A
330
3E
100
AcDbEntity
  8
1
  6
Continuous
 62
     2
100
AcDbLine
 10
204.382272470647
 20
142.7043032166133
 30
0.0
 11
204.7822724706471
 21
142.7043032166133
 31
0.0
  0
LINE
  5
15B
330
3E
100
AcDbEntity
  8
1
  6
Continuous
 62
     2
100
AcDbLine
 10
204.7822724706471
 20
142.7043032166133
 30
0.0
 11
204.7822724706471
 21
142.3043032166132
 31
0.0
  0
LINE
  5
15C
330
3E
100
AcDbEntity
  8
1
  6
Continuous
 62
     2
100
AcDbLine
 10
204.7822724706471
 20
142.7043032166133
 30
0.0
 11
205.2517335375492
 21
142.7043032166133
 31
0.0
  0
LINE
  5
15D
330
3E
100
AcDbEntity
  8
1
  6
DOT_CENTER
 62
     2
100
AcDbLine
 10
186.0958684834117
 20
150.643943
 30
0.0
 11
186.0958684834117
 21
147.343943
 31
0.0
  0
LINE
  5
15E
330
3E
100
AcDbEntity
  8
1
  6
DOT_CENTER
 62
     2
100
AcDbLine
 10
187.7458684834117
 20
148.993943
 30
0.0
 11
184.4458684834117
 21
148.993943
 31
0.0
  0
LINE
  5
15F
330
3E
100
AcDbEntity
  8
1
  6
DOT_CENTER
 62
     2
100
AcDbLine
 10
187.7458684834117
 20
169.993943
 30
0.0
 11
184.4458684834117
 21
169.993943
 31
0.0
  0
LINE
  5
160
330
3E
100
AcDbEntity
  8
1
  6
DOT_CENTER
 62
     2
100
AcDbLine
 10
186.0958684834117
 20
171.643943
 30
0.0
 11
186.0958684834117
 21
168.343943
 31
0.0
  0
LINE
  5
161
330
3E
100
AcDbEntity
  8
1
  6
DOT_CENTER
 62
     2
100
AcDbLine
 10
192.7458684834117
 20
169.993943
 30
0.0
 11
189.4458684834117
 21
169.993943
 31
0.0
  0
LINE
  5
162
330
3E
100
AcDbEntity
  8
1
  6
DOT_CENTER
 62
     2
100
AcDbLine
 10
191.0958684834117
 20
171.643943
 30
0.0
 11
191.0958684834117
 21
168.343943
 31
0.0
  0
CIRCLE
  5
163
330
3E
100
AcDbEntity
  8
1
  6
Continuous
 62
     3
100
AcDbCircle
 10
204.0958684834117
 20
135.993943
 30
0.0
 40
4.25
  0
CIRCLE
  5
164
330
3E
100
AcDbEntity
  8
1
  6
Continuous
 62
     2
100
AcDbCircle
 10
204.7822724706471
 20
143.5043032166132
 30
0.0
 40
2.0
  0
CIRCLE
  5
165
330
3E
100
AcDbEntity
  8
1
  6
Continuous
 62
     2
100
AcDbCircle
 10
186.0958684834117
 20
148.993943
 30
0.0
 40
1.5
  0
CIRCLE
  5
166
330
3E
100
AcDbEntity
  8
1
  6
Continuous
 62
     2
100
AcDbCircle
 10
186.0958684834117
 20
169.993943
 30
0.0
 40
1.5
  0
CIRCLE
  5
167
330
3E
100
AcDbEntity
  8
1
  6
Continuous
 62
     2
100
AcDbCircle
 10
191.0958684834117
 20
169.993943
 30
0.0
 40
1.5
  0
ARC
  5
168
330
3E
100
AcDbEntity
  8
1
  6
Continuous
 62
     7
100
AcDbCircle
 10
43.14286800000001
 20
126.8014814836891
 30
0.0
 40
15.0
100
AcDbArc
 50
0.0
 51
12.87500155961242
  0
ARC
  5
169
330
3E
100
AcDbEntity
  8
1
  6
Continuous
 62
     7
100
AcDbCircle
 10
43.14286800000001
 20
73.18640451631092
 30
0.0
 40
15.0
100
AcDbArc
 50
-12.87500155961237
 51
0.0
  0
ARC
  5
16A
330
3E
100
AcDbEntity
  8
1
  6
Continuous
 62
     7
100
AcDbCircle
 10
47.64286800000001
 20
72.67866606141766
 30
0.0
 40
15.00000000000001
100
AcDbArc
 50
-12.87500155961248
 51
-0.00000000000011
  0
ARC
  5
16B
330
3E
100
AcDbEntity
  8
1
  6
Continuous
 62
     7
100
AcDbCircle
 10
47.64286800000001
 20
126.81744386791
 30
0.0
 40
15.0
100
AcDbArc
 50
0.0
 51
12.75457661591035
  0
ARC
  5
16C
330
3E
100
AcDbEntity
  8
1
  6
Continuous
 62
     7
100
AcDbCircle
 10
44.54843107759817
 20
178.993943
 30
0.0
 40
1.999999999999978
100
AcDbArc
 50
12.87500155961268
 51
90.0
  0
ARC
  5
16D
330
3E
100
AcDbEntity
  8
1
  6
Continuous
 62
     7
100
AcDbCircle
 10
44.54843107759817
 20
20.993943
 30
0.0
 40
2.0
100
AcDbArc
 50
-90.0
 51
-12.87500155961258
  0
ARC
  5
16E
330
3E
100
AcDbEntity
  8
1
  6
Continuous
 62
     7
100
AcDbCircle
 10
42.78673789196635
 20
28.993943
 30
0.0
 40
10.0
100
AcDbArc
 50
-90.0
 51
-12.87500155961249
  0
ARC
  5
16F
330
3E
100
AcDbEntity
  8
1
  6
Continuous
 62
     7
100
AcDbCircle
 10
42.76953530563247
 20
170.993943
 30
0.0
 40
9.999999999999996
100
AcDbArc
 50
12.75457661591057
 51
89.99999999999993
  0
ENDBLK
  5
44
330
3E
100
AcDbEntity
  8
0
100
AcDbBlockEnd
  0
BLOCK
  5
46
330
45
100
AcDbEntity
  8
0
100
AcDbBlockBegin
  2
Pa_feder
 70
     0
 71
     0
 10
-184.1280563362179
 20
-408.4746401702008
 30
0.0
  3
Pa_feder
  1

  0
LINE
  5
170
330
45
100
AcDbEntity
  8
1
  6
DASHED
 62
     2
100
AcDbLine
 10
210.066577
 20
64.493943
 30
0.0
 11
208.1900523829798
 21
64.493943
 31
0.0
  0
LINE
  5
171
330
45
100
AcDbEntity
  8
1
  6
DASHED
 62
     2
100
AcDbLine
 10
210.066577
 20
68.493943
 30
0.0
 11
210.066577
 21
64.493943
 31
0.0
  0
LINE
  5
172
330
45
100
AcDbEntity
  8
1
  6
DASHED
 62
     2
100
AcDbLine
 10
208.1900523829798
 20
68.493943
 30
0.0
 11
210.066577
 21
68.493943
 31
0.0
  0
ENDBLK
  5
47
330
45
100
AcDbEntity
  8
0
100
AcDbBlockEnd
  0
BLOCK
  5
49
330
48
100
AcDbEntity
  8
0
100
AcDbBlockBegin
  2
Flachlagerschild_B5_A90
 70
     0
 71
     0
 10
-106.8409087114539
 20
-175.1936780950078
 30
0.0
  3
Flachlagerschild_B5_A90
  1

  0
LINE
  5
173
330
48
100
AcDbEntity
  8
1
  6
Continuous
 62
     7
100
AcDbLine
 10
-161.357133
 20
76.902021545939
 30
0.0
 11
-161.357133
 21
72.4939435
 31
0.0
  0
LINE
  5
174
330
48
100
AcDbEntity
  8
1
  6
Continuous
 62
     7
100
AcDbLine
 10
-132.857135
 20
45.58878799999999
 30
0.0
 11
-129.857136
 21
42.384817
 31
0.0
  0
LINE
  5
175
330
48
100
AcDbEntity
  8
1
  6
Continuous
 62
     7
100
AcDbLine
 10
-125.857138
 20
42.384817
 30
0.0
 11
-129.857136
 21
42.384817
 31
0.0
  0
LINE
  5
176
330
48
100
AcDbEntity
  8
1
  6
Continuous
 62
     7
100
AcDbLine
 10
-129.857136
 20
42.384817
 30
0.0
 11
-129.857136
 21
31.49394799999999
 31
0.0
  0
LINE
  5
177
330
48
100
AcDbEntity
  8
1
  6
Continuous
 62
     7
100
AcDbLine
 10
-125.857138
 20
89.322273
 30
0.0
 11
-125.857138
 21
93.16026600000001
 31
0.0
  0
LINE
  5
178
330
48
100
AcDbEntity
  8
1
  6
Continuous
 62
     7
100
AcDbLine
 10
-125.857138
 20
93.16026600000001
 30
0.0
 11
-125.857138
 21
101.493938
 31
0.0
  0
LINE
  5
179
330
48
100
AcDbEntity
  8
1
  6
Continuous
 62
     7
100
AcDbLine
 10
-125.857138
 20
31.49394799999999
 30
0.0
 11
-125.857138
 21
89.322273
 31
0.0
  0
LINE
  5
17A
330
48
100
AcDbEntity
  8
1
  6
Continuous
 62
     7
100
AcDbLine
 10
-129.857136
 20
90.603082
 30
0.0
 11
-132.857135
 21
87.399111
 31
0.0
  0
LINE
  5
17B
330
48
100
AcDbEntity
  8
1
  6
Continuous
 62
     7
100
AcDbLine
 10
-129.857136
 20
90.603082
 30
0.0
 11
-125.857138
 21
90.603082
 31
0.0
  0
LINE
  5
17C
330
48
100
AcDbEntity
  8
1
  6
Continuous
 62
     7
100
AcDbLine
 10
-129.857136
 20
101.493938
 30
0.0
 11
-129.857136
 21
90.603082
 31
0.0
  0
LINE
  5
17D
330
48
100
AcDbEntity
  8
1
  6
Continuous
 62
     7
100
AcDbLine
 10
-125.857138
 20
101.493938
 30
0.0
 11
-132.857135
 21
101.493938
 31
0.0
  0
LINE
  5
17E
330
48
100
AcDbEntity
  8
1
  6
Continuous
 62
     7
100
AcDbLine
 10
-125.857138
 20
31.49394799999999
 30
0.0
 11
-132.857134
 21
31.49394799999999
 31
0.0
  0
LINE
  5
17F
330
48
100
AcDbEntity
  8
1
  6
Continuous
 62
     7
100
AcDbLine
 10
-132.857134
 20
101.493938
 30
0.0
 11
-132.857134
 21
31.49394799999999
 31
0.0
  0
LINE
  5
180
330
48
100
AcDbEntity
  8
1
  6
Continuous
 62
     7
100
AcDbLine
 10
-165.35713
 20
36.627925
 30
0.0
 11
-165.35713
 21
66.4939435
 31
0.0
  0
LINE
  5
181
330
48
100
AcDbEntity
  8
1
  6
Continuous
 62
     7
100
AcDbLine
 10
-165.357131
 20
36.49394599999999
 30
0.0
 11
-163.357132
 21
36.49394599999999
 31
0.0
  0
LINE
  5
182
330
48
100
AcDbEntity
  8
1
  6
Continuous
 62
     7
100
AcDbLine
 10
-154.857136
 20
101.493938
 30
0.0
 11
-162.857132
 21
101.493938
 31
0.0
  0
LINE
  5
183
330
48
100
AcDbEntity
  8
1
  6
Continuous
 62
     7
100
AcDbLine
 10
-163.359777742053
 20
96.493953
 30
0.0
 11
-165.357131
 21
96.493953
 31
0.0
  0
LINE
  5
184
330
48
100
AcDbEntity
  8
1
  6
Continuous
 62
     7
100
AcDbLine
 10
-162.857132
 20
96.993946
 30
0.0
 11
-162.857132
 21
101.493938
 31
0.0
  0
LINE
  5
185
330
48
100
AcDbEntity
  8
1
  6
Continuous
 62
     7
100
AcDbLine
 10
-133.8520349970577
 20
100.493951
 30
0.0
 11
-139.7860621881111
 21
100.493951
 31
0.0
  0
LINE
  5
186
330
48
100
AcDbEntity
  8
1
  6
Continuous
 62
     7
100
AcDbLine
 10
-139.7860751880095
 20
32.49394799999999
 30
0.0
 11
-133.857134
 21
32.49394799999999
 31
0.0
  0
LINE
  5
187
330
48
100
AcDbEntity
  8
1
  6
Continuous
 62
     7
100
AcDbLine
 10
-154.857136
 20
97.49394000000001
 30
0.0
 11
-154.857136
 21
101.493938
 31
0.0
  0
LINE
  5
188
330
48
100
AcDbEntity
  8
1
  6
Continuous
 62
     7
100
AcDbLine
 10
-154.857136
 20
94.77821399999999
 30
0.0
 11
-154.857136
 21
97.49394000000001
 31
0.0
  0
LINE
  5
189
330
48
100
AcDbEntity
  8
1
  6
Continuous
 62
     7
100
AcDbLine
 10
-162.857132
 20
77.98973931141589
 30
0.0
 11
-162.857132
 21
96.993946
 31
0.0
  0
LINE
  5
18A
330
48
100
AcDbEntity
  8
1
  6
Continuous
 62
     7
100
AcDbLine
 10
-154.857136
 20
38.20967200000001
 30
0.0
 11
-162.857132
 21
38.20967200000001
 31
0.0
  0
LINE
  5
18B
330
48
100
AcDbEntity
  8
1
  6
Continuous
 62
     7
100
AcDbLine
 10
-144.857129
 20
35.49394599999999
 30
0.0
 11
-143.3216229087768
 21
33.9584279089558
 31
0.0
  0
LINE
  5
18C
330
48
100
AcDbEntity
  8
1
  6
Continuous
 62
     7
100
AcDbLine
 10
-165.35713
 20
36.627925
 30
0.0
 11
-164.857131
 21
36.49394599999999
 31
0.0
  0
LINE
  5
18D
330
48
100
AcDbEntity
  8
1
  6
Continuous
 62
     7
100
AcDbLine
 10
-162.857132
 20
31.49394799999999
 30
0.0
 11
-154.857136
 21
31.49394799999999
 31
0.0
  0
LINE
  5
18E
330
48
100
AcDbEntity
  8
1
  6
Continuous
 62
     7
100
AcDbLine
 10
-143.3216099088783
 20
99.0294710910442
 30
0.0
 11
-144.857129
 21
97.49394000000001
 31
0.0
  0
LINE
  5
18F
330
48
100
AcDbEntity
  8
1
  6
Continuous
 62
     7
100
AcDbLine
 10
-154.857136
 20
35.49394599999999
 30
0.0
 11
-144.857129
 21
35.49394599999999
 31
0.0
  0
LINE
  5
190
330
48
100
AcDbEntity
  8
1
  6
Continuous
 62
     7
100
AcDbLine
 10
-164.857131
 20
96.493953
 30
0.0
 11
-165.35713
 21
96.359974
 31
0.0
  0
LINE
  5
191
330
48
100
AcDbEntity
  8
1
  6
Continuous
 62
     7
100
AcDbLine
 10
-162.857132
 20
94.77821399999999
 30
0.0
 11
-154.857136
 21
94.77821399999999
 31
0.0
  0
LINE
  5
192
330
48
100
AcDbEntity
  8
1
  6
Continuous
 62
     7
100
AcDbLine
 10
-144.857129
 20
97.49394000000001
 30
0.0
 11
-154.857136
 21
97.49394000000001
 31
0.0
  0
LINE
  5
193
330
48
100
AcDbEntity
  8
1
  6
Continuous
 62
     7
100
AcDbLine
 10
-163.3544862579471
 20
96.493953
 30
0.0
 11
-163.359777742053
 21
96.493953
 31
0.0
  0
LINE
  5
194
330
48
100
AcDbEntity
  8
1
  6
Continuous
 62
     7
100
AcDbLine
 10
-154.857136
 20
31.49394799999999
 30
0.0
 11
-154.857136
 21
35.49394599999999
 31
0.0
  0
LINE
  5
195
330
48
100
AcDbEntity
  8
1
  6
Continuous
 62
     7
100
AcDbLine
 10
-144.857129
 20
97.49394000000001
 30
0.0
 11
-144.857129
 21
35.49394599999999
 31
0.0
  0
LINE
  5
196
330
48
100
AcDbEntity
  8
1
  6
Continuous
 62
     7
100
AcDbLine
 10
-164.857131
 20
96.493953
 30
0.0
 11
-164.857131
 21
71.99394699999999
 31
0.0
  0
LINE
  5
197
330
48
100
AcDbEntity
  8
1
  6
Continuous
 62
     7
100
AcDbLine
 10
-154.857136
 20
35.49394599999999
 30
0.0
 11
-154.857136
 21
38.20967200000001
 31
0.0
  0
LINE
  5
198
330
48
100
AcDbEntity
  8
1
  6
Continuous
 62
     7
100
AcDbLine
 10
-162.857132
 20
31.49394799999999
 30
0.0
 11
-162.857132
 21
35.99394599999999
 31
0.0
  0
LINE
  5
199
330
48
100
AcDbEntity
  8
1
  6
Continuous
 62
     7
100
AcDbLine
 10
-154.857136
 20
38.20967200000001
 30
0.0
 11
-154.857136
 21
94.77821399999999
 31
0.0
  0
LINE
  5
19A
330
48
100
AcDbEntity
  8
1
  6
Continuous
 62
     7
100
AcDbLine
 10
-162.857132
 20
35.99394599999999
 30
0.0
 11
-162.857132
 21
38.20967200000001
 31
0.0
  0
LINE
  5
19B
330
48
100
AcDbEntity
  8
1
  6
Continuous
 62
     7
100
AcDbLine
 10
231.3021548621422
 20
101.532962
 30
0.0
 11
174.8303191378578
 21
101.532962
 31
0.0
  0
LINE
  5
19C
330
48
100
AcDbEntity
  8
1
  6
Continuous
 62
     7
100
AcDbLine
 10
238.0662368486595
 20
94.7782128437459
 30
0.0
 11
238.066237
 21
38.20967334352841
 31
0.0
  0
LINE
  5
19D
330
48
100
AcDbEntity
  8
1
  6
Continuous
 62
     7
100
AcDbLine
 10
174.7819611563447
 20
31.49394799999999
 30
0.0
 11
231.3505128436551
 21
31.49394799999999
 31
0.0
  0
LINE
  5
19E
330
48
100
AcDbEntity
  8
1
  6
Continuous
 62
     7
100
AcDbLine
 10
168.0662371513405
 20
94.77821284374599
 30
0.0
 11
168.066237
 21
38.20967334352829
 31
0.0
  0
LINE
  5
19F
330
48
100
AcDbEntity
  8
1
  6
DOT_CENTER
 62
     2
100
AcDbLine
 10
172.7495279294495
 20
96.8106520705505
 30
0.0
 11
180.672845355099
 21
88.88733464490099
 31
0.0
  0
LINE
  5
1A0
330
48
100
AcDbEntity
  8
1
  6
DOT_CENTER
 62
     2
100
AcDbLine
 10
232.8863594555045
 20
96.3140654555045
 30
0.0
 11
225.578445325051
 21
89.00615132505101
 31
0.0
  0
LINE
  5
1A1
330
48
100
AcDbEntity
  8
1
  6
DOT_CENTER
 62
     2
100
AcDbLine
 10
225.597285904412
 20
43.96289409558801
 30
0.0
 11
232.828274622966
 21
36.731905377034
 31
0.0
  0
LINE
  5
1A2
330
48
100
AcDbEntity
  8
1
  6
DOT_CENTER
 62
     2
100
AcDbLine
 10
180.192452304341
 20
43.620158304341
 30
0.0
 11
173.1922398214855
 21
36.61994582148549
 31
0.0
  0
LINE
  5
1A3
330
48
100
AcDbEntity
  8
1
  6
DOT_CENTER
 62
     2
100
AcDbLine
 10
244.320845342251
 20
66.493943
 30
0.0
 11
161.698176188591
 21
66.493943
 31
0.0
  0
LINE
  5
1A4
330
48
100
AcDbEntity
  8
1
  6
DOT_CENTER
 62
     2
100
AcDbLine
 10
203.066237
 20
121.935904155002
 30
0.0
 11
203.066237
 21
24.82182444297899
 31
0.0
  0
LINE
  5
1A5
330
48
100
AcDbEntity
  8
1
  6
Continuous
 62
     7
100
AcDbLine
 10
-162.857132
 20
38.20967200000001
 30
0.0
 11
-162.857132
 21
66.4939435
 31
0.0
  0
LINE
  5
1A6
330
48
100
AcDbEntity
  8
1
  6
Continuous
 62
     7
100
AcDbLine
 10
-165.35713
 20
71.99394699999999
 30
0.0
 11
-165.35713
 21
96.359974
 31
0.0
  0
LINE
  5
1A7
330
48
100
AcDbEntity
  8
1
  6
Continuous
 62
     7
100
AcDbLine
 10
-164.857131
 20
66.4939435
 30
0.0
 11
-164.857131
 21
36.49394599999999
 31
0.0
  0
ARC
  5
1A8
330
48
100
AcDbEntity
  8
1
  6
Continuous
 62
     7
100
AcDbCircle
 10
-133.857134
 20
31.49394799999999
 30
0.0
 40
1.0
100
AcDbArc
 50
0.0
 51
90.0
  0
ARC
  5
1A9
330
48
100
AcDbEntity
  8
1
  6
Continuous
 62
     7
100
AcDbCircle
 10
-133.857134
 20
101.493938
 30
0.0
 40
1.000000000000007
100
AcDbArc
 50
-89.70784738568555
 51
0.0
  0
ARC
  5
1AA
330
48
100
AcDbEntity
  8
1
  6
Continuous
 62
     7
100
AcDbCircle
 10
-163.357132
 20
96.993946
 30
0.0
 40
0.5000000000000002
100
AcDbArc
 50
-90.30318112148149
 51
-89.69681887852828
  0
ARC
  5
1AB
330
48
100
AcDbEntity
  8
1
  6
Continuous
 62
     7
100
AcDbCircle
 10
-163.357132
 20
96.993946
 30
0.0
 40
0.4999999999999998
100
AcDbArc
 50
-89.69681887852828
 51
0.0
  0
ARC
  5
1AC
330
48
100
AcDbEntity
  8
1
  6
Continuous
 62
     7
100
AcDbCircle
 10
203.066237
 20
66.493943
 30
0.0
 40
44.99999900000001
100
AcDbArc
 50
128.8633308382094
 51
141.0575599999999
  0
ARC
  5
1AD
330
48
100
AcDbEntity
  8
1
  6
Continuous
 62
     7
100
AcDbCircle
 10
203.066237
 20
66.493943
 30
0.0
 40
44.99999899999998
100
AcDbArc
 50
44.99999999999992
 51
51.13666916179057
  0
ARC
  5
1AE
330
48
100
AcDbEntity
  8
1
  6
Continuous
 62
     7
100
AcDbCircle
 10
203.066237
 20
66.493943
 30
0.0
 40
44.99999899999997
100
AcDbArc
 50
-51.0575501780143
 51
-38.94243969342774
  0
ARC
  5
1AF
330
48
100
AcDbEntity
  8
1
  6
Continuous
 62
     7
100
AcDbCircle
 10
203.066237
 20
66.493943
 30
0.0
 40
44.99999900000005
100
AcDbArc
 50
-135.0
 51
-128.9424498219859
  0
ARC
  5
1B0
330
48
100
AcDbEntity
  8
1
  6
Continuous
 62
     7
100
AcDbCircle
 10
176.549735
 20
39.977442
 30
0.0
 40
3.0
100
AcDbArc
 50
0.0
 51
180.0
  0
ARC
  5
1B1
330
48
100
AcDbEntity
  8
1
  6
Continuous
 62
     7
100
AcDbCircle
 10
176.549735
 20
39.977442
 30
0.0
 40
3.0
100
AcDbArc
 50
180.0
 51
0.0
  0
ARC
  5
1B2
330
48
100
AcDbEntity
  8
1
  6
Continuous
 62
     7
100
AcDbCircle
 10
203.066237
 20
66.493943
 30
0.0
 40
44.99999899999999
100
AcDbArc
 50
38.94243999999996
 51
44.99999999999992
  0
ARC
  5
1B3
330
48
100
AcDbEntity
  8
1
  6
Continuous
 62
     7
100
AcDbCircle
 10
203.066237
 20
66.493943
 30
0.0
 40
44.99999900000006
100
AcDbArc
 50
-141.0575603065721
 51
-135.0
  0
CIRCLE
  5
1B4
330
48
100
AcDbEntity
  8
1
  6
Continuous
 62
     7
100
AcDbCircle
 10
176.549735
 20
93.010444
 30
0.0
 40
3.0
  0
CIRCLE
  5
1B5
330
48
100
AcDbEntity
  8
1
  6
DOT_CENTER
 62
     2
100
AcDbCircle
 10
203.066237
 20
66.493943
 30
0.0
 40
37.5
  0
CIRCLE
  5
1B6
330
48
100
AcDbEntity
  8
1
  6
Continuous
 62
     7
100
AcDbCircle
 10
229.5827379999999
 20
93.010444
 30
0.0
 40
3.0
  0
CIRCLE
  5
1B7
330
48
100
AcDbEntity
  8
1
  6
Continuous
 62
     7
100
AcDbCircle
 10
203.066237
 20
66.493943
 30
0.0
 40
27.99999800000001
  0
CIRCLE
  5
1B8
330
48
100
AcDbEntity
  8
1
  6
Continuous
 62
     7
100
AcDbCircle
 10
203.066237
 20
66.493943
 30
0.0
 40
29.86602400000001
  0
CIRCLE
  5
1B9
330
48
100
AcDbEntity
  8
1
  6
Continuous
 62
     7
100
AcDbCircle
 10
203.066237
 20
66.493943
 30
0.0
 40
12.211592
  0
CIRCLE
  5
1BA
330
48
100
AcDbEntity
  8
1
  6
Continuous
 62
     7
100
AcDbCircle
 10
203.066237
 20
66.493943
 30
0.0
 40
10.5
  0
CIRCLE
  5
1BB
330
48
100
AcDbEntity
  8
1
  6
Continuous
 62
     7
100
AcDbCircle
 10
229.5827379999999
 20
39.977442
 30
0.0
 40
3.0
  0
SPLINE
  5
1BC
330
48
100
AcDbEntity
  8
1
  6
Continuous
 62
     2
100
AcDbSpline
210
0.0
220
0.0
230
1.0
 70
     8
 71
     3
 72
     9
 73
     5
 74
     3
 42
0.0000000001
 43
0.0000000001
 44
0.00000001
 40
0.0
 40
0.0
 40
0.0
 40
0.0
 40
1.357293849015606
 40
2.573223940348712
 40
2.573223940348712
 40
2.573223940348712
 40
2.573223940348712
 10
-165.357133
 20
77.989739790713
 30
0.0
 10
-164.915456100171
 20
78.1477635537464
 30
0.0
 10
-164.0781034713624
 20
78.44735271822728
 30
0.0
 10
-163.248938704155
 20
78.13658631390959
 30
0.0
 10
-162.857132
 20
77.98973931141589
 30
0.0
 11
-165.357133
 21
77.989739790713
 31
0.0
 11
-164.0343803496559
 21
78.29399629201272
 31
0.0
 11
-162.857132
 21
77.98973931141589
 31
0.0
  0
SPLINE
  5
1BD
330
48
100
AcDbEntity
  8
1
  6
Continuous
 62
     2
100
AcDbSpline
210
0.0
220
0.0
230
1.0
 70
     8
 71
     3
 72
    15
 73
    11
 74
     9
 42
0.0000000001
 43
0.0000000001
 44
0.00000001
 40
0.0
 40
0.0
 40
0.0
 40
0.0
 40
0.3744230958765781
 40
0.7453219642471912
 40
1.668109090993629
 40
2.610543271546304
 40
3.205543282380593
 40
3.792506479750146
 40
4.322067584990491
 40
4.846233748769639
 40
4.846233748769639
 40
4.846233748769639
 40
4.846233748769639
 10
-161.3571330000019
 20
76.90202154594081
 30
0.0
 10
-161.2713900541277
 20
76.81120558589936
 30
0.0
 10
-161.1007112110138
 20
76.63042846379203
 30
0.0
 10
-160.7732009371106
 20
76.17874552359302
 30
0.0
 10
-160.4767701674743
 20
75.48495700371826
 30
0.0
 10
-160.293566208896
 20
74.68458438094311
 30
0.0
 10
-160.1609065139642
 20
73.98979394471917
 30
0.0
 10
-159.9964244271
 20
73.43873939019828
 30
0.0
 10
-159.7158227953025
 20
72.96670258959406
 30
0.0
 10
-159.5620760567639
 20
72.65099106305672
 30
0.0
 10
-159.4855962687745
 20
72.4939435
 30
0.0
 11
-161.3571330000019
 21
76.90202154594081
 31
0.0
 11
-161.1060481379562
 21
76.62426437361702
 31
0.0
 11
-160.8883378362939
 21
76.32398417928394
 31
0.0
 11
-160.5058985069179
 21
75.48417691530288
 31
0.0
 11
-160.2746384005041
 21
74.57055721988499
 31
0.0
 11
-160.1503236411197
 21
73.98868880392483
 31
0.0
 11
-159.9677886826093
 21
73.43082969627497
 31
0.0
 11
-159.7215851988683
 21
72.96198131057102
 31
0.0
 11
-159.4855962687745
 21
72.4939435
 31
0.0
  0
SPLINE
  5
1BE
330
48
100
AcDbEntity
  8
1
  6
Continuous
 62
     2
100
AcDbSpline
210
0.0
220
0.0
230
1.0
 70
     8
 71
     3
 72
     9
 73
     5
 74
     3
 42
0.0000000001
 43
0.0000000001
 44
0.00000001
 40
0.0
 40
0.0
 40
0.0
 40
0.0
 40
3.087314551601347
 40
6.011377124327788
 40
6.011377124327788
 40
6.011377124327788
 40
6.011377124327788
 10
-159.4855962687745
 20
72.4939435
 30
0.0
 10
-159.5960376570776
 20
71.46857595449463
 30
0.0
 10
-159.8110804796109
 20
69.47206056739807
 30
0.0
 10
-159.680581021787
 20
67.46851229003363
 30
0.0
 10
-159.6171032907294
 20
66.4939435
 30
0.0
 11
-159.4855962687745
 21
72.4939435
 31
0.0
 11
-159.7257791783284
 21
69.41598584751554
 31
0.0
 11
-159.6171032907294
 21
66.4939435
 31
0.0
  0
SPLINE
  5
1BF
330
48
100
AcDbEntity
  8
1
  6
Continuous
 62
     2
100
AcDbSpline
210
0.0
220
0.0
230
1.0
 70
     8
 71
     3
 72
    11
 73
     7
 74
     5
 42
0.0000000001
 43
0.0000000001
 44
0.00000001
 40
0.0
 40
0.0
 40
0.0
 40
0.0
 40
0.5660826257092315
 40
1.141547996441314
 40
1.501566786609867
 40
1.860002953250376
 40
1.860002953250376
 40
1.860002953250376
 40
1.860002953250376
 10
-162.857132
 20
77.98973931141589
 30
0.0
 10
-162.6903697754933
 20
77.90091202064531
 30
0.0
 10
-162.354081264555
 20
77.7217851384496
 30
0.0
 10
-161.9510899111702
 20
77.42276374937539
 30
0.0
 10
-161.6158526650865
 20
77.15113231001399
 30
0.0
 10
-161.4432461482749
 20
76.98493643436264
 30
0.0
 10
-161.3571330000019
 20
76.90202154594081
 30
0.0
 11
-162.857132
 21
77.98973931141589
 31
0.0
 11
-162.3642026756859
 21
77.71140458422374
 31
0.0
 11
-161.8965583379484
 21
77.37604035492393
 31
0.0
 11
-161.618841413094
 21
77.14694029179903
 31
0.0
 11
-161.3571330000019
 21
76.90202154594081
 31
0.0
  0
ARC
  5
1C0
330
48
100
AcDbEntity
  8
1
  6
Continuous
 62
     7
100
AcDbCircle
 10
-139.7860621881111
 20
95.49395100000001
 30
0.0
 40
4.999999999999986
100
AcDbArc
 50
90.0
 51
135.0002238794139
  0
ARC
  5
1C1
330
48
100
AcDbEntity
  8
1
  6
Continuous
 62
     7
100
AcDbCircle
 10
-163.357132
 20
35.99394599999999
 30
0.0
 40
0.5
100
AcDbArc
 50
0.0
 51
90.0
  0
ARC
  5
1C2
330
48
100
AcDbEntity
  8
1
  6
Continuous
 62
     7
100
AcDbCircle
 10
-139.7860751880095
 20
37.49394799999999
 30
0.0
 40
4.999999999999986
100
AcDbArc
 50
-135.0002238794146
 51
-90.0
  0
ENDBLK
  5
4A
330
48
100
AcDbEntity
  8
0
100
AcDbBlockEnd
  0
BLOCK
  5
4C
330
4B
100
AcDbEntity
  8
0
100
AcDbBlockBegin
  2
Rotor
 70
     0
 71
     0
 10
-122.9699995878999
 20
-109.8445518022832
 30
0.0
  3
Rotor
  1

  0
LINE
  5
1C3
330
4B
100
AcDbEntity
  8
1
  6
DOT_CENTER
 62
     2
100
AcDbLine
 10
203.066237
 20
74.26488819058241
 30
0.0
 11
203.066237
 21
58.50491891423269
 31
0.0
  0
LINE
  5
1C4
330
4B
100
AcDbEntity
  8
1
  6
DOT_CENTER
 62
     2
100
AcDbLine
 10
211.1862821009541
 20
66.493943
 30
0.0
 11
195.0701553268338
 21
66.493943
 31
0.0
  0
LINE
  5
1C5
330
4B
100
AcDbEntity
  8
1
  6
DASHED
 62
     2
100
AcDbLine
 10
-179.857133
 20
64.493944
 30
0.0
 11
-167.857133
 21
64.493944
 31
0.0
  0
LINE
  5
1C6
330
4B
100
AcDbEntity
  8
1
  6
DASHED
 62
     2
100
AcDbLine
 10
-179.857133
 20
68.493944
 30
0.0
 11
-167.857133
 21
68.493944
 31
0.0
  0
LINE
  5
1C7
330
4B
100
AcDbEntity
  8
1
  6
Continuous
 62
     2
100
AcDbLine
 10
-163.857133
 20
71.99394699999999
 30
0.0
 11
-163.857133
 21
71.9939435
 31
0.0
  0
LINE
  5
1C8
330
4B
100
AcDbEntity
  8
1
  6
Continuous
 62
     7
100
AcDbLine
 10
-163.257133
 20
71.8439435
 30
0.0
 11
-163.4467790968664
 21
71.8439435
 31
0.0
  0
LINE
  5
1C9
330
4B
100
AcDbEntity
  8
1
  6
Continuous
 62
     7
100
AcDbLine
 10
-163.857133
 20
71.9939435
 30
0.0
 11
-163.6158264015628
 21
71.8814203851853
 31
0.0
  0
LINE
  5
1CA
330
4B
100
AcDbEntity
  8
1
  6
Continuous
 62
     7
100
AcDbLine
 10
-162.857133
 20
72.2439435
 30
0.0
 11
-162.857133
 21
72.4939435
 31
0.0
  0
LINE
  5
1CB
330
4B
100
AcDbEntity
  8
1
  6
Continuous
 62
     7
100
AcDbLine
 10
-162.857133
 20
72.4939435
 30
0.0
 11
-161.357133
 21
72.4939435
 31
0.0
  0
LINE
  5
1CC
330
4B
100
AcDbEntity
  8
1
  6
Continuous
 62
     7
100
AcDbLine
 10
-161.357133
 20
72.4939435
 30
0.0
 11
-159.4855962687745
 21
72.4939435
 31
0.0
  0
LINE
  5
1CD
330
4B
100
AcDbEntity
  8
1
  6
Continuous
 62
     7
100
AcDbLine
 10
-162.857133
 20
66.4939435
 30
0.0
 11
-162.857133
 21
72.2439435
 31
0.0
  0
LINE
  5
1CE
330
4B
100
AcDbEntity
  8
1
  6
Continuous
 62
     7
100
AcDbLine
 10
-163.8571405057742
 20
71.99394699999999
 30
0.0
 11
-185.5887864335176
 21
71.99394699999999
 31
0.0
  0
LINE
  5
1CF
330
4B
100
AcDbEntity
  8
1
  6
Continuous
 62
     7
100
AcDbLine
 10
-185.5887864335175
 20
60.99394000000001
 30
0.0
 11
-165.857391
 21
60.99394000000001
 31
0.0
  0
LINE
  5
1D0
330
4B
100
AcDbEntity
  8
1
  6
Continuous
 62
     7
100
AcDbLine
 10
-185.588793
 20
60.99394000000001
 30
0.0
 11
-185.588793
 21
71.99394699999999
 31
0.0
  0
LINE
  5
1D1
330
4B
100
AcDbEntity
  8
1
  6
Continuous
 62
     7
100
AcDbLine
 10
-185.857133
 20
68.99394799999999
 30
0.0
 11
-185.857133
 21
71.493941
 31
0.0
  0
LINE
  5
1D2
330
4B
100
AcDbEntity
  8
1
  6
Continuous
 62
     7
100
AcDbLine
 10
-185.857133
 20
61.49394599999999
 30
0.0
 11
-185.857133
 21
68.99394799999999
 31
0.0
  0
LINE
  5
1D3
330
4B
100
AcDbEntity
  8
1
  6
DOT_CENTER
 62
     2
100
AcDbLine
 10
-161.8571405057742
 20
66.4939435
 30
0.0
 11
-187.5887864335176
 21
66.4939435
 31
0.0
  0
LINE
  5
1D4
330
4B
100
AcDbEntity
  8
1
  6
Continuous
 62
     2
100
AcDbLine
 10
-163.857133
 20
71.9939435
 30
0.0
 11
-163.857133
 21
66.4939435
 31
0.0
  0
ARC
  5
1D5
330
4B
100
AcDbEntity
  8
1
  6
Continuous
 62
     7
100
AcDbCircle
 10
203.066237
 20
66.493943
 30
0.0
 40
5.5
100
AcDbArc
 50
180.0
 51
0.0
  0
ARC
  5
1D6
330
4B
100
AcDbEntity
  8
1
  6
Continuous
 62
     7
100
AcDbCircle
 10
203.066237
 20
66.493943
 30
0.0
 40
5.5
100
AcDbArc
 50
0.0
 51
180.0
  0
ARC
  5
1D7
330
4B
100
AcDbEntity
  8
1
  6
DASHED
 62
     2
100
AcDbCircle
 10
-167.857133
 20
66.493944
 30
0.0
 40
2.0
100
AcDbArc
 50
-90.0
 51
0.0
  0
ARC
  5
1D8
330
4B
100
AcDbEntity
  8
1
  6
DASHED
 62
     2
100
AcDbCircle
 10
-179.857133
 20
66.493944
 30
0.0
 40
2.0
100
AcDbArc
 50
90.0
 51
180.0
  0
ARC
  5
1D9
330
4B
100
AcDbEntity
  8
1
  6
Continuous
 62
     7
100
AcDbCircle
 10
203.066237
 20
66.493943
 30
0.0
 40
6.000000000000016
100
AcDbArc
 50
19.47122063449064
 51
-19.47122063449064
  0
ARC
  5
1DA
330
4B
100
AcDbEntity
  8
1
  6
DASHED
 62
     2
100
AcDbCircle
 10
-167.857133
 20
66.493944
 30
0.0
 40
2.0
100
AcDbArc
 50
0.0
 51
90.0
  0
ARC
  5
1DB
330
4B
100
AcDbEntity
  8
1
  6
DASHED
 62
     2
100
AcDbCircle
 10
-179.857133
 20
66.493944
 30
0.0
 40
2.0
100
AcDbArc
 50
180.0
 51
-90.0
  0
ARC
  5
1DC
330
4B
100
AcDbEntity
  8
1
  6
Continuous
 62
     7
100
AcDbCircle
 10
-163.257133
 20
72.2439435
 30
0.0
 40
0.4000000000000057
100
AcDbArc
 50
-90.0
 51
0.0
  0
ARC
  5
1DD
330
4B
100
AcDbEntity
  8
1
  6
Continuous
 62
     7
100
AcDbCircle
 10
-185.257133
 20
61.49394599999999
 30
0.0
 40
0.5999999999999943
100
AcDbArc
 50
180.0
 51
-123.5562732281286
  0
ARC
  5
1DE
330
4B
100
AcDbEntity
  8
1
  6
Continuous
 62
     7
100
AcDbCircle
 10
-185.257133
 20
71.493941
 30
0.0
 40
0.5999999999999992
100
AcDbArc
 50
123.5562732281372
 51
180.0
  0
ARC
  5
1DF
330
4B
100
AcDbEntity
  8
1
  6
Continuous
 62
     7
100
AcDbCircle
 10
-163.4467790968664
 20
72.2439435
 30
0.0
 40
0.4000000000000895
100
AcDbArc
 50
-115.0000000000117
 51
-90.0
  0
ENDBLK
  5
4D
330
4B
100
AcDbEntity
  8
0
100
AcDbBlockEnd
  0
BLOCK
  5
4F
330
4E
100
AcDbEntity
  8
0
100
AcDbBlockBegin
  2
Sechskantschraube
 70
     0
 71
     0
 10
-236.965839510263
 20
223.798053367213
 30
0.0
  3
Sechskantschraube
  1

  0
ARC
  5
1E0
330
4E
100
AcDbEntity
  8
1
  6
Continuous
 62
     7
100
AcDbCircle
 10
232.558961
 20
91.24126999999999
 30
0.0
 40
1.919000000000011
100
AcDbArc
 50
90.0
 51
-150.8568749999992
  0
ARC
  5
1E1
330
4E
100
AcDbEntity
  8
1
  6
Continuous
 62
     7
100
AcDbCircle
 10
232.558961
 20
91.24126999999999
 30
0.0
 40
1.419000000000011
100
AcDbArc
 50
90.0
 51
-151.3293750000012
  0
ARC
  5
1E2
330
4E
100
AcDbEntity
  8
1
  6
Continuous
 62
     7
100
AcDbCircle
 10
173.573536
 20
91.24126999999999
 30
0.0
 40
1.918999999999966
100
AcDbArc
 50
-29.1431250000008
 51
90.0
  0
ARC
  5
1E3
330
4E
100
AcDbEntity
  8
1
  6
Continuous
 62
     7
100
AcDbCircle
 10
173.573536
 20
91.24126999999999
 30
0.0
 40
1.41899999999997
100
AcDbArc
 50
-28.67062499999882
 51
90.0
  0
ARC
  5
1E4
330
4E
100
AcDbEntity
  8
1
  6
Continuous
 62
     7
100
AcDbCircle
 10
173.573536
 20
41.74661699999999
 30
0.0
 40
1.918999999999997
100
AcDbArc
 50
-90.0
 51
29.13749899999932
  0
ARC
  5
1E5
330
4E
100
AcDbEntity
  8
1
  6
Continuous
 62
     7
100
AcDbCircle
 10
173.573536
 20
41.74661699999999
 30
0.0
 40
1.418999999999997
100
AcDbArc
 50
-90.0
 51
28.6762510000012
  0
ARC
  5
1E6
330
4E
100
AcDbEntity
  8
1
  6
Continuous
 62
     7
100
AcDbCircle
 10
232.558961
 20
41.74661699999999
 30
0.0
 40
1.918999999999943
100
AcDbArc
 50
150.8625010000007
 51
-90.0
  0
ARC
  5
1E7
330
4E
100
AcDbEntity
  8
1
  6
Continuous
 62
     7
100
AcDbCircle
 10
232.558961
 20
41.74661699999999
 30
0.0
 40
1.418999999999988
100
AcDbArc
 50
151.3237489999988
 51
-90.0
  0
ENDBLK
  5
50
330
4E
100
AcDbEntity
  8
0
100
AcDbBlockEnd
  0
BLOCK
  5
52
330
51
100
AcDbEntity
  8
0
100
AcDbBlockBegin
  2
Geh_use
 70
     0
 71
     0
 10
-108.357138
 20
31.49394799999999
 30
0.0
  3
Geh_use
  1

  0
POINT
  5
1E8
330
51
100
AcDbEntity
  8
1
 62
     3
 60
     1
100
AcDbPoint
 10
-125.857138
 20
31.49394799999999
 30
0.0
  0
POINT
  5
1E9
330
51
100
AcDbEntity
  8
1
 62
     3
 60
     1
100
AcDbPoint
 10
-125.857138
 20
101.493938
 30
0.0
  0
LINE
  5
1EA
330
51
100
AcDbEntity
  8
1
  6
Continuous
 62
     7
100
AcDbLine
 10
-125.857138
 20
101.493938
 30
0.0
 11
-125.857138
 21
31.49394799999999
 31
0.0
  0
LINE
  5
1EB
330
51
100
AcDbEntity
  8
1
  6
Continuous
 62
     7
100
AcDbLine
 10
-85.857133
 20
38.68010656469329
 30
0.0
 11
-85.857133
 21
94.77821284374599
 31
0.0
  0
LINE
  5
1EC
330
51
100
AcDbEntity
  8
1
  6
Continuous
 62
     7
100
AcDbLine
 10
-85.857133
 20
31.49394799999999
 30
0.0
 11
-85.857133
 21
38.68010656469329
 31
0.0
  0
LINE
  5
1ED
330
51
100
AcDbEntity
  8
1
  6
Continuous
 62
     7
100
AcDbLine
 10
-85.857133
 20
101.493938
 30
0.0
 11
-125.857138
 21
101.493938
 31
0.0
  0
LINE
  5
1EE
330
51
100
AcDbEntity
  8
1
  6
Continuous
 62
     7
100
AcDbLine
 10
-85.857133
 20
31.49394799999999
 30
0.0
 11
-125.857138
 21
31.49394799999999
 31
0.0
  0
LINE
  5
1EF
330
51
100
AcDbEntity
  8
1
  6
Continuous
 62
     7
100
AcDbLine
 10
-85.857133
 20
94.77821284374599
 30
0.0
 11
-125.857138
 21
94.77821284374599
 31
0.0
  0
LINE
  5
1F0
330
51
100
AcDbEntity
  8
1
  6
Continuous
 62
     7
100
AcDbLine
 10
-125.857138
 20
38.68010656469329
 30
0.0
 11
-85.857133
 21
38.68010656469329
 31
0.0
  0
LINE
  5
1F1
330
51
100
AcDbEntity
  8
1
  6
Continuous
 62
     7
100
AcDbLine
 10
-85.857133
 20
94.77821284374599
 30
0.0
 11
-85.857133
 21
101.493938
 31
0.0
  0
ENDBLK
  5
53
330
51
100
AcDbEntity
  8
0
100
AcDbBlockEnd
  0
BLOCK
  5
55
330
54
100
AcDbEntity
  8
0
100
AcDbBlockBegin
  2
Lagerschild_B-Seite
 70
     0
 71
     0
 10
-68.357133
 20
31.11894699999999
 30
0.0
  3
Lagerschild_B-Seite
  1

  0
POINT
  5
1F2
330
54
100
AcDbEntity
  8
1
 62
     3
 60
     1
100
AcDbPoint
 10
-47.60713150000001
 20
31.12112864170062
 30
0.0
  0
POINT
  5
1F3
330
54
100
AcDbEntity
  8
1
 62
     3
 60
     1
100
AcDbPoint
 10
-33.35713199999999
 20
101.4939435
 30
0.0
  0
LINE
  5
1F4
330
54
100
AcDbEntity
  8
1
  6
Continuous
 62
     7
100
AcDbLine
 10
-47.60713150000001
 20
38.67135700000001
 30
0.0
 11
-47.60713150000001
 21
38.61985264664476
 31
0.0
  0
LINE
  5
1F5
330
54
100
AcDbEntity
  8
1
  6
Continuous
 62
     7
100
AcDbLine
 10
-33.35713199999999
 20
31.24548999999999
 30
0.0
 11
-33.35713199999999
 21
38.671357
 31
0.0
  0
LINE
  5
1F6
330
54
100
AcDbEntity
  8
1
  6
Continuous
 62
     7
100
AcDbLine
 10
-33.35713199999999
 20
38.671357
 30
0.0
 11
-33.35713199999999
 21
101.4939435
 31
0.0
  0
LINE
  5
1F7
330
54
100
AcDbEntity
  8
1
  6
Continuous
 62
     7
100
AcDbLine
 10
-33.35713199999999
 20
101.4939435
 30
0.0
 11
-33.35713199999999
 21
38.671357
 31
0.0
  0
LINE
  5
1F8
330
54
100
AcDbEntity
  8
1
  6
Continuous
 62
     7
100
AcDbLine
 10
-33.35713199999999
 20
38.671357
 30
0.0
 11
-33.35713199999999
 21
31.4939435
 31
0.0
  0
LINE
  5
1F9
330
54
100
AcDbEntity
  8
1
  6
Continuous
 62
     7
100
AcDbLine
 10
-47.60713150000001
 20
38.67135700000001
 30
0.0
 11
-33.35713199999999
 21
38.671357
 31
0.0
  0
LINE
  5
1FA
330
54
100
AcDbEntity
  8
1
  6
Continuous
 62
     7
100
AcDbLine
 10
-47.60713150000001
 20
31.12112864170062
 30
0.0
 11
-33.35713199999999
 21
31.24548999999999
 31
0.0
  0
LINE
  5
1FB
330
54
100
AcDbEntity
  8
1
  6
Continuous
 62
     7
100
AcDbLine
 10
-33.35713199999999
 20
101.4939435
 30
0.0
 11
-47.60713149999999
 21
101.8667582390265
 31
0.0
  0
LINE
  5
1FC
330
54
100
AcDbEntity
  8
1
  6
Continuous
 62
     7
100
AcDbLine
 10
-47.60713150000001
 20
38.61985264664476
 30
0.0
 11
-47.60713150000001
 21
31.12112864170062
 31
0.0
  0
LINE
  5
1FD
330
54
100
AcDbEntity
  8
1
  6
Continuous
 62
     7
100
AcDbLine
 10
-83.874539
 20
33.247075
 30
0.0
 11
-83.95196899999999
 21
35.069772
 31
0.0
  0
LINE
  5
1FE
330
54
100
AcDbEntity
  8
1
  6
Continuous
 62
     7
100
AcDbLine
 10
-47.60713150000001
 20
38.61985264664476
 30
0.0
 11
-83.64916500000001
 21
38.75013100000001
 31
0.0
  0
LINE
  5
1FF
330
54
100
AcDbEntity
  8
1
  6
Continuous
 62
     7
100
AcDbLine
 10
-85.857133
 20
31.454925
 30
0.0
 11
-83.64916500000001
 21
31.435655
 31
0.0
  0
LINE
  5
200
330
54
100
AcDbEntity
  8
1
  6
Continuous
 62
     7
100
AcDbLine
 10
-83.64916500000001
 20
31.435655
 30
0.0
 11
-47.60713150000001
 21
31.12112864170062
 31
0.0
  0
LINE
  5
201
330
54
100
AcDbEntity
  8
1
  6
Continuous
 62
     7
100
AcDbLine
 10
-83.95196899999999
 20
35.069772
 30
0.0
 11
-83.877119
 21
36.910381
 31
0.0
  0
LINE
  5
202
330
54
100
AcDbEntity
  8
1
  6
Continuous
 62
     7
100
AcDbLine
 10
-47.60713149999999
 20
101.8667582390265
 30
0.0
 11
-47.60713150000001
 21
38.67135700000001
 31
0.0
  0
LINE
  5
203
330
54
100
AcDbEntity
  8
1
  6
Continuous
 62
     7
100
AcDbLine
 10
-83.877119
 20
36.910381
 30
0.0
 11
-83.64916500000001
 21
38.75013100000001
 31
0.0
  0
LINE
  5
204
330
54
100
AcDbEntity
  8
1
  6
Continuous
 62
     7
100
AcDbLine
 10
-83.64916500000001
 20
31.435655
 30
0.0
 11
-83.874539
 21
33.247075
 31
0.0
  0
LINE
  5
205
330
54
100
AcDbEntity
  8
1
  6
Continuous
 62
     7
100
AcDbLine
 10
-83.64916500000001
 20
38.75013100000001
 30
0.0
 11
-85.857133
 21
42.44156000000001
 31
0.0
  0
LINE
  5
206
330
54
100
AcDbEntity
  8
1
  6
Continuous
 62
     7
100
AcDbLine
 10
-47.60713149999999
 20
101.8667582390265
 30
0.0
 11
-85.857133
 21
101.5329454588632
 31
0.0
  0
LINE
  5
207
330
54
100
AcDbEntity
  8
1
  6
Continuous
 62
     7
100
AcDbLine
 10
-85.857133
 20
101.5329454588632
 30
0.0
 11
-85.857133
 21
90.72514319859081
 31
0.0
  0
LINE
  5
208
330
54
100
AcDbEntity
  8
1
  6
Continuous
 62
     7
100
AcDbLine
 10
-85.857133
 20
90.72514319859081
 30
0.0
 11
-85.857133
 21
31.454925
 31
0.0
  0
LINE
  5
209
330
54
100
AcDbEntity
  8
1
  6
Continuous
 62
     7
100
AcDbLine
 10
-85.857133
 20
90.72514319859081
 30
0.0
 11
-82.42875799999999
 21
96.15174999999999
 31
0.0
  0
LINE
  5
20A
330
54
100
AcDbEntity
  8
1
  6
Continuous
 62
     7
100
AcDbLine
 10
-82.42875799999999
 20
96.15174999999999
 30
0.0
 11
-78.716351
 21
101.595264
 31
0.0
  0
LINE
  5
20B
330
54
100
AcDbEntity
  8
1
  6
Continuous
 62
     7
100
AcDbLine
 10
238.441233
 20
38.6801052928445
 30
0.0
 11
238.441233
 21
101.86894
 31
0.0
  0
LINE
  5
20C
330
54
100
AcDbEntity
  8
1
  6
Continuous
 62
     7
100
AcDbLine
 10
167.69124
 20
101.86894
 30
0.0
 11
167.69124
 21
38.68010656469329
 31
0.0
  0
LINE
  5
20D
330
54
100
AcDbEntity
  8
1
  6
Continuous
 62
     7
100
AcDbLine
 10
175.2523992928444
 20
31.11894699999999
 30
0.0
 11
230.8800747071555
 21
31.11894699999999
 31
0.0
  0
LINE
  5
20E
330
54
100
AcDbEntity
  8
1
  6
Continuous
 62
     7
100
AcDbLine
 10
170.066241
 20
101.86894
 30
0.0
 11
167.69124
 21
101.86894
 31
0.0
  0
LINE
  5
20F
330
54
100
AcDbEntity
  8
1
  6
Continuous
 62
     7
100
AcDbLine
 10
238.441233
 20
101.86894
 30
0.0
 11
170.066241
 21
101.86894
 31
0.0
  0
ARC
  5
210
330
54
100
AcDbEntity
  8
1
  6
Continuous
 62
     7
100
AcDbCircle
 10
203.0662370000003
 20
66.49394299999969
 30
0.0
 40
44.99999899999957
100
AcDbArc
 50
-51.82355292653338
 51
-38.17644707346662
  0
ARC
  5
211
330
54
100
AcDbEntity
  8
1
  6
Continuous
 62
     7
100
AcDbCircle
 10
203.0662370000003
 20
66.49394299999969
 30
0.0
 40
44.99999900000005
100
AcDbArc
 50
-135.0000000000006
 51
-128.1764470734674
  0
ARC
  5
212
330
54
100
AcDbEntity
  8
1
  6
Continuous
 62
     7
100
AcDbCircle
 10
203.0662370000003
 20
66.49394299999969
 30
0.0
 40
44.99999900000009
100
AcDbArc
 50
-141.8235549865078
 51
-135.0000000000006
  0
ENDBLK
  5
56
330
54
100
AcDbEntity
  8
0
100
AcDbBlockEnd
  0
BLOCK
  5
58
330
57
100
AcDbEntity
  8
0
100
AcDbBlockBegin
  2
Abschlu_deckel
 70
     0
 71
     0
 10
38.14486079627153
 20
31.4939440395313
 30
0.0
  3
Abschlu_deckel
  1

  0
LINE
  5
213
330
57
100
AcDbEntity
  8
1
  6
Continuous
 62
     7
100
AcDbLine
 10
-25.35713199999999
 20
101.4939435
 30
0.0
 11
-25.35713199999999
 21
38.671357
 31
0.0
  0
LINE
  5
214
330
57
100
AcDbEntity
  8
1
  6
Continuous
 62
     7
100
AcDbLine
 10
-33.35713199999999
 20
31.4939435
 30
0.0
 11
-25.35713199999999
 21
31.4939435
 31
0.0
  0
LINE
  5
215
330
57
100
AcDbEntity
  8
1
  6
Continuous
 62
     7
100
AcDbLine
 10
-33.35713199999999
 20
101.4939435
 30
0.0
 11
-25.35713199999999
 21
101.4939435
 31
0.0
  0
LINE
  5
216
330
57
100
AcDbEntity
  8
1
  6
Continuous
 62
     7
100
AcDbLine
 10
-33.35713199999999
 20
38.671357
 30
0.0
 11
-25.35713199999999
 21
38.671357
 31
0.0
  0
LINE
  5
217
330
57
100
AcDbEntity
  8
1
  6
Continuous
 62
     7
100
AcDbLine
 10
-25.35713199999999
 20
38.671357
 30
0.0
 11
-25.35713199999999
 21
31.4939435
 31
0.0
  0
ENDBLK
  5
59
330
57
100
AcDbEntity
  8
0
100
AcDbBlockEnd
  0
BLOCK
  5
5B
330
5A
100
AcDbEntity
  8
0
100
AcDbBlockBegin
  2
Steckerplatte
 70
     0
 71
     0
 10
-57.10713000000001
 20
99.63118800000001
 30
0.0
  3
Steckerplatte
  1

  0
LINE
  5
218
330
5A
100
AcDbEntity
  8
1
  6
Continuous
 62
     7
100
AcDbLine
 10
-74.60713000000001
 20
104.368932
 30
0.0
 11
-44.607133
 21
104.368932
 31
0.0
  0
LINE
  5
219
330
5A
100
AcDbEntity
  8
1
  6
Continuous
 62
     7
100
AcDbLine
 10
-44.607133
 20
104.368932
 30
0.0
 11
-44.607133
 21
101.845007
 31
0.0
  0
LINE
  5
21A
330
5A
100
AcDbEntity
  8
1
  6
Continuous
 62
     7
100
AcDbLine
 10
-74.60713000000001
 20
101.631188
 30
0.0
 11
-74.60713000000001
 21
104.368932
 31
0.0
  0
LINE
  5
21B
330
5A
100
AcDbEntity
  8
1
  6
DOT_CENTER
 62
     2
100
AcDbLine
 10
-59.60713150000001
 20
99.631188
 30
0.0
 11
-59.60713150000001
 21
106.368932
 31
0.0
  0
LINE
  5
21C
330
5A
100
AcDbEntity
  8
1
  6
Continuous
 62
     7
100
AcDbLine
 10
236.066257
 20
104.368932
 30
0.0
 11
170.066241
 21
104.368932
 31
0.0
  0
LINE
  5
21D
330
5A
100
AcDbEntity
  8
1
  6
Continuous
 62
     7
100
AcDbLine
 10
236.066257
 20
104.368932
 30
0.0
 11
236.066257
 21
101.86894
 31
0.0
  0
LINE
  5
21E
330
5A
100
AcDbEntity
  8
1
  6
Continuous
 62
     7
100
AcDbLine
 10
170.066241
 20
101.86894
 30
0.0
 11
170.066241
 21
104.368932
 31
0.0
  0
ENDBLK
  5
5C
330
5A
100
AcDbEntity
  8
0
100
AcDbBlockEnd
  0
BLOCK
  5
5E
330
5D
100
AcDbEntity
  8
0
100
AcDbBlockBegin
  2
tb_frame_A3
 70
     0
 71
     0
 10
0.0
 20
0.0
 30
0.0
  3
tb_frame_A3
  1

  0
POINT
  5
21F
330
5D
100
AcDbEntity
  8
1
 62
   250
100
AcDbPoint
 10
205.0
 20
-142.5
 30
0.0
  0
LINE
  5
220
102
{ACAD_REACTORS
330
321
330
321
102
}
330
5D
100
AcDbEntity
  8
1
  6
Continuous
 62
     2
100
AcDbLine
 10
145.8516542509982
 20
-115.0199999999999
 30
0.0
 11
145.8516542509982
 21
-118.30758746051
 31
0.0
  0
LINE
  5
221
102
{ACAD_REACTORS
330
321
330
321
102
}
330
5D
100
AcDbEntity
  8
1
  6
Continuous
 62
     2
100
AcDbLine
 10
145.8516542509982
 20
-115.0199999999999
 30
0.0
 11
147.1516542509982
 21
-115.0199999999999
 31
0.0
  0
LINE
  5
222
102
{ACAD_REACTORS
330
321
330
321
102
}
330
5D
100
AcDbEntity
  8
1
  6
Continuous
 62
     2
100
AcDbLine
 10
147.1516542509982
 20
-113.9199999999999
 30
0.0
 11
147.1516542509982
 21
-115.0199999999999
 31
0.0
  0
LINE
  5
223
102
{ACAD_REACTORS
330
321
330
321
102
}
330
5D
100
AcDbEntity
  8
1
  6
Continuous
 62
     2
100
AcDbLine
 10
145.8516542509982
 20
-113.9199999999999
 30
0.0
 11
147.1516542509982
 21
-113.9199999999999
 31
0.0
  0
LINE
  5
224
102
{ACAD_REACTORS
330
321
330
321
102
}
330
5D
100
AcDbEntity
  8
1
  6
Continuous
 62
     2
100
AcDbLine
 10
145.8516542509982
 20
-118.30758746051
 30
0.0
 11
147.1516542509982
 21
-118.30758746051
 31
0.0
  0
LINE
  5
225
102
{ACAD_REACTORS
330
321
330
321
102
}
330
5D
100
AcDbEntity
  8
1
  6
Continuous
 62
     2
100
AcDbLine
 10
145.8516542509982
 20
-111.3199999999999
 30
0.0
 11
145.8516542509982
 21
-113.9199999999999
 31
0.0
  0
LINE
  5
226
102
{ACAD_REACTORS
330
32B
330
32B
102
}
330
5D
100
AcDbEntity
  8
1
  6
Continuous
 62
     2
100
AcDbLine
 10
141.9927287849846
 20
-115.9199999999999
 30
0.0
 11
142.5516542509982
 21
-115.9199999999999
 31
0.0
  0
LINE
  5
227
330
5D
100
AcDbEntity
  8
1
  6
Continuous
 62
     2
100
AcDbLine
 10
141.9927287849846
 20
-115.9199999999999
 30
0.0
 11
142.2516542509982
 21
-115.9199999999999
 31
0.0
  0
LINE
  5
228
102
{ACAD_REACTORS
330
32B
330
32B
102
}
330
5D
100
AcDbEntity
  8
1
  6
Continuous
 62
     2
100
AcDbLine
 10
141.9927287849846
 20
-114.7199999999999
 30
0.0
 11
143.7516542509982
 21
-114.7199999999999
 31
0.0
  0
LINE
  5
229
102
{ACAD_REACTORS
330
32B
330
32B
102
}
330
5D
100
AcDbEntity
  8
1
  6
Continuous
 62
     2
100
AcDbLine
 10
141.9927287849846
 20
-114.7199999999999
 30
0.0
 11
141.9927287849846
 21
-115.9199999999999
 31
0.0
  0
LINE
  5
22A
102
{ACAD_REACTORS
330
32B
330
32B
102
}
330
5D
100
AcDbEntity
  8
1
  6
Continuous
 62
     2
100
AcDbLine
 10
143.7516542509982
 20
-119.4199999999999
 30
0.0
 11
143.2516542509982
 21
-119.4199999999999
 31
0.0
  0
LINE
  5
22B
102
{ACAD_REACTORS
330
32B
330
32B
102
}
330
5D
100
AcDbEntity
  8
1
  6
Continuous
 62
     2
100
AcDbLine
 10
143.7516542509982
 20
-111.2199999999999
 30
0.0
 11
143.7516542509982
 21
-113.3199999999999
 31
0.0
  0
LINE
  5
22C
102
{ACAD_REACTORS
330
321
330
321
102
}
330
5D
100
AcDbEntity
  8
1
  6
Continuous
 62
     2
100
AcDbLine
 10
147.1516542509982
 20
-110.2199999999999
 30
0.0
 11
144.5516542509982
 21
-110.2199999999999
 31
0.0
  0
LINE
  5
22D
102
{ACAD_REACTORS
330
321
330
321
102
}
330
5D
100
AcDbEntity
  8
1
  6
Continuous
 62
     2
100
AcDbLine
 10
144.5516542509982
 20
-110.2199999999999
 30
0.0
 11
144.5516542509982
 21
-119.4199999999999
 31
0.0
  0
LINE
  5
22E
102
{ACAD_REACTORS
330
321
330
321
102
}
330
5D
100
AcDbEntity
  8
1
  6
Continuous
 62
     2
100
AcDbLine
 10
144.5516542509982
 20
-119.4199999999999
 30
0.0
 11
147.1516542509982
 21
-119.4199999999999
 31
0.0
  0
LINE
  5
22F
102
{ACAD_REACTORS
330
321
330
321
102
}
330
5D
100
AcDbEntity
  8
1
  6
Continuous
 62
     2
100
AcDbLine
 10
147.1516542509982
 20
-119.4199999999999
 30
0.0
 11
147.1516542509982
 21
-118.30758746051
 31
0.0
  0
LINE
  5
230
102
{ACAD_REACTORS
330
32B
330
32B
102
}
330
5D
100
AcDbEntity
  8
1
  6
Continuous
 62
     2
100
AcDbLine
 10
143.7516542509982
 20
-114.7199999999999
 30
0.0
 11
143.7516542509982
 21
-119.4199999999999
 31
0.0
  0
LINE
  5
231
102
{ACAD_REACTORS
330
32B
330
32B
102
}
330
5D
100
AcDbEntity
  8
1
  6
Continuous
 62
     2
100
AcDbLine
 10
143.2516542509982
 20
-119.4199999999999
 30
0.0
 11
142.9048783308657
 21
-118.8199999999999
 31
0.0
  0
LINE
  5
232
102
{ACAD_REACTORS
330
32B
330
32B
102
}
330
5D
100
AcDbEntity
  8
1
  6
Continuous
 62
     2
100
AcDbLine
 10
141.0516542509982
 20
-119.4199999999999
 30
0.0
 11
141.9016542509982
 21
-119.4199999999999
 31
0.0
  0
LINE
  5
233
102
{ACAD_REACTORS
330
324
330
324
102
}
330
5D
100
AcDbEntity
  8
1
  6
Continuous
 62
     2
100
AcDbLine
 10
148.9516542509982
 20
-110.2199999999999
 30
0.0
 11
150.6516542509982
 21
-110.2199999999999
 31
0.0
  0
LINE
  5
234
102
{ACAD_REACTORS
330
324
330
324
102
}
330
5D
100
AcDbEntity
  8
1
  6
Continuous
 62
     2
100
AcDbLine
 10
150.6516542509982
 20
-119.4199999999999
 30
0.0
 11
148.9516542509982
 21
-119.4199999999999
 31
0.0
  0
LINE
  5
235
102
{ACAD_REACTORS
330
324
330
324
102
}
330
5D
100
AcDbEntity
  8
1
  6
Continuous
 62
     2
100
AcDbLine
 10
147.9516542509982
 20
-111.2199999999999
 30
0.0
 11
147.9516542509982
 21
-118.4199999999999
 31
0.0
  0
LINE
  5
236
102
{ACAD_REACTORS
330
324
330
324
102
}
330
5D
100
AcDbEntity
  8
1
  6
Continuous
 62
     2
100
AcDbLine
 10
151.6516542509982
 20
-111.2199999999999
 30
0.0
 11
151.6516542509982
 21
-118.4199999999999
 31
0.0
  0
LINE
  5
237
102
{ACAD_REACTORS
330
329
330
329
102
}
330
5D
100
AcDbEntity
  8
1
  6
Continuous
 62
     2
100
AcDbLine
 10
152.4516542509982
 20
-110.2199999999999
 30
0.0
 11
152.4516542509982
 21
-119.4199999999999
 31
0.0
  0
LINE
  5
238
102
{ACAD_REACTORS
330
329
330
329
102
}
330
5D
100
AcDbEntity
  8
1
  6
Continuous
 62
     2
100
AcDbLine
 10
152.4516542509982
 20
-110.2199999999999
 30
0.0
 11
155.1516542509982
 21
-110.2199999999999
 31
0.0
  0
LINE
  5
239
102
{ACAD_REACTORS
330
329
330
329
102
}
330
5D
100
AcDbEntity
  8
1
  6
Continuous
 62
     2
100
AcDbLine
 10
156.1516542509982
 20
-114.0043621302671
 30
0.0
 11
156.1516542509982
 21
-111.2199999999999
 31
0.0
  0
LINE
  5
23A
102
{ACAD_REACTORS
330
329
330
329
102
}
330
5D
100
AcDbEntity
  8
1
  6
Continuous
 62
     2
100
AcDbLine
 10
156.1516542509982
 20
-115.6603414185126
 30
0.0
 11
156.1516542509982
 21
-119.4199999999999
 31
0.0
  0
LINE
  5
23B
102
{ACAD_REACTORS
330
32A
330
32A
102
}
330
5D
100
AcDbEntity
  8
1
  6
Continuous
 62
     2
100
AcDbLine
 10
157.9516542509982
 20
-110.2199999999999
 30
0.0
 11
159.6516542509982
 21
-110.2199999999999
 31
0.0
  0
LINE
  5
23C
102
{ACAD_REACTORS
330
32A
330
32A
102
}
330
5D
100
AcDbEntity
  8
1
  6
Continuous
 62
     2
100
AcDbLine
 10
160.6516542509982
 20
-119.4199999999999
 30
0.0
 11
160.6516542509982
 21
-114.7199999999999
 31
0.0
  0
LINE
  5
23D
102
{ACAD_REACTORS
330
32A
330
32A
102
}
330
5D
100
AcDbEntity
  8
1
  6
Continuous
 62
     2
100
AcDbLine
 10
160.6516542509982
 20
-113.3199999999999
 30
0.0
 11
159.4516542509982
 21
-113.3199999999999
 31
0.0
  0
LINE
  5
23E
102
{ACAD_REACTORS
330
32A
330
32A
102
}
330
5D
100
AcDbEntity
  8
1
  6
Continuous
 62
     2
100
AcDbLine
 10
160.6516542509982
 20
-113.3199999999999
 30
0.0
 11
160.6516542509983
 21
-111.2199999999999
 31
0.0
  0
LINE
  5
23F
102
{ACAD_REACTORS
330
323
330
323
102
}
330
5D
100
AcDbEntity
  8
1
  6
Continuous
 62
     2
100
AcDbLine
 10
168.6516542509982
 20
-110.2199999999999
 30
0.0
 11
169.8516542509982
 21
-110.2199999999999
 31
0.0
  0
LINE
  5
240
102
{ACAD_REACTORS
330
323
330
323
102
}
330
5D
100
AcDbEntity
  8
1
  6
Continuous
 62
     2
100
AcDbLine
 10
168.6516542509982
 20
-119.4199999999999
 30
0.0
 11
169.8516542509982
 21
-119.4199999999999
 31
0.0
  0
LINE
  5
241
102
{ACAD_REACTORS
330
323
330
323
102
}
330
5D
100
AcDbEntity
  8
1
  6
Continuous
 62
     2
100
AcDbLine
 10
168.6516542509982
 20
-119.4199999999999
 30
0.0
 11
168.6516542509982
 21
-110.2199999999999
 31
0.0
  0
LINE
  5
242
330
5D
100
AcDbEntity
  8
1
  6
Continuous
 62
     2
100
AcDbLine
 10
168.6516542509982
 20
-119.4199999999999
 30
0.0
 11
169.8516542509982
 21
-119.4199999999999
 31
0.0
  0
LINE
  5
243
102
{ACAD_REACTORS
330
327
330
327
102
}
330
5D
100
AcDbEntity
  8
1
  6
Continuous
 62
     2
100
AcDbLine
 10
174.1516542509982
 20
-110.2199999999999
 30
0.0
 11
175.8516542509982
 21
-110.2199999999999
 31
0.0
  0
LINE
  5
244
102
{ACAD_REACTORS
330
327
330
327
102
}
330
5D
100
AcDbEntity
  8
1
  6
Continuous
 62
     2
100
AcDbLine
 10
174.1516542509982
 20
-119.4199999999999
 30
0.0
 11
175.8516542509982
 21
-119.4199999999999
 31
0.0
  0
LINE
  5
245
102
{ACAD_REACTORS
330
326
330
326
102
}
330
5D
100
AcDbEntity
  8
1
  6
Continuous
 62
     2
100
AcDbLine
 10
177.6516542509982
 20
-110.2199999999999
 30
0.0
 11
177.6516542509982
 21
-119.4199999999999
 31
0.0
  0
LINE
  5
246
102
{ACAD_REACTORS
330
326
330
326
102
}
330
5D
100
AcDbEntity
  8
1
  6
Continuous
 62
     2
100
AcDbLine
 10
180.3516542509982
 20
-110.2199999999999
 30
0.0
 11
177.6516542509982
 21
-110.2199999999999
 31
0.0
  0
LINE
  5
247
102
{ACAD_REACTORS
330
326
330
326
102
}
330
5D
100
AcDbEntity
  8
1
  6
Continuous
 62
     2
100
AcDbLine
 10
177.6516542509982
 20
-119.4199999999999
 30
0.0
 11
180.3516542509982
 21
-119.4199999999999
 31
0.0
  0
LINE
  5
248
102
{ACAD_REACTORS
330
325
330
325
102
}
330
5D
100
AcDbEntity
  8
1
  6
Continuous
 62
     2
100
AcDbLine
 10
182.1516542509982
 20
-111.2199999999999
 30
0.0
 11
182.1516542509982
 21
-118.4199999999999
 31
0.0
  0
LINE
  5
249
102
{ACAD_REACTORS
330
325
330
325
102
}
330
5D
100
AcDbEntity
  8
1
  6
Continuous
 62
     2
100
AcDbLine
 10
183.1516542509982
 20
-119.4199999999999
 30
0.0
 11
184.8516542509982
 21
-119.4199999999999
 31
0.0
  0
LINE
  5
24A
102
{ACAD_REACTORS
330
325
330
325
102
}
330
5D
100
AcDbEntity
  8
1
  6
Continuous
 62
     2
100
AcDbLine
 10
185.8516542509982
 20
-111.2199999999999
 30
0.0
 11
185.8516542509982
 21
-118.4199999999999
 31
0.0
  0
LINE
  5
24B
102
{ACAD_REACTORS
330
325
330
325
102
}
330
5D
100
AcDbEntity
  8
1
  6
Continuous
 62
     2
100
AcDbLine
 10
183.1516542509982
 20
-110.2199999999999
 30
0.0
 11
184.8516542509982
 21
-110.2199999999999
 31
0.0
  0
LINE
  5
24C
102
{ACAD_REACTORS
330
322
330
322
102
}
330
5D
100
AcDbEntity
  8
1
  6
Continuous
 62
     2
100
AcDbLine
 10
186.6516542509982
 20
-110.2199999999999
 30
0.0
 11
186.6516542509982
 21
-119.4199999999999
 31
0.0
  0
LINE
  5
24D
102
{ACAD_REACTORS
330
322
330
322
102
}
330
5D
100
AcDbEntity
  8
1
  6
Continuous
 62
     2
100
AcDbLine
 10
186.6516542509982
 20
-119.4199999999999
 30
0.0
 11
189.2516542509982
 21
-119.4199999999999
 31
0.0
  0
LINE
  5
24E
102
{ACAD_REACTORS
330
322
330
322
102
}
330
5D
100
AcDbEntity
  8
1
  6
Continuous
 62
     2
100
AcDbLine
 10
189.2516542509982
 20
-119.4199999999999
 30
0.0
 11
189.2516542509982
 21
-118.30758746051
 31
0.0
  0
LINE
  5
24F
102
{ACAD_REACTORS
330
322
330
322
102
}
330
5D
100
AcDbEntity
  8
1
  6
Continuous
 62
     2
100
AcDbLine
 10
186.6516542509982
 20
-110.2199999999999
 30
0.0
 11
187.8516542509982
 21
-110.2199999999999
 31
0.0
  0
LINE
  5
250
102
{ACAD_REACTORS
330
328
330
328
102
}
330
5D
100
AcDbEntity
  8
1
  6
Continuous
 62
     2
100
AcDbLine
 10
190.0516542509982
 20
-119.4199999999999
 30
0.0
 11
190.0516542509982
 21
-110.2199999999999
 31
0.0
  0
LINE
  5
251
102
{ACAD_REACTORS
330
328
330
328
102
}
330
5D
100
AcDbEntity
  8
1
  6
Continuous
 62
     2
100
AcDbLine
 10
190.0516542509982
 20
-110.2199999999999
 30
0.0
 11
192.7516542509982
 21
-110.2199999999999
 31
0.0
  0
LINE
  5
252
102
{ACAD_REACTORS
330
327
330
327
102
}
330
5D
100
AcDbEntity
  8
1
  6
Continuous
 62
     2
100
AcDbLine
 10
176.8516542509982
 20
-111.2199999999999
 30
0.0
 11
176.8516542509982
 21
-118.4199999999999
 31
0.0
  0
LINE
  5
253
102
{ACAD_REACTORS
330
328
330
328
102
}
330
5D
100
AcDbEntity
  8
1
  6
Continuous
 62
     2
100
AcDbLine
 10
192.7516542509982
 20
-119.4199999999999
 30
0.0
 11
190.0516542509982
 21
-119.4199999999999
 31
0.0
  0
LINE
  5
254
102
{ACAD_REACTORS
330
328
330
328
102
}
330
5D
100
AcDbEntity
  8
1
  6
Continuous
 62
     2
100
AcDbLine
 10
193.7516542509982
 20
-111.2199999999999
 30
0.0
 11
193.7516542509982
 21
-118.4199999999999
 31
0.0
  0
LINE
  5
255
102
{ACAD_REACTORS
330
32A
330
32A
102
}
330
5D
100
AcDbEntity
  8
1
  6
Continuous
 62
     2
100
AcDbLine
 10
157.9516542509982
 20
-119.4199999999999
 30
0.0
 11
158.8173222162131
 21
-119.4199999999999
 31
0.0
  0
LINE
  5
256
102
{ACAD_REACTORS
330
32A
330
32A
102
}
330
5D
100
AcDbEntity
  8
1
  6
Continuous
 62
     2
100
AcDbLine
 10
156.9516542509982
 20
-118.4199999999999
 30
0.0
 11
156.9516542509982
 21
-111.2199999999999
 31
0.0
  0
LINE
  5
257
102
{ACAD_REACTORS
330
32B
330
32B
102
}
330
5D
100
AcDbEntity
  8
1
  6
Continuous
 62
     2
100
AcDbLine
 10
140.0516542509982
 20
-111.2199999999999
 30
0.0
 11
140.0516542509982
 21
-118.4199999999999
 31
0.0
  0
LINE
  5
258
102
{ACAD_REACTORS
330
32B
330
32B
102
}
330
5D
100
AcDbEntity
  8
1
  6
Continuous
 62
     2
100
AcDbLine
 10
141.0516542509982
 20
-110.2199999999999
 30
0.0
 11
142.7516542509982
 21
-110.2199999999999
 31
0.0
  0
LINE
  5
259
102
{ACAD_REACTORS
330
32A
330
32A
102
}
330
5D
100
AcDbEntity
  8
1
  6
Continuous
 62
     2
100
AcDbLine
 10
160.6516542509982
 20
-119.4199999999999
 30
0.0
 11
160.1516542509982
 21
-119.4199999999999
 31
0.0
  0
LINE
  5
25A
102
{ACAD_REACTORS
330
32A
330
32A
102
}
330
5D
100
AcDbEntity
  8
1
  6
Continuous
 62
     2
100
AcDbLine
 10
160.1516542509982
 20
-119.4199999999999
 30
0.0
 11
159.8046153744343
 21
-118.8199999999999
 31
0.0
  0
LINE
  5
25B
102
{ACAD_REACTORS
330
32A
330
32A
102
}
330
5D
100
AcDbEntity
  8
1
  6
Continuous
 62
     2
100
AcDbLine
 10
159.4516542509982
 20
-113.3199999999999
 30
0.0
 11
159.4516542509982
 21
-111.9699999999999
 31
0.0
  0
LINE
  5
25C
102
{ACAD_REACTORS
330
32A
330
32A
102
}
330
5D
100
AcDbEntity
  8
1
  6
Continuous
 62
     2
100
AcDbLine
 10
158.1516542509982
 20
-111.9699999999999
 30
0.0
 11
158.1516542509982
 21
-117.65758746051
 31
0.0
  0
LINE
  5
25D
102
{ACAD_REACTORS
330
32A
330
32A
102
}
330
5D
100
AcDbEntity
  8
1
  6
Continuous
 62
     2
100
AcDbLine
 10
159.4516542509982
 20
-117.65758746051
 30
0.0
 11
159.4516542509982
 21
-115.9199999999999
 31
0.0
  0
LINE
  5
25E
102
{ACAD_REACTORS
330
329
330
329
102
}
330
5D
100
AcDbEntity
  8
1
  6
Continuous
 62
     2
100
AcDbLine
 10
154.9516542509982
 20
-113.5699999999999
 30
0.0
 11
154.9516542509982
 21
-111.9699999999999
 31
0.0
  0
LINE
  5
25F
102
{ACAD_REACTORS
330
329
330
329
102
}
330
5D
100
AcDbEntity
  8
1
  6
Continuous
 62
     2
100
AcDbLine
 10
154.9516542509982
 20
-116.0699999999999
 30
0.0
 11
154.9516542509982
 21
-119.4199999999999
 31
0.0
  0
LINE
  5
260
102
{ACAD_REACTORS
330
329
330
329
102
}
330
5D
100
AcDbEntity
  8
1
  6
Continuous
 62
     2
100
AcDbLine
 10
154.9516542509982
 20
-119.4199999999999
 30
0.0
 11
156.1516542509982
 21
-119.4199999999999
 31
0.0
  0
LINE
  5
261
102
{ACAD_REACTORS
330
329
330
329
102
}
330
5D
100
AcDbEntity
  8
1
  6
Continuous
 62
     2
100
AcDbLine
 10
153.6516542509982
 20
-119.4199999999999
 30
0.0
 11
152.4516542509982
 21
-119.4199999999999
 31
0.0
  0
LINE
  5
262
102
{ACAD_REACTORS
330
31F
330
31F
102
}
330
5D
100
AcDbEntity
  8
1
  6
Continuous
 62
     2
100
AcDbLine
 10
161.4516542509982
 20
-110.2199999999999
 30
0.0
 11
162.6516542509982
 21
-110.2199999999999
 31
0.0
  0
LINE
  5
263
102
{ACAD_REACTORS
330
320
330
320
102
}
330
5D
100
AcDbEntity
  8
1
  6
Continuous
 62
     2
100
AcDbLine
 10
163.4516542509982
 20
-110.2199999999999
 30
0.0
 11
164.6516542509982
 21
-110.2199999999999
 31
0.0
  0
LINE
  5
264
102
{ACAD_REACTORS
330
31F
330
31F
102
}
330
5D
100
AcDbEntity
  8
1
  6
Continuous
 62
     2
100
AcDbLine
 10
161.4516542509982
 20
-119.4199999999999
 30
0.0
 11
162.6516542509982
 21
-119.4199999999999
 31
0.0
  0
LINE
  5
265
102
{ACAD_REACTORS
330
320
330
320
102
}
330
5D
100
AcDbEntity
  8
1
  6
Continuous
 62
     2
100
AcDbLine
 10
164.6516542509982
 20
-119.4199999999999
 30
0.0
 11
164.6516542509982
 21
-110.2199999999999
 31
0.0
  0
LINE
  5
266
102
{ACAD_REACTORS
330
320
330
320
102
}
330
5D
100
AcDbEntity
  8
1
  6
Continuous
 62
     2
100
AcDbLine
 10
163.4516542509982
 20
-110.2199999999999
 30
0.0
 11
163.4516542509982
 21
-119.4199999999999
 31
0.0
  0
LINE
  5
267
102
{ACAD_REACTORS
330
31F
330
31F
102
}
330
5D
100
AcDbEntity
  8
1
  6
Continuous
 62
     2
100
AcDbLine
 10
162.6516542509982
 20
-119.4199999999999
 30
0.0
 11
162.6516542509982
 21
-110.2199999999999
 31
0.0
  0
LINE
  5
268
102
{ACAD_REACTORS
330
31F
330
31F
102
}
330
5D
100
AcDbEntity
  8
1
  6
Continuous
 62
     2
100
AcDbLine
 10
161.4516542509982
 20
-110.2199999999999
 30
0.0
 11
161.4516542509982
 21
-119.4199999999999
 31
0.0
  0
LINE
  5
269
102
{ACAD_REACTORS
330
32A
330
32A
102
}
330
5D
100
AcDbEntity
  8
1
  6
Continuous
 62
     2
100
AcDbLine
 10
158.9016542509982
 20
-114.7199999999999
 30
0.0
 11
159.7415058473918
 21
-114.7199999999999
 31
0.0
  0
LINE
  5
26A
102
{ACAD_REACTORS
330
32A
330
32A
102
}
330
5D
100
AcDbEntity
  8
1
  6
Continuous
 62
     2
100
AcDbLine
 10
158.9016542509982
 20
-114.7199999999999
 30
0.0
 11
158.9016542509982
 21
-115.9199999999999
 31
0.0
  0
LINE
  5
26B
102
{ACAD_REACTORS
330
32A
330
32A
102
}
330
5D
100
AcDbEntity
  8
1
  6
Continuous
 62
     2
100
AcDbLine
 10
158.9016542509982
 20
-115.9199999999999
 30
0.0
 11
159.4516542509982
 21
-115.9199999999999
 31
0.0
  0
LINE
  5
26C
102
{ACAD_REACTORS
330
320
330
320
102
}
330
5D
100
AcDbEntity
  8
1
  6
Continuous
 62
     2
100
AcDbLine
 10
163.4516542509982
 20
-119.4199999999999
 30
0.0
 11
164.6516542509982
 21
-119.4199999999999
 31
0.0
  0
LINE
  5
26D
102
{ACAD_REACTORS
330
321
330
321
102
}
330
5D
100
AcDbEntity
  8
1
  6
Continuous
 62
     2
100
AcDbLine
 10
145.8516542509982
 20
-111.3199999999999
 30
0.0
 11
147.1516542509982
 21
-111.3199999999999
 31
0.0
  0
LINE
  5
26E
102
{ACAD_REACTORS
330
321
330
321
102
}
330
5D
100
AcDbEntity
  8
1
  6
Continuous
 62
     2
100
AcDbLine
 10
147.1516542509982
 20
-111.3199999999999
 30
0.0
 11
147.1516542509982
 21
-110.2199999999999
 31
0.0
  0
LINE
  5
26F
102
{ACAD_REACTORS
330
324
330
324
102
}
330
5D
100
AcDbEntity
  8
1
  6
Continuous
 62
     2
100
AcDbLine
 10
150.4516542509982
 20
-111.9699999999999
 30
0.0
 11
150.4516542509982
 21
-117.65758746051
 31
0.0
  0
LINE
  5
270
102
{ACAD_REACTORS
330
324
330
324
102
}
330
5D
100
AcDbEntity
  8
1
  6
Continuous
 62
     2
100
AcDbLine
 10
149.1516542509982
 20
-111.9699999999999
 30
0.0
 11
149.1516542509982
 21
-117.65758746051
 31
0.0
  0
LINE
  5
271
102
{ACAD_REACTORS
330
32B
330
32B
102
}
330
5D
100
AcDbEntity
  8
1
  6
Continuous
 62
     2
100
AcDbLine
 10
142.5516542509982
 20
-117.65758746051
 30
0.0
 11
142.5516542509982
 21
-115.9199999999999
 31
0.0
  0
LINE
  5
272
102
{ACAD_REACTORS
330
32B
330
32B
102
}
330
5D
100
AcDbEntity
  8
1
  6
Continuous
 62
     2
100
AcDbLine
 10
141.2516542509982
 20
-117.65758746051
 30
0.0
 11
141.2516542509982
 21
-111.9699999999999
 31
0.0
  0
LINE
  5
273
102
{ACAD_REACTORS
330
32B
330
32B
102
}
330
5D
100
AcDbEntity
  8
1
  6
Continuous
 62
     2
100
AcDbLine
 10
142.5516542509982
 20
-111.9699999999999
 30
0.0
 11
142.5516542509982
 21
-113.3199999999999
 31
0.0
  0
LINE
  5
274
102
{ACAD_REACTORS
330
32B
330
32B
102
}
330
5D
100
AcDbEntity
  8
1
  6
Continuous
 62
     2
100
AcDbLine
 10
142.5516542509982
 20
-113.3199999999999
 30
0.0
 11
143.7516542509982
 21
-113.3199999999999
 31
0.0
  0
LINE
  5
275
102
{ACAD_REACTORS
330
329
330
329
102
}
330
5D
100
AcDbEntity
  8
1
  6
Continuous
 62
     2
100
AcDbLine
 10
153.6516542509982
 20
-111.3199999999999
 30
0.0
 11
154.3016542509982
 21
-111.3199999999999
 31
0.0
  0
LINE
  5
276
102
{ACAD_REACTORS
330
329
330
329
102
}
330
5D
100
AcDbEntity
  8
1
  6
Continuous
 62
     2
100
AcDbLine
 10
153.6516542509982
 20
-111.3199999999999
 30
0.0
 11
153.6516542509982
 21
-114.2199999999999
 31
0.0
  0
LINE
  5
277
102
{ACAD_REACTORS
330
329
330
329
102
}
330
5D
100
AcDbEntity
  8
1
  6
Continuous
 62
     2
100
AcDbLine
 10
153.6516542509982
 20
-114.2199999999999
 30
0.0
 11
154.3016542509982
 21
-114.2199999999999
 31
0.0
  0
LINE
  5
278
102
{ACAD_REACTORS
330
329
330
329
102
}
330
5D
100
AcDbEntity
  8
1
  6
Continuous
 62
     2
100
AcDbLine
 10
154.3016542509982
 20
-115.4199999999999
 30
0.0
 11
153.6516542509982
 21
-115.4199999999999
 31
0.0
  0
LINE
  5
279
102
{ACAD_REACTORS
330
329
330
329
102
}
330
5D
100
AcDbEntity
  8
1
  6
Continuous
 62
     2
100
AcDbLine
 10
153.6516542509982
 20
-115.4199999999999
 30
0.0
 11
153.6516542509982
 21
-119.4199999999999
 31
0.0
  0
LINE
  5
27A
330
5D
100
AcDbEntity
  8
1
  6
Continuous
 62
     2
100
AcDbLine
 10
158.9016542509982
 20
-114.7199999999999
 30
0.0
 11
159.7415058473918
 21
-114.7199999999999
 31
0.0
  0
LINE
  5
27B
102
{ACAD_REACTORS
330
32A
330
32A
102
}
330
5D
100
AcDbEntity
  8
1
  6
Continuous
 62
     2
100
AcDbLine
 10
159.7415058473918
 20
-114.7199999999999
 30
0.0
 11
160.6516542509982
 21
-114.7199999999999
 31
0.0
  0
LINE
  5
27C
102
{ACAD_REACTORS
330
327
330
327
102
}
330
5D
100
AcDbEntity
  8
1
  6
Continuous
 62
     2
100
AcDbLine
 10
175.6516542509982
 20
-111.9699999999999
 30
0.0
 11
175.6516542509982
 21
-117.65758746051
 31
0.0
  0
LINE
  5
27D
102
{ACAD_REACTORS
330
327
330
327
102
}
330
5D
100
AcDbEntity
  8
1
  6
Continuous
 62
     2
100
AcDbLine
 10
174.3516542509982
 20
-117.65758746051
 30
0.0
 11
174.3516542509982
 21
-111.9699999999999
 31
0.0
  0
LINE
  5
27E
102
{ACAD_REACTORS
330
326
330
326
102
}
330
5D
100
AcDbEntity
  8
1
  6
Continuous
 62
     2
100
AcDbLine
 10
178.8516542509982
 20
-111.3199999999999
 30
0.0
 11
179.5016542509982
 21
-111.3199999999999
 31
0.0
  0
LINE
  5
27F
102
{ACAD_REACTORS
330
326
330
326
102
}
330
5D
100
AcDbEntity
  8
1
  6
Continuous
 62
     2
100
AcDbLine
 10
180.1516542509982
 20
-111.9699999999999
 30
0.0
 11
180.1516542509982
 21
-113.2699999999999
 31
0.0
  0
LINE
  5
280
102
{ACAD_REACTORS
330
326
330
326
102
}
330
5D
100
AcDbEntity
  8
1
  6
Continuous
 62
     2
100
AcDbLine
 10
179.5016542509982
 20
-113.9199999999999
 30
0.0
 11
178.8516542509982
 21
-113.9199999999999
 31
0.0
  0
LINE
  5
281
102
{ACAD_REACTORS
330
326
330
326
102
}
330
5D
100
AcDbEntity
  8
1
  6
Continuous
 62
     2
100
AcDbLine
 10
178.8516542509982
 20
-115.0199999999999
 30
0.0
 11
178.8516542509982
 21
-118.30758746051
 31
0.0
  0
LINE
  5
282
102
{ACAD_REACTORS
330
326
330
326
102
}
330
5D
100
AcDbEntity
  8
1
  6
Continuous
 62
     2
100
AcDbLine
 10
178.8516542509982
 20
-118.30758746051
 30
0.0
 11
179.5016542509982
 21
-118.30758746051
 31
0.0
  0
LINE
  5
283
102
{ACAD_REACTORS
330
326
330
326
102
}
330
5D
100
AcDbEntity
  8
1
  6
Continuous
 62
     2
100
AcDbLine
 10
180.1516542509982
 20
-117.65758746051
 30
0.0
 11
180.1516542509982
 21
-115.6699999999999
 31
0.0
  0
LINE
  5
284
102
{ACAD_REACTORS
330
326
330
326
102
}
330
5D
100
AcDbEntity
  8
1
  6
Continuous
 62
     2
100
AcDbLine
 10
178.8516542509982
 20
-111.3199999999999
 30
0.0
 11
178.8516542509982
 21
-113.9199999999999
 31
0.0
  0
LINE
  5
285
102
{ACAD_REACTORS
330
326
330
326
102
}
330
5D
100
AcDbEntity
  8
1
  6
Continuous
 62
     2
100
AcDbLine
 10
178.8516542509982
 20
-115.0199999999999
 30
0.0
 11
179.5016542509982
 21
-115.0199999999999
 31
0.0
  0
LINE
  5
286
102
{ACAD_REACTORS
330
325
330
325
102
}
330
5D
100
AcDbEntity
  8
1
  6
Continuous
 62
     2
100
AcDbLine
 10
184.6516542509982
 20
-111.9699999999999
 30
0.0
 11
184.6516542509982
 21
-117.65758746051
 31
0.0
  0
LINE
  5
287
102
{ACAD_REACTORS
330
325
330
325
102
}
330
5D
100
AcDbEntity
  8
1
  6
Continuous
 62
     2
100
AcDbLine
 10
183.3516542509982
 20
-117.65758746051
 30
0.0
 11
183.3516542509982
 21
-111.9699999999999
 31
0.0
  0
LINE
  5
288
102
{ACAD_REACTORS
330
328
330
328
102
}
330
5D
100
AcDbEntity
  8
1
  6
Continuous
 62
     2
100
AcDbLine
 10
192.5516542509982
 20
-111.9699999999999
 30
0.0
 11
192.5516542509982
 21
-117.65758746051
 31
0.0
  0
LINE
  5
289
102
{ACAD_REACTORS
330
328
330
328
102
}
330
5D
100
AcDbEntity
  8
1
  6
Continuous
 62
     2
100
AcDbLine
 10
191.9016542509982
 20
-118.30758746051
 30
0.0
 11
191.2516542509982
 21
-118.30758746051
 31
0.0
  0
LINE
  5
28A
102
{ACAD_REACTORS
330
328
330
328
102
}
330
5D
100
AcDbEntity
  8
1
  6
Continuous
 62
     2
100
AcDbLine
 10
191.2516542509982
 20
-118.30758746051
 30
0.0
 11
191.2516542509982
 21
-111.9699999999999
 31
0.0
  0
LINE
  5
28B
102
{ACAD_REACTORS
330
322
330
322
102
}
330
5D
100
AcDbEntity
  8
1
  6
Continuous
 62
     2
100
AcDbLine
 10
187.8516542509982
 20
-110.2199999999999
 30
0.0
 11
187.8516542509982
 21
-118.30758746051
 31
0.0
  0
LINE
  5
28C
102
{ACAD_REACTORS
330
322
330
322
102
}
330
5D
100
AcDbEntity
  8
1
  6
Continuous
 62
     2
100
AcDbLine
 10
187.8516542509982
 20
-118.30758746051
 30
0.0
 11
189.2516542509982
 21
-118.30758746051
 31
0.0
  0
LINE
  5
28D
102
{ACAD_REACTORS
330
328
330
328
102
}
330
5D
100
AcDbEntity
  8
1
  6
Continuous
 62
     2
100
AcDbLine
 10
191.2516542509982
 20
-111.3199999999999
 30
0.0
 11
191.9016542509982
 21
-111.3199999999999
 31
0.0
  0
LINE
  5
28E
102
{ACAD_REACTORS
330
328
330
328
102
}
330
5D
100
AcDbEntity
  8
1
  6
Continuous
 62
     2
100
AcDbLine
 10
191.2516542509982
 20
-111.3199999999999
 30
0.0
 11
191.2516542509982
 21
-111.9699999999999
 31
0.0
  0
LINE
  5
28F
102
{ACAD_REACTORS
330
326
330
326
102
}
330
5D
100
AcDbEntity
  8
1
  6
Continuous
 62
     2
100
AcDbLine
 10
181.3516542509982
 20
-113.8199999999999
 30
0.0
 11
181.3516542509982
 21
-111.2199999999999
 31
0.0
  0
LINE
  5
290
102
{ACAD_REACTORS
330
326
330
326
102
}
330
5D
100
AcDbEntity
  8
1
  6
Continuous
 62
     2
100
AcDbLine
 10
181.3516542509982
 20
-115.1199999999999
 30
0.0
 11
181.3516542509982
 21
-118.4199999999999
 31
0.0
  0
LINE
  5
291
102
{ACAD_REACTORS
330
323
330
323
102
}
330
5D
100
AcDbEntity
  8
1
  6
Continuous
 62
     2
100
AcDbLine
 10
172.3516542509982
 20
-110.2199999999999
 30
0.0
 11
170.9200628688759
 21
-114.4699999999999
 31
0.0
  0
LINE
  5
292
102
{ACAD_REACTORS
330
323
330
323
102
}
330
5D
100
AcDbEntity
  8
1
  6
Continuous
 62
     2
100
AcDbLine
 10
170.9200628688759
 20
-114.4699999999999
 30
0.0
 11
172.3516542509982
 21
-119.4199999999999
 31
0.0
  0
LINE
  5
293
102
{ACAD_REACTORS
330
323
330
323
102
}
330
5D
100
AcDbEntity
  8
1
  6
Continuous
 62
     2
100
AcDbLine
 10
171.0854042804337
 20
-110.2199999999999
 30
0.0
 11
172.3516542509982
 21
-110.2199999999999
 31
0.0
  0
LINE
  5
294
102
{ACAD_REACTORS
330
323
330
323
102
}
330
5D
100
AcDbEntity
  8
1
  6
Continuous
 62
     2
100
AcDbLine
 10
171.1024763583806
 20
-119.4199999999999
 30
0.0
 11
172.3516542509982
 21
-119.4199999999999
 31
0.0
  0
LINE
  5
295
102
{ACAD_REACTORS
330
323
330
323
102
}
330
5D
100
AcDbEntity
  8
1
  6
Continuous
 62
     2
100
AcDbLine
 10
171.0854042804337
 20
-110.2199999999999
 30
0.0
 11
169.8516542509982
 21
-113.8826635858394
 31
0.0
  0
LINE
  5
296
102
{ACAD_REACTORS
330
323
330
323
102
}
330
5D
100
AcDbEntity
  8
1
  6
Continuous
 62
     2
100
AcDbLine
 10
169.8516542509982
 20
-115.0950442138285
 30
0.0
 11
171.1024763583806
 21
-119.4199999999999
 31
0.0
  0
LINE
  5
297
102
{ACAD_REACTORS
330
323
330
323
102
}
330
5D
100
AcDbEntity
  8
1
  6
Continuous
 62
     2
100
AcDbLine
 10
169.8516542509982
 20
-110.2199999999999
 30
0.0
 11
169.8516542509982
 21
-113.8826635858394
 31
0.0
  0
LINE
  5
298
102
{ACAD_REACTORS
330
323
330
323
102
}
330
5D
100
AcDbEntity
  8
1
  6
Continuous
 62
     2
100
AcDbLine
 10
169.8516542509982
 20
-115.0950442138285
 30
0.0
 11
169.8516542509982
 21
-119.4199999999999
 31
0.0
  0
LINE
  5
299
102
{ACAD_REACTORS
330
327
330
327
102
}
330
5D
100
AcDbEntity
  8
1
  6
Continuous
 62
     2
100
AcDbLine
 10
173.1516542509982
 20
-118.4199999999999
 30
0.0
 11
173.1516542509982
 21
-111.2199999999999
 31
0.0
  0
LINE
  5
29A
330
5D
100
AcDbEntity
  8
1
  6
Continuous
 62
     2
100
AcDbLine
 10
55.13999999999851
 20
-108.6599999999999
 30
0.0
 11
55.13999999999851
 21
-125.5799999999999
 31
0.0
  0
LINE
  5
29B
330
5D
100
AcDbEntity
  8
1
  6
Continuous
 62
     7
100
AcDbLine
 10
102.1300000000001
 20
-87.51000000000022
 30
0.0
 11
102.1300000000001
 21
-108.6599999999999
 31
0.0
  0
LINE
  5
29C
330
5D
100
AcDbEntity
  8
1
  6
Continuous
 62
     2
100
AcDbLine
 10
67.83999999999912
 20
-87.51000000000022
 30
0.0
 11
67.83999999999912
 21
-108.6599999999999
 31
0.0
  0
LINE
  5
29D
330
5D
100
AcDbEntity
  8
1
  6
Continuous
 62
     2
100
AcDbLine
 10
60.21999999999832
 20
-87.51000000000022
 30
0.0
 11
60.21999999999832
 21
-108.6599999999999
 31
0.0
  0
LINE
  5
29E
330
5D
100
AcDbEntity
  8
1
  6
Continuous
 62
     7
100
AcDbLine
 10
22.11999999999898
 20
-108.6599999999999
 30
0.0
 11
205.0
 21
-108.6599999999999
 31
0.0
  0
LINE
  5
29F
330
5D
100
AcDbEntity
  8
1
  6
Continuous
 62
     2
100
AcDbLine
 10
42.43999999999869
 20
-87.51000000000022
 30
0.0
 11
42.43999999999869
 21
-108.6599999999999
 31
0.0
  0
LINE
  5
2A0
330
5D
100
AcDbEntity
  8
1
  6
Continuous
 62
     2
100
AcDbLine
 10
27.19999999999891
 20
-87.51000000000022
 30
0.0
 11
27.19999999999891
 21
-108.6599999999999
 31
0.0
  0
LINE
  5
2A1
330
5D
100
AcDbEntity
  8
1
  6
Continuous
 62
     2
100
AcDbLine
 10
75.45999999999992
 20
-117.1200000000008
 30
0.0
 11
22.11999999999898
 21
-117.1200000000008
 31
0.0
  0
LINE
  5
2A2
330
5D
100
AcDbEntity
  8
1
  6
Continuous
 62
     7
100
AcDbLine
 10
75.45999999999992
 20
-108.6599999999999
 30
0.0
 11
75.45999999999992
 21
-125.5799999999999
 31
0.0
  0
LINE
  5
2A3
330
5D
100
AcDbEntity
  8
1
  6
Continuous
 62
     7
100
AcDbLine
 10
75.45999999999992
 20
-87.51000000000022
 30
0.0
 11
75.45999999999992
 21
-108.6599999999999
 31
0.0
  0
LINE
  5
2A4
330
5D
100
AcDbEntity
  8
1
  6
Continuous
 62
     7
100
AcDbLine
 10
22.11999999999898
 20
-87.51000000000022
 30
0.0
 11
205.0
 21
-87.51000000000022
 31
0.0
  0
LINE
  5
2A5
330
5D
100
AcDbEntity
  8
1
  6
Continuous
 62
     2
100
AcDbLine
 10
22.11999999999898
 20
-121.3500000000004
 30
0.0
 11
75.45999999999992
 21
-121.3500000000004
 31
0.0
  0
LINE
  5
2A6
330
5D
100
AcDbEntity
  8
1
  6
Continuous
 62
     2
100
AcDbLine
 10
22.11999999999898
 20
-112.8899999999994
 30
0.0
 11
75.45999999999992
 21
-112.8899999999994
 31
0.0
  0
LINE
  5
2A7
330
5D
100
AcDbEntity
  8
1
  6
Continuous
 62
     2
100
AcDbLine
 10
37.35999999999888
 20
-108.6599999999999
 30
0.0
 11
37.35999999999888
 21
-125.5799999999999
 31
0.0
  0
LINE
  5
2A8
330
5D
100
AcDbEntity
  8
1
  6
Continuous
 62
     2
100
AcDbLine
 10
22.11999999999898
 20
-104.4300000000003
 30
0.0
 11
75.45999999999992
 21
-104.4300000000003
 31
0.0
  0
LINE
  5
2A9
330
5D
100
AcDbEntity
  8
1
  6
Continuous
 62
     2
100
AcDbLine
 10
22.11999999999898
 20
-95.97000000000116
 30
0.0
 11
75.45999999999992
 21
-95.97000000000116
 31
0.0
  0
LINE
  5
2AA
330
5D
100
AcDbEntity
  8
1
  6
Continuous
 62
     2
100
AcDbLine
 10
22.11999999999898
 20
-91.73999999999978
 30
0.0
 11
75.45999999999992
 21
-91.73999999999978
 31
0.0
  0
LINE
  5
2AB
330
5D
100
AcDbEntity
  8
1
  6
Continuous
 62
     7
100
AcDbLine
 10
192.3000000000002
 20
-125.5799999999999
 30
0.0
 11
192.3000000000002
 21
-138.2700000000004
 31
0.0
  0
LINE
  5
2AC
330
5D
100
AcDbEntity
  8
1
  6
Continuous
 62
     7
100
AcDbLine
 10
192.3000000000002
 20
-134.0400000000009
 30
0.0
 11
205.0
 21
-134.0400000000009
 31
0.0
  0
LINE
  5
2AD
330
5D
100
AcDbEntity
  8
1
  6
Continuous
 62
     7
100
AcDbLine
 10
128.8000000000002
 20
-138.2700000000004
 30
0.0
 11
205.0
 21
-138.2700000000004
 31
0.0
  0
LINE
  5
2AE
330
5D
100
AcDbEntity
  8
1
  6
Continuous
 62
     7
100
AcDbLine
 10
166.8999999999996
 20
-87.51000000000022
 30
0.0
 11
166.8999999999996
 21
-91.73999999999978
 31
0.0
  0
LINE
  5
2AF
330
5D
100
AcDbEntity
  8
1
  6
Continuous
 62
     7
100
AcDbLine
 10
128.8000000000002
 20
-91.73999999999978
 30
0.0
 11
205.0
 21
-91.73999999999978
 31
0.0
  0
LINE
  5
2B0
330
5D
100
AcDbEntity
  8
1
  6
Continuous
 62
     7
100
AcDbLine
 10
128.8000000000002
 20
-87.51000000000022
 30
0.0
 11
128.8000000000002
 21
-142.5
 31
0.0
  0
LINE
  5
2B1
330
5D
100
AcDbEntity
  8
1
  6
Continuous
 62
     7
100
AcDbLine
 10
37.35999999999888
 20
-125.5799999999999
 30
0.0
 11
37.35999999999888
 21
-142.5
 31
0.0
  0
LINE
  5
2B2
330
5D
100
AcDbEntity
  8
1
  6
Continuous
 62
     7
100
AcDbLine
 10
205.0
 20
-125.5799999999999
 30
0.0
 11
22.11999999999898
 21
-125.5799999999999
 31
0.0
  0
LINE
  5
2B3
330
5D
100
AcDbEntity
  8
1
  6
Continuous
 62
     2
100
AcDbLine
 10
75.45999999999992
 20
-100.2000000000007
 30
0.0
 11
22.11999999999898
 21
-100.2000000000007
 31
0.0
  0
LINE
  5
2B4
330
5D
100
AcDbEntity
  8
1
  6
Continuous
 62
     7
100
AcDbLine
 10
22.11999999999898
 20
-142.5
 30
0.0
 11
22.11999999999898
 21
-87.51000000000022
 31
0.0
  0
LINE
  5
2B5
330
5D
100
AcDbEntity
  8
1
  6
Continuous
 62
     7
100
AcDbLine
 10
-187.880000000001
 20
-142.5
 30
0.0
 11
205.0
 21
-142.5
 31
0.0
  0
LINE
  5
2B6
330
5D
100
AcDbEntity
  8
1
  6
Continuous
 62
     7
100
AcDbLine
 10
205.0
 20
-142.5
 30
0.0
 11
205.0
 21
142.0
 31
0.0
  0
LINE
  5
2B7
330
5D
100
AcDbEntity
  8
1
  6
Continuous
 62
     7
100
AcDbLine
 10
205.0
 20
142.0
 30
0.0
 11
-187.880000000001
 21
142.0
 31
0.0
  0
LINE
  5
2B8
330
5D
100
AcDbEntity
  8
1
  6
Continuous
 62
     7
100
AcDbLine
 10
-187.880000000001
 20
142.0
 30
0.0
 11
-187.880000000001
 21
-142.5
 31
0.0
  0
LINE
  5
2B9
330
5D
100
AcDbEntity
  8
0
  6
Continuous
 62
     2
100
AcDbLine
 10
-198.880000000001
 20
0.00000000000001
 30
0.0
 11
-187.880000000001
 21
0.00000000000001
 31
0.0
  0
ARC
  5
2BA
102
{ACAD_REACTORS
330
32B
330
32B
102
}
330
5D
100
AcDbEntity
  8
1
  6
Continuous
 62
     2
100
AcDbCircle
 10
141.9264261003899
 20
-118.3227040643326
 30
0.0
 40
1.097575516743276
100
AcDbArc
 50
-91.2932531058712
 51
-26.94184191294435
  0
ARC
  5
2BB
102
{ACAD_REACTORS
330
329
330
329
102
}
330
5D
100
AcDbEntity
  8
1
  6
Continuous
 62
     2
100
AcDbCircle
 10
155.3000342667233
 20
-113.9710002560295
 30
0.0
 40
0.8522732028340286
100
AcDbArc
 50
-84.9766809757147
 51
-2.24339224114474
  0
ARC
  5
2BC
102
{ACAD_REACTORS
330
329
330
329
102
}
330
5D
100
AcDbEntity
  8
1
  6
Continuous
 62
     2
100
AcDbCircle
 10
155.3161055621215
 20
-115.6535223168009
 30
0.0
 40
0.8355765145285912
100
AcDbArc
 50
-0.46759342609272
 51
85.98158622994607
  0
ARC
  5
2BD
102
{ACAD_REACTORS
330
32A
330
32A
102
}
330
5D
100
AcDbEntity
  8
1
  6
Continuous
 62
     2
100
AcDbCircle
 10
158.8327793484388
 20
-118.3331447179281
 30
0.0
 40
1.086965191302833
100
AcDbArc
 50
-90.8147991292736
 51
-26.60924039545096
  0
ARC
  5
2BE
102
{ACAD_REACTORS
330
326
330
326
102
}
330
5D
100
AcDbEntity
  8
1
  6
Continuous
 62
     2
100
AcDbCircle
 10
180.7016542509982
 20
-113.8199999999999
 30
0.0
 40
0.6500000000000057
100
AcDbArc
 50
-90.0
 51
0.0
  0
ARC
  5
2BF
102
{ACAD_REACTORS
330
326
330
326
102
}
330
5D
100
AcDbEntity
  8
1
  6
Continuous
 62
     2
100
AcDbCircle
 10
180.7016542509982
 20
-115.1199999999999
 30
0.0
 40
0.6500000000000057
100
AcDbArc
 50
0.0
 51
90.0
  0
ARC
  5
2C0
102
{ACAD_REACTORS
330
32B
330
32B
102
}
330
5D
100
AcDbEntity
  8
1
  6
Continuous
 62
     2
100
AcDbCircle
 10
142.7516542509982
 20
-111.2199999999999
 30
0.0
 40
1.0
100
AcDbArc
 50
0.0
 51
90.0
  0
ARC
  5
2C1
102
{ACAD_REACTORS
330
32B
330
32B
102
}
330
5D
100
AcDbEntity
  8
1
  6
Continuous
 62
     2
100
AcDbCircle
 10
141.0516542509982
 20
-118.4199999999999
 30
0.0
 40
1.0
100
AcDbArc
 50
180.0
 51
-90.0
  0
ARC
  5
2C2
102
{ACAD_REACTORS
330
324
330
324
102
}
330
5D
100
AcDbEntity
  8
1
  6
Continuous
 62
     2
100
AcDbCircle
 10
148.9516542509982
 20
-111.2199999999999
 30
0.0
 40
1.0
100
AcDbArc
 50
90.0
 51
180.0
  0
ARC
  5
2C3
102
{ACAD_REACTORS
330
324
330
324
102
}
330
5D
100
AcDbEntity
  8
1
  6
Continuous
 62
     2
100
AcDbCircle
 10
150.6516542509982
 20
-111.2199999999999
 30
0.0
 40
1.0
100
AcDbArc
 50
0.0
 51
90.0
  0
ARC
  5
2C4
102
{ACAD_REACTORS
330
324
330
324
102
}
330
5D
100
AcDbEntity
  8
1
  6
Continuous
 62
     2
100
AcDbCircle
 10
148.9516542509982
 20
-118.4199999999999
 30
0.0
 40
1.0
100
AcDbArc
 50
180.0
 51
-90.0
  0
ARC
  5
2C5
102
{ACAD_REACTORS
330
324
330
324
102
}
330
5D
100
AcDbEntity
  8
1
  6
Continuous
 62
     2
100
AcDbCircle
 10
150.6516542509982
 20
-118.4199999999999
 30
0.0
 40
1.0
100
AcDbArc
 50
-90.0
 51
0.0
  0
ARC
  5
2C6
102
{ACAD_REACTORS
330
329
330
329
102
}
330
5D
100
AcDbEntity
  8
1
  6
Continuous
 62
     2
100
AcDbCircle
 10
155.1516542509982
 20
-111.2199999999999
 30
0.0
 40
1.0
100
AcDbArc
 50
0.0
 51
90.0
  0
ARC
  5
2C7
102
{ACAD_REACTORS
330
32A
330
32A
102
}
330
5D
100
AcDbEntity
  8
1
  6
Continuous
 62
     2
100
AcDbCircle
 10
157.9516542509982
 20
-111.2199999999999
 30
0.0
 40
1.0
100
AcDbArc
 50
90.0
 51
180.0
  0
ARC
  5
2C8
102
{ACAD_REACTORS
330
32A
330
32A
102
}
330
5D
100
AcDbEntity
  8
1
  6
Continuous
 62
     2
100
AcDbCircle
 10
159.6516542509982
 20
-111.2199999999999
 30
0.0
 40
1.000000000000085
100
AcDbArc
 50
0.0
 51
90.0
  0
ARC
  5
2C9
102
{ACAD_REACTORS
330
327
330
327
102
}
330
5D
100
AcDbEntity
  8
1
  6
Continuous
 62
     2
100
AcDbCircle
 10
174.1516542509982
 20
-111.2199999999999
 30
0.0
 40
1.0
100
AcDbArc
 50
90.0
 51
180.0
  0
ARC
  5
2CA
102
{ACAD_REACTORS
330
327
330
327
102
}
330
5D
100
AcDbEntity
  8
1
  6
Continuous
 62
     2
100
AcDbCircle
 10
175.8516542509982
 20
-111.2199999999999
 30
0.0
 40
1.0
100
AcDbArc
 50
0.0
 51
90.0
  0
ARC
  5
2CB
102
{ACAD_REACTORS
330
326
330
326
102
}
330
5D
100
AcDbEntity
  8
1
  6
Continuous
 62
     2
100
AcDbCircle
 10
180.3516542509982
 20
-111.2199999999999
 30
0.0
 40
1.0
100
AcDbArc
 50
0.0
 51
90.0
  0
ARC
  5
2CC
102
{ACAD_REACTORS
330
325
330
325
102
}
330
5D
100
AcDbEntity
  8
1
  6
Continuous
 62
     2
100
AcDbCircle
 10
184.8516542509982
 20
-111.2199999999999
 30
0.0
 40
1.0
100
AcDbArc
 50
0.0
 51
90.0
  0
ARC
  5
2CD
102
{ACAD_REACTORS
330
325
330
325
102
}
330
5D
100
AcDbEntity
  8
1
  6
Continuous
 62
     2
100
AcDbCircle
 10
183.1516542509982
 20
-111.2199999999999
 30
0.0
 40
1.0
100
AcDbArc
 50
90.0
 51
180.0
  0
ARC
  5
2CE
102
{ACAD_REACTORS
330
328
330
328
102
}
330
5D
100
AcDbEntity
  8
1
  6
Continuous
 62
     2
100
AcDbCircle
 10
192.7516542509982
 20
-111.2199999999999
 30
0.0
 40
1.0
100
AcDbArc
 50
0.0
 51
90.0
  0
ARC
  5
2CF
102
{ACAD_REACTORS
330
325
330
325
102
}
330
5D
100
AcDbEntity
  8
1
  6
Continuous
 62
     2
100
AcDbCircle
 10
184.8516542509982
 20
-118.4199999999999
 30
0.0
 40
1.0
100
AcDbArc
 50
-90.0
 51
0.0
  0
ARC
  5
2D0
102
{ACAD_REACTORS
330
325
330
325
102
}
330
5D
100
AcDbEntity
  8
1
  6
Continuous
 62
     2
100
AcDbCircle
 10
183.1516542509982
 20
-118.4199999999999
 30
0.0
 40
1.0
100
AcDbArc
 50
180.0
 51
-90.0
  0
ARC
  5
2D1
102
{ACAD_REACTORS
330
326
330
326
102
}
330
5D
100
AcDbEntity
  8
1
  6
Continuous
 62
     2
100
AcDbCircle
 10
180.3516542509982
 20
-118.4199999999999
 30
0.0
 40
1.0
100
AcDbArc
 50
-90.0
 51
0.0
  0
ARC
  5
2D2
102
{ACAD_REACTORS
330
327
330
327
102
}
330
5D
100
AcDbEntity
  8
1
  6
Continuous
 62
     2
100
AcDbCircle
 10
175.8516542509982
 20
-118.4199999999999
 30
0.0
 40
1.0
100
AcDbArc
 50
-90.0
 51
0.0
  0
ARC
  5
2D3
102
{ACAD_REACTORS
330
327
330
327
102
}
330
5D
100
AcDbEntity
  8
1
  6
Continuous
 62
     2
100
AcDbCircle
 10
174.1516542509982
 20
-118.4199999999999
 30
0.0
 40
1.0
100
AcDbArc
 50
180.0
 51
-90.0
  0
ARC
  5
2D4
102
{ACAD_REACTORS
330
328
330
328
102
}
330
5D
100
AcDbEntity
  8
1
  6
Continuous
 62
     2
100
AcDbCircle
 10
192.7516542509982
 20
-118.4199999999999
 30
0.0
 40
1.0
100
AcDbArc
 50
-90.0
 51
0.0
  0
ARC
  5
2D5
102
{ACAD_REACTORS
330
32A
330
32A
102
}
330
5D
100
AcDbEntity
  8
1
  6
Continuous
 62
     2
100
AcDbCircle
 10
157.9516542509982
 20
-118.4199999999999
 30
0.0
 40
1.0
100
AcDbArc
 50
180.0
 51
-90.0
  0
ARC
  5
2D6
102
{ACAD_REACTORS
330
32B
330
32B
102
}
330
5D
100
AcDbEntity
  8
1
  6
Continuous
 62
     2
100
AcDbCircle
 10
141.0516542509982
 20
-111.2199999999999
 30
0.0
 40
1.0
100
AcDbArc
 50
90.0
 51
180.0
  0
ARC
  5
2D7
102
{ACAD_REACTORS
330
324
330
324
102
}
330
5D
100
AcDbEntity
  8
1
  6
Continuous
 62
     2
100
AcDbCircle
 10
149.8016542509982
 20
-111.9699999999999
 30
0.0
 40
0.6500000000000057
100
AcDbArc
 50
90.0
 51
180.0
  0
ARC
  5
2D8
102
{ACAD_REACTORS
330
324
330
324
102
}
330
5D
100
AcDbEntity
  8
1
  6
Continuous
 62
     2
100
AcDbCircle
 10
149.8016542509982
 20
-111.9699999999999
 30
0.0
 40
0.6499999999999773
100
AcDbArc
 50
0.0
 51
90.0
  0
ARC
  5
2D9
102
{ACAD_REACTORS
330
324
330
324
102
}
330
5D
100
AcDbEntity
  8
1
  6
Continuous
 62
     2
100
AcDbCircle
 10
149.8016542509982
 20
-117.65758746051
 30
0.0
 40
0.6500000000000057
100
AcDbArc
 50
180.0
 51
-90.0
  0
ARC
  5
2DA
102
{ACAD_REACTORS
330
324
330
324
102
}
330
5D
100
AcDbEntity
  8
1
  6
Continuous
 62
     2
100
AcDbCircle
 10
149.8016542509982
 20
-117.65758746051
 30
0.0
 40
0.6500000000000057
100
AcDbArc
 50
-90.0
 51
0.0
  0
ARC
  5
2DB
102
{ACAD_REACTORS
330
329
330
329
102
}
330
5D
100
AcDbEntity
  8
1
  6
Continuous
 62
     2
100
AcDbCircle
 10
154.3016542509982
 20
-111.9699999999999
 30
0.0
 40
0.6499999999999773
100
AcDbArc
 50
0.0
 51
90.0
  0
ARC
  5
2DC
102
{ACAD_REACTORS
330
329
330
329
102
}
330
5D
100
AcDbEntity
  8
1
  6
Continuous
 62
     2
100
AcDbCircle
 10
154.3016542509982
 20
-116.0699999999999
 30
0.0
 40
0.6499999999999773
100
AcDbArc
 50
0.0
 51
90.0
  0
ARC
  5
2DD
102
{ACAD_REACTORS
330
329
330
329
102
}
330
5D
100
AcDbEntity
  8
1
  6
Continuous
 62
     2
100
AcDbCircle
 10
154.3016542509982
 20
-113.5699999999999
 30
0.0
 40
0.6500000000000057
100
AcDbArc
 50
-90.0
 51
0.0
  0
ARC
  5
2DE
102
{ACAD_REACTORS
330
32A
330
32A
102
}
330
5D
100
AcDbEntity
  8
1
  6
Continuous
 62
     2
100
AcDbCircle
 10
158.8016542509982
 20
-111.9699999999999
 30
0.0
 40
0.6500000000000057
100
AcDbArc
 50
90.0
 51
180.0
  0
ARC
  5
2DF
102
{ACAD_REACTORS
330
32A
330
32A
102
}
330
5D
100
AcDbEntity
  8
1
  6
Continuous
 62
     2
100
AcDbCircle
 10
158.8016542509982
 20
-111.9699999999999
 30
0.0
 40
0.6499999999999773
100
AcDbArc
 50
0.0
 51
90.0
  0
ARC
  5
2E0
102
{ACAD_REACTORS
330
32A
330
32A
102
}
330
5D
100
AcDbEntity
  8
1
  6
Continuous
 62
     2
100
AcDbCircle
 10
158.8016542509982
 20
-117.65758746051
 30
0.0
 40
0.6500000000000057
100
AcDbArc
 50
180.0
 51
-90.0
  0
ARC
  5
2E1
102
{ACAD_REACTORS
330
32A
330
32A
102
}
330
5D
100
AcDbEntity
  8
1
  6
Continuous
 62
     2
100
AcDbCircle
 10
158.8016542509982
 20
-117.65758746051
 30
0.0
 40
0.6500000000000057
100
AcDbArc
 50
-90.0
 51
0.0
  0
ARC
  5
2E2
102
{ACAD_REACTORS
330
32B
330
32B
102
}
330
5D
100
AcDbEntity
  8
1
  6
Continuous
 62
     2
100
AcDbCircle
 10
141.9016542509982
 20
-111.9699999999999
 30
0.0
 40
0.6500000000000057
100
AcDbArc
 50
90.0
 51
180.0
  0
ARC
  5
2E3
102
{ACAD_REACTORS
330
32B
330
32B
102
}
330
5D
100
AcDbEntity
  8
1
  6
Continuous
 62
     2
100
AcDbCircle
 10
141.9016542509982
 20
-111.9699999999999
 30
0.0
 40
0.6500000000000057
100
AcDbArc
 50
0.0
 51
90.0
  0
ARC
  5
2E4
102
{ACAD_REACTORS
330
32B
330
32B
102
}
330
5D
100
AcDbEntity
  8
1
  6
Continuous
 62
     2
100
AcDbCircle
 10
141.9016542509982
 20
-117.65758746051
 30
0.0
 40
0.6500000000000057
100
AcDbArc
 50
180.0
 51
-90.0
  0
ARC
  5
2E5
102
{ACAD_REACTORS
330
32B
330
32B
102
}
330
5D
100
AcDbEntity
  8
1
  6
Continuous
 62
     2
100
AcDbCircle
 10
141.9016542509982
 20
-117.65758746051
 30
0.0
 40
0.6500000000000057
100
AcDbArc
 50
-90.0
 51
0.0
  0
ARC
  5
2E6
102
{ACAD_REACTORS
330
328
330
328
102
}
330
5D
100
AcDbEntity
  8
1
  6
Continuous
 62
     2
100
AcDbCircle
 10
191.9016542509982
 20
-111.9699999999999
 30
0.0
 40
0.6500000000000057
100
AcDbArc
 50
0.0
 51
90.0
  0
ARC
  5
2E7
102
{ACAD_REACTORS
330
328
330
328
102
}
330
5D
100
AcDbEntity
  8
1
  6
Continuous
 62
     2
100
AcDbCircle
 10
191.9016542509982
 20
-117.65758746051
 30
0.0
 40
0.6500000000000057
100
AcDbArc
 50
-90.0
 51
0.0
  0
ARC
  5
2E8
102
{ACAD_REACTORS
330
325
330
325
102
}
330
5D
100
AcDbEntity
  8
1
  6
Continuous
 62
     2
100
AcDbCircle
 10
184.0016542509982
 20
-111.9699999999999
 30
0.0
 40
0.6500000000000057
100
AcDbArc
 50
0.0
 51
90.0
  0
ARC
  5
2E9
102
{ACAD_REACTORS
330
325
330
325
102
}
330
5D
100
AcDbEntity
  8
1
  6
Continuous
 62
     2
100
AcDbCircle
 10
184.0016542509982
 20
-111.9699999999999
 30
0.0
 40
0.6500000000000057
100
AcDbArc
 50
90.0
 51
180.0
  0
ARC
  5
2EA
102
{ACAD_REACTORS
330
325
330
325
102
}
330
5D
100
AcDbEntity
  8
1
  6
Continuous
 62
     2
100
AcDbCircle
 10
184.0016542509982
 20
-117.65758746051
 30
0.0
 40
0.6500000000000057
100
AcDbArc
 50
180.0
 51
-90.0
  0
ARC
  5
2EB
102
{ACAD_REACTORS
330
325
330
325
102
}
330
5D
100
AcDbEntity
  8
1
  6
Continuous
 62
     2
100
AcDbCircle
 10
184.0016542509982
 20
-117.65758746051
 30
0.0
 40
0.6500000000000057
100
AcDbArc
 50
-90.0
 51
0.0
  0
ARC
  5
2EC
102
{ACAD_REACTORS
330
327
330
327
102
}
330
5D
100
AcDbEntity
  8
1
  6
Continuous
 62
     2
100
AcDbCircle
 10
175.0016542509982
 20
-111.9699999999999
 30
0.0
 40
0.6500000000000057
100
AcDbArc
 50
90.0
 51
180.0
  0
ARC
  5
2ED
102
{ACAD_REACTORS
330
327
330
327
102
}
330
5D
100
AcDbEntity
  8
1
  6
Continuous
 62
     2
100
AcDbCircle
 10
175.0016542509982
 20
-111.9699999999999
 30
0.0
 40
0.6500000000000057
100
AcDbArc
 50
0.0
 51
90.0
  0
ARC
  5
2EE
102
{ACAD_REACTORS
330
327
330
327
102
}
330
5D
100
AcDbEntity
  8
1
  6
Continuous
 62
     2
100
AcDbCircle
 10
175.0016542509982
 20
-117.65758746051
 30
0.0
 40
0.6500000000000057
100
AcDbArc
 50
180.0
 51
-90.0
  0
ARC
  5
2EF
102
{ACAD_REACTORS
330
327
330
327
102
}
330
5D
100
AcDbEntity
  8
1
  6
Continuous
 62
     2
100
AcDbCircle
 10
175.0016542509982
 20
-117.65758746051
 30
0.0
 40
0.6500000000000057
100
AcDbArc
 50
-90.0
 51
0.0
  0
ARC
  5
2F0
102
{ACAD_REACTORS
330
326
330
326
102
}
330
5D
100
AcDbEntity
  8
1
  6
Continuous
 62
     2
100
AcDbCircle
 10
179.5016542509982
 20
-111.9699999999999
 30
0.0
 40
0.6500000000000057
100
AcDbArc
 50
0.0
 51
90.0
  0
ARC
  5
2F1
102
{ACAD_REACTORS
330
326
330
326
102
}
330
5D
100
AcDbEntity
  8
1
  6
Continuous
 62
     2
100
AcDbCircle
 10
179.5016542509982
 20
-113.2699999999999
 30
0.0
 40
0.6500000000000057
100
AcDbArc
 50
-90.0
 51
0.0
  0
ARC
  5
2F2
102
{ACAD_REACTORS
330
326
330
326
102
}
330
5D
100
AcDbEntity
  8
1
  6
Continuous
 62
     2
100
AcDbCircle
 10
179.5016542509982
 20
-115.6699999999999
 30
0.0
 40
0.6500000000000057
100
AcDbArc
 50
0.0
 51
90.0
  0
ARC
  5
2F3
102
{ACAD_REACTORS
330
326
330
326
102
}
330
5D
100
AcDbEntity
  8
1
  6
Continuous
 62
     2
100
AcDbCircle
 10
179.5016542509982
 20
-117.65758746051
 30
0.0
 40
0.6500000000000057
100
AcDbArc
 50
-90.0
 51
0.0
  0
MTEXT
  5
2F5
330
5D
100
AcDbEntity
  8
1
 62
     2
100
AcDbMText
 10
166.6516542509982
 20
-123.0199999999999
 30
0.0
 40
2.8
 41
0.0
 71
     5
 72
     1
  1
GmbH & Co. KG
  7
CONVERTER_11
 73
     1
 44
1.32052821128451
  0
MTEXT
  5
2F7
330
5D
100
AcDbEntity
  8
1
 62
     2
100
AcDbMText
 10
171.146150406868
 20
-140.3850000000002
 30
0.0
 40
1.8
 41
0.0
 71
     4
 72
     1
  1
 
  7
CONVERTER_12
 73
     1
 44
1.32052821128451
  0
MTEXT
  5
2F8
330
5D
100
AcDbEntity
  8
1
 62
     2
100
AcDbMText
 10
138.090984385273
 20
-140.3850000000002
 30
0.0
 40
1.8
 41
0.0
 71
     4
 72
     1
  1
 
  7
CONVERTER_12
 73
     1
 44
1.32052821128451
  0
MTEXT
  5
2F9
330
5D
100
AcDbEntity
  8
1
 62
     2
100
AcDbMText
 10
65.29999999999995
 20
-119.2350000000014
 30
0.0
 40
1.8
 41
0.0
 71
     5
 72
     1
  1
 
  7
CONVERTER_12
 73
     1
 44
1.32052821128451
  0
MTEXT
  5
2FA
330
5D
100
AcDbEntity
  8
1
 62
     2
100
AcDbMText
 10
46.25
 20
-119.2350000000014
 30
0.0
 40
1.8
 41
0.0
 71
     5
 72
     1
  1
07.08.06
  7
CONVERTER_12
 73
     1
 44
1.32052821128451
  0
MTEXT
  5
2FB
330
5D
100
AcDbEntity
  8
1
 62
     3
100
AcDbMText
 10
168.9000000000001
 20
-105.1999999999998
 30
0.0
 40
2.5
 41
0.0
 71
     5
 72
     1
  1
 
  7
CONVERTER_12
 73
     1
 44
1.32052821128451
  0
MTEXT
  5
2FC
330
5D
100
AcDbEntity
  8
1
 62
     3
100
AcDbMText
 10
168.9000000000001
 20
-100.6999999999998
 30
0.0
 40
2.5
 41
0.0
 71
     5
 72
     1
  1
 
  7
CONVERTER_12
 73
     1
 44
1.32052821128451
  0
MTEXT
  5
2FD
330
5D
100
AcDbEntity
  8
1
 62
     3
100
AcDbMText
 10
168.9000000000001
 20
-96.19999999999983
 30
0.0
 40
2.5
 41
0.0
 71
     5
 72
     1
  1
 
  7
CONVERTER_12
 73
     1
 44
1.32052821128451
  0
MTEXT
  5
2FF
330
5D
100
AcDbEntity
  8
1
 62
     3
100
AcDbMText
 10
102.13
 20
-118.125
 30
0.0
 40
2.5
 41
0.0
 71
     5
 72
     1
  1
KSD 26x.xx D(-MD)-Rx/xx/2/..
  7
CONVERTER_13
 73
     1
 44
1.32052821128451
  0
MTEXT
  5
301
330
5D
100
AcDbEntity
  8
1
 62
     7
100
AcDbMText
 10
29.74000000000001
 20
-136.535
 30
0.0
 40
5.0
 41
0.0
 71
     5
 72
     1
  1
1:1
  7
CONVERTER_14
 73
     1
 44
1.32052821128451
  0
MTEXT
  5
302
330
5D
100
AcDbEntity
  8
1
 62
     2
100
AcDbMText
 10
46.25
 20
-115.005
 30
0.0
 40
1.8
 41
0.0
 71
     5
 72
     1
  1
07.08.06
  7
CONVERTER_12
 73
     1
 44
1.32052821128451
  0
MTEXT
  5
303
330
5D
100
AcDbEntity
  8
1
 62
     2
100
AcDbMText
 10
65.29999999999995
 20
-115.005
 30
0.0
 40
1.8
 41
0.0
 71
     5
 72
     1
  1
WIST
  7
CONVERTER_12
 73
     1
 44
1.32052821128451
  0
MTEXT
  5
305
330
5D
100
AcDbEntity
  8
1
 62
     7
100
AcDbMText
 10
83.60500000000002
 20
-136.33
 30
0.0
 40
5.0
 41
0.0
 71
     5
 72
     1
  1
Maßblatt
  7
CONVERTER_15
 73
     1
 44
1.32052821128451
  0
MTEXT
  5
306
330
5D
100
AcDbEntity
  8
1
 62
     2
100
AcDbMText
 10
196.85
 20
-136.25
 30
0.0
 40
1.8
 41
0.0
 71
     5
 72
     1
  1
1
  7
CONVERTER_12
 73
     1
 44
1.32052821128451
  0
MTEXT
  5
307
330
5D
100
AcDbEntity
  8
1
 62
     3
100
AcDbMText
 10
200.375
 20
-129.81
 30
0.0
 40
3.0
 41
0.0
 71
     5
 72
     1
  1
1
  7
CONVERTER_15
 73
     1
 44
1.32052821128451
  0
MTEXT
  5
308
330
5D
100
AcDbEntity
  8
1
 62
     7
100
AcDbMText
 10
160.55
 20
-133.28
 30
0.0
 40
5.0
 41
0.0
 71
     5
 72
     1
  1
K2957
  7
CONVERTER_14
 73
     1
 44
1.32052821128451
  0
TEXT
  5
309
330
5D
100
AcDbEntity
  8
1
 62
     2
100
AcDbText
 10
193.3000000000002
 20
-129.5799999999999
 30
0.0
 40
1.8
  1
Bl.
 41
0.9
  7
CONVERTER_12
100
AcDbText
  0
MTEXT
  5
30A
330
5D
100
AcDbEntity
  8
1
 62
     2
100
AcDbMText
 10
129.868213777145
 20
-140.3850000000002
 30
0.0
 40
1.8
 41
0.0
 71
     4
 72
     1
  1
Ers.
  7
CONVERTER_12
 73
     1
 44
1.32052821128451
  0
TEXT
  5
30B
330
5D
100
AcDbEntity
  8
1
 62
     2
100
AcDbText
 10
129.8000000000002
 20
-94.97000000000116
 30
0.0
 40
1.8
  1
Werkstoff
 41
0.9
  7
CONVERTER_12
100
AcDbText
  0
MTEXT
  5
30C
330
5D
100
AcDbEntity
  8
1
 62
     2
100
AcDbMText
 10
167.8999999999996
 20
-89.625
 30
0.0
 40
1.8
 41
0.0
 71
     4
 72
     1
  1
Gewicht
  7
CONVERTER_12
 73
     1
 44
1.32052821128451
  0
MTEXT
  5
30D
330
5D
100
AcDbEntity
  8
1
 62
     2
100
AcDbMText
 10
129.8000000000002
 20
-89.625
 30
0.0
 40
1.8
 41
0.0
 71
     4
 72
     1
  1
Urheberschutz  DIN 34
  7
CONVERTER_12
 73
     1
 44
1.32052821128451
  0
TEXT
  5
30E
330
5D
100
AcDbEntity
  8
1
 62
     2
100
AcDbText
 10
130.8962833787473
 20
-129.2145722070854
 30
0.0
 40
1.8
  1
Z.-Nr.
 41
0.9
  7
CONVERTER_12
100
AcDbText
  0
TEXT
  5
30F
330
5D
100
AcDbEntity
  8
1
 62
     2
100
AcDbText
 10
38.35999999999888
 20
-129.5799999999999
 30
0.0
 40
1.8
  1
Benennung
 41
0.9
  7
CONVERTER_12
100
AcDbText
  0
TEXT
  5
310
330
5D
100
AcDbEntity
  8
1
 62
     2
100
AcDbText
 10
23.11999999999898
 20
-129.5799999999999
 30
0.0
 40
1.8
  1
Maßstab
 41
0.9
  7
CONVERTER_12
100
AcDbText
  0
TEXT
  5
311
330
5D
100
AcDbEntity
  8
1
 62
     2
100
AcDbText
 10
75.95999999999992
 20
-111.2899999999994
 30
0.0
 40
1.8
  1
Typ
 41
0.9
  7
CONVERTER_12
100
AcDbText
  0
TEXT
  5
312
330
5D
100
AcDbEntity
  8
1
 62
     2
100
AcDbText
 10
23.11999999999898
 20
-124.5799999999999
 30
0.0
 40
1.8
  1
Norm.
 41
0.9
  7
CONVERTER_12
100
AcDbText
  0
TEXT
  5
313
330
5D
100
AcDbEntity
  8
1
 62
     2
100
AcDbText
 10
23.11999999999898
 20
-120.3500000000004
 30
0.0
 40
1.8
  1
Gepr.
 41
0.9
  7
CONVERTER_12
100
AcDbText
  0
TEXT
  5
314
330
5D
100
AcDbEntity
  8
1
 62
     2
100
AcDbText
 10
23.11999999999898
 20
-116.1200000000008
 30
0.0
 40
1.8
  1
Bearb.
 41
0.9
  7
CONVERTER_12
100
AcDbText
  0
TEXT
  5
315
330
5D
100
AcDbEntity
  8
1
 62
     2
100
AcDbText
 10
59.73202796696876
 20
-111.8899999999994
 30
0.0
 40
1.8
  1
Name
 41
0.9
  7
CONVERTER_12
100
AcDbText
  0
TEXT
  5
316
330
5D
100
AcDbEntity
  8
1
 62
     2
100
AcDbText
 10
41.95202796696901
 20
-111.8899999999994
 30
0.0
 40
1.8
  1
Datum
 41
0.9
  7
CONVERTER_12
100
AcDbText
  0
TEXT
  5
317
330
5D
100
AcDbEntity
  8
1
 62
     2
100
AcDbText
 10
68.83999999999912
 20
-107.6599999999999
 30
0.0
 40
1.8
  1
Gepr.
 41
0.72
  7
CONVERTER_15
100
AcDbText
  0
TEXT
  5
318
330
5D
100
AcDbEntity
  8
1
 62
     2
100
AcDbText
 10
61.21999999999832
 20
-107.6599999999999
 30
0.0
 40
1.8
  1
Name
 41
0.72
  7
CONVERTER_15
100
AcDbText
  0
TEXT
  5
319
330
5D
100
AcDbEntity
  8
1
 62
     2
100
AcDbText
 10
43.43999999999869
 20
-107.6599999999999
 30
0.0
 40
1.8
  1
Datum
 41
0.9
  7
CONVERTER_12
100
AcDbText
  0
TEXT
  5
31A
330
5D
100
AcDbEntity
  8
1
 62
     2
100
AcDbText
 10
28.19999999999891
 20
-107.6599999999999
 30
0.0
 40
1.8
  1
Änderung
 41
0.9
  7
CONVERTER_12
100
AcDbText
  0
TEXT
  5
31B
330
5D
100
AcDbEntity
  8
1
 62
     2
100
AcDbText
 10
23.11999999999898
 20
-107.6599999999999
 30
0.0
 40
1.8
  1
Nr.
 41
0.9
  7
CONVERTER_12
100
AcDbText
  0
TEXT
  5
31C
330
5D
100
AcDbEntity
  8
0
 62
     2
100
AcDbText
 10
201.4516239034123
 20
-137.153912141408
 30
0.0
 40
1.8
  1
Bl.
 41
0.9
  7
CONVERTER_12
100
AcDbText
  0
MTEXT
  5
31D
330
5D
100
AcDbEntity
  8
1
 62
     3
100
AcDbMText
 10
103.5850000000001
 20
-98.08500000000004
 30
0.0
 40
2.2
 41
0.0
 71
     4
 72
     1
  1
Oberflächen\PDIN ISO 1302\PReihe 2
  7
CONVERTER_12
 73
     1
 44
1.32052821128451
  0
MTEXT
  5
31E
330
5D
100
AcDbEntity
  8
1
 62
     3
100
AcDbMText
 10
76.91500000000008
 20
-98.08500000000004
 30
0.0
 40
2.2
 41
0.0
 71
     4
 72
     1
  1
Allgemein-\Ptoleranzen\PDIN ISO 2768-mK
  7
CONVERTER_15
 73
     1
 44
1.32052821128451
  0
HATCH
  5
31F
330
5D
100
AcDbEntity
  8
1
  6
Continuous
 62
     2
100
AcDbHatch
 10
0.0
 20
0.0
 30
0.0
210
0.0
220
0.0
230
1.0
  2
_USER
 70
     0
 71
     1
 91
        1
 92
        1
 93
        4
 72
     1
 10
162.6516542509982
 20
-119.4199999999999
 11
161.4516542509982
 21
-119.4199999999999
 72
     1
 10
161.4516542509982
 20
-119.4199999999999
 11
161.4516542509982
 21
-110.2199999999999
 72
     1
 10
161.4516542509982
 20
-110.2199999999999
 11
162.6516542509982
 21
-110.2199999999999
 72
     1
 10
162.6516542509982
 20
-110.2199999999999
 11
162.6516542509982
 21
-119.4199999999999
 97
        4
330
262
330
268
330
264
330
267
 75
     1
 76
     0
 52
90.00000000000003
 41
0.15
 77
     0
 78
     1
 53
90.00000000000003
 43
0.0
 44
0.0
 45
-0.15
 46
-0.0000000000000001
 79
     0
 98
        1
 10
0.0
 20
0.0
  0
HATCH
  5
320
330
5D
100
AcDbEntity
  8
1
  6
Continuous
 62
     2
100
AcDbHatch
 10
0.0
 20
0.0
 30
0.0
210
0.0
220
0.0
230
1.0
  2
_USER
 70
     0
 71
     1
 91
        1
 92
        1
 93
        4
 72
     1
 10
164.6516542509982
 20
-119.4199999999999
 11
163.4516542509982
 21
-119.4199999999999
 72
     1
 10
163.4516542509982
 20
-119.4199999999999
 11
163.4516542509982
 21
-110.2199999999999
 72
     1
 10
163.4516542509982
 20
-110.2199999999999
 11
164.6516542509982
 21
-110.2199999999999
 72
     1
 10
164.6516542509982
 20
-110.2199999999999
 11
164.6516542509982
 21
-119.4199999999999
 97
        4
330
263
330
266
330
26C
330
265
 75
     1
 76
     0
 52
90.00000000000003
 41
0.15
 77
     0
 78
     1
 53
90.00000000000003
 43
0.0
 44
0.0
 45
-0.15
 46
-0.0000000000000001
 79
     0
 98
        1
 10
0.0
 20
0.0
  0
HATCH
  5
321
330
5D
100
AcDbEntity
  8
1
  6
Continuous
 62
     2
100
AcDbHatch
 10
0.0
 20
0.0
 30
0.0
210
0.0
220
0.0
230
1.0
  2
_USER
 70
     0
 71
     1
 91
        1
 92
        1
 93
       12
 72
     1
 10
147.1516542509982
 20
-110.2199999999999
 11
144.5516542509982
 21
-110.2199999999999
 72
     1
 10
144.5516542509982
 20
-110.2199999999999
 11
144.5516542509982
 21
-119.4199999999999
 72
     1
 10
144.5516542509982
 20
-119.4199999999999
 11
147.1516542509982
 21
-119.4199999999999
 72
     1
 10
147.1516542509982
 20
-119.4199999999999
 11
147.1516542509982
 21
-118.30758746051
 72
     1
 10
147.1516542509982
 20
-118.30758746051
 11
145.8516542509982
 21
-118.30758746051
 72
     1
 10
145.8516542509982
 20
-118.30758746051
 11
145.8516542509982
 21
-115.0199999999999
 72
     1
 10
145.8516542509982
 20
-115.0199999999999
 11
147.1516542509982
 21
-115.0199999999999
 72
     1
 10
147.1516542509982
 20
-115.0199999999999
 11
147.1516542509982
 21
-113.9199999999999
 72
     1
 10
147.1516542509982
 20
-113.9199999999999
 11
145.8516542509982
 21
-113.9199999999999
 72
     1
 10
145.8516542509982
 20
-113.9199999999999
 11
145.8516542509982
 21
-111.3199999999999
 72
     1
 10
145.8516542509982
 20
-111.3199999999999
 11
147.1516542509982
 21
-111.3199999999999
 72
     1
 10
147.1516542509982
 20
-111.3199999999999
 11
147.1516542509982
 21
-110.2199999999999
 97
       12
330
22C
330
22D
330
22E
330
22F
330
224
330
220
330
221
330
222
330
223
330
225
330
26D
330
26E
 75
     1
 76
     0
 52
90.00000000000003
 41
0.15
 77
     0
 78
     1
 53
90.00000000000003
 43
0.0
 44
0.0
 45
-0.15
 46
-0.0000000000000001
 79
     0
 98
        1
 10
0.0
 20
0.0
  0
HATCH
  5
322
330
5D
100
AcDbEntity
  8
1
  6
Continuous
 62
     2
100
AcDbHatch
 10
0.0
 20
0.0
 30
0.0
210
0.0
220
0.0
230
1.0
  2
_USER
 70
     0
 71
     1
 91
        1
 92
        1
 93
        6
 72
     1
 10
189.2516542509982
 20
-119.4199999999999
 11
186.6516542509982
 21
-119.4199999999999
 72
     1
 10
186.6516542509982
 20
-119.4199999999999
 11
186.6516542509982
 21
-110.2199999999999
 72
     1
 10
186.6516542509982
 20
-110.2199999999999
 11
187.8516542509982
 21
-110.2199999999999
 72
     1
 10
187.8516542509982
 20
-110.2199999999999
 11
187.8516542509982
 21
-118.30758746051
 72
     1
 10
187.8516542509982
 20
-118.30758746051
 11
189.2516542509982
 21
-118.30758746051
 72
     1
 10
189.2516542509982
 20
-118.30758746051
 11
189.2516542509982
 21
-119.4199999999999
 97
        6
330
28C
330
28B
330
24F
330
24C
330
24D
330
24E
 75
     1
 76
     0
 52
90.00000000000003
 41
0.15
 77
     0
 78
     1
 53
90.00000000000003
 43
0.0
 44
0.0
 45
-0.15
 46
-0.0000000000000001
 79
     0
 98
        1
 10
0.0
 20
0.0
  0
HATCH
  5
323
330
5D
100
AcDbEntity
  8
1
  6
Continuous
 62
     2
100
AcDbHatch
 10
0.0
 20
0.0
 30
0.0
210
0.0
220
0.0
230
1.0
  2
_USER
 70
     0
 71
     1
 91
        1
 92
        1
 93
       11
 72
     1
 10
169.8516542509982
 20
-113.8826635858394
 11
171.0854042804337
 21
-110.2199999999999
 72
     1
 10
171.0854042804337
 20
-110.2199999999999
 11
172.3516542509982
 21
-110.2199999999999
 72
     1
 10
172.3516542509982
 20
-110.2199999999999
 11
170.9200628688759
 21
-114.4699999999999
 72
     1
 10
170.9200628688759
 20
-114.4699999999999
 11
172.3516542509982
 21
-119.4199999999999
 72
     1
 10
172.3516542509982
 20
-119.4199999999999
 11
171.1024763583806
 21
-119.4199999999999
 72
     1
 10
171.1024763583806
 20
-119.4199999999999
 11
169.8516542509982
 21
-115.0950442138285
 72
     1
 10
169.8516542509982
 20
-115.0950442138285
 11
169.8516542509982
 21
-119.4199999999999
 72
     1
 10
169.8516542509982
 20
-119.4199999999999
 11
168.6516542509982
 21
-119.4199999999999
 72
     1
 10
168.6516542509982
 20
-119.4199999999999
 11
168.6516542509982
 21
-110.2199999999999
 72
     1
 10
168.6516542509982
 20
-110.2199999999999
 11
169.8516542509982
 21
-110.2199999999999
 72
     1
 10
169.8516542509982
 20
-110.2199999999999
 11
169.8516542509982
 21
-113.8826635858394
 97
       11
330
23F
330
241
330
240
330
298
330
296
330
294
330
292
330
291
330
293
330
295
330
297
 75
     1
 76
     0
 52
90.00000000000003
 41
0.15
 77
     0
 78
     1
 53
90.00000000000003
 43
0.0
 44
0.0
 45
-0.15
 46
-0.0000000000000001
 79
     0
 98
        1
 10
0.0
 20
0.0
  0
HATCH
  5
324
330
5D
100
AcDbEntity
  8
1
  6
Continuous
 62
     2
100
AcDbHatch
 10
0.0
 20
0.0
 30
0.0
210
0.0
220
0.0
230
1.0
  2
_USER
 70
     0
 71
     1
 91
        2
 92
        1
 93
        8
 72
     1
 10
151.6516542509982
 20
-111.2199999999999
 11
151.6516542509982
 21
-118.4199999999999
 72
     2
 10
150.6516542509982
 20
-118.4199999999999
 40
1.0
 50
0.0
 51
90.0
 73
     0
 72
     1
 10
150.6516542509982
 20
-119.4199999999999
 11
148.9516542509982
 21
-119.4199999999999
 72
     2
 10
148.9516542509982
 20
-118.4199999999999
 40
1.0
 50
90.0
 51
180.0
 73
     0
 72
     1
 10
147.9516542509982
 20
-118.4199999999999
 11
147.9516542509982
 21
-111.2199999999999
 72
     2
 10
148.9516542509982
 20
-111.2199999999999
 40
1.0
 50
180.0
 51
270.0
 73
     0
 72
     1
 10
148.9516542509982
 20
-110.2199999999999
 11
150.6516542509982
 21
-110.2199999999999
 72
     2
 10
150.6516542509982
 20
-111.2199999999999
 40
1.0
 50
270.0
 51
360.0
 73
     0
 97
        8
330
233
330
2C2
330
235
330
2C4
330
234
330
2C5
330
236
330
2C3
 92
       16
 93
        6
 72
     2
 10
149.8016542509982
 20
-111.9699999999999
 40
0.6500000000000057
 50
90.0
 51
180.0
 73
     1
 72
     1
 10
149.1516542509982
 20
-111.9699999999999
 11
149.1516542509982
 21
-117.65758746051
 72
     2
 10
149.8016542509982
 20
-117.65758746051
 40
0.6500000000000057
 50
180.0
 51
270.0
 73
     1
 72
     2
 10
149.8016542509982
 20
-117.65758746051
 40
0.6500000000000057
 50
270.0
 51
360.0
 73
     1
 72
     1
 10
150.4516542509982
 20
-117.65758746051
 11
150.4516542509982
 21
-111.9699999999999
 72
     2
 10
149.8016542509982
 20
-111.9699999999999
 40
0.6499999999999773
 50
0.0
 51
90.0
 73
     1
 97
        6
330
2D7
330
270
330
2D9
330
2DA
330
26F
330
2D8
 75
     1
 76
     0
 52
90.00000000000003
 41
0.15
 77
     0
 78
     1
 53
90.00000000000003
 43
0.0
 44
0.0
 45
-0.15
 46
-0.0000000000000001
 79
     0
 98
        1
 10
0.0
 20
0.0
  0
HATCH
  5
325
330
5D
100
AcDbEntity
  8
1
  6
Continuous
 62
     2
100
AcDbHatch
 10
0.0
 20
0.0
 30
0.0
210
0.0
220
0.0
230
1.0
  2
_USER
 70
     0
 71
     1
 91
        2
 92
        1
 93
        8
 72
     2
 10
183.1516542509982
 20
-111.2199999999999
 40
1.0
 50
90.0
 51
180.0
 73
     1
 72
     1
 10
182.1516542509982
 20
-111.2199999999999
 11
182.1516542509982
 21
-118.4199999999999
 72
     2
 10
183.1516542509982
 20
-118.4199999999999
 40
1.0
 50
180.0
 51
270.0
 73
     1
 72
     1
 10
183.1516542509982
 20
-119.4199999999999
 11
184.8516542509982
 21
-119.4199999999999
 72
     2
 10
184.8516542509982
 20
-118.4199999999999
 40
1.0
 50
270.0
 51
360.0
 73
     1
 72
     1
 10
185.8516542509982
 20
-118.4199999999999
 11
185.8516542509982
 21
-111.2199999999999
 72
     2
 10
184.8516542509982
 20
-111.2199999999999
 40
1.0
 50
0.0
 51
90.0
 73
     1
 72
     1
 10
184.8516542509982
 20
-110.2199999999999
 11
183.1516542509982
 21
-110.2199999999999
 97
        8
330
2CD
330
248
330
2D0
330
249
330
2CF
330
24A
330
2CC
330
24B
 92
       16
 93
        6
 72
     2
 10
184.0016542509982
 20
-111.9699999999999
 40
0.6500000000000057
 50
0.0
 51
90.0
 73
     1
 72
     2
 10
184.0016542509982
 20
-111.9699999999999
 40
0.6500000000000057
 50
90.0
 51
180.0
 73
     1
 72
     1
 10
183.3516542509982
 20
-111.9699999999999
 11
183.3516542509982
 21
-117.65758746051
 72
     2
 10
184.0016542509982
 20
-117.65758746051
 40
0.6500000000000057
 50
180.0
 51
270.0
 73
     1
 72
     2
 10
184.0016542509982
 20
-117.65758746051
 40
0.6500000000000057
 50
270.0
 51
360.0
 73
     1
 72
     1
 10
184.6516542509982
 20
-117.65758746051
 11
184.6516542509982
 21
-111.9699999999999
 97
        6
330
2E8
330
2E9
330
287
330
2EA
330
2EB
330
286
 75
     1
 76
     0
 52
90.00000000000003
 41
0.15
 77
     0
 78
     1
 53
90.00000000000003
 43
0.0
 44
0.0
 45
-0.15
 46
-0.0000000000000001
 79
     0
 98
        1
 10
0.0
 20
0.0
  0
HATCH
  5
326
330
5D
100
AcDbEntity
  8
1
  6
Continuous
 62
     2
100
AcDbHatch
 10
0.0
 20
0.0
 30
0.0
210
0.0
220
0.0
230
1.0
  2
_USER
 70
     0
 71
     1
 91
        3
 92
        1
 93
        9
 72
     1
 10
180.3516542509982
 20
-110.2199999999999
 11
177.6516542509982
 21
-110.2199999999999
 72
     1
 10
177.6516542509982
 20
-110.2199999999999
 11
177.6516542509982
 21
-119.4199999999999
 72
     1
 10
177.6516542509982
 20
-119.4199999999999
 11
180.3516542509982
 21
-119.4199999999999
 72
     2
 10
180.3516542509982
 20
-118.4199999999999
 40
1.0
 50
270.0
 51
360.0
 73
     1
 72
     1
 10
181.3516542509982
 20
-118.4199999999999
 11
181.3516542509982
 21
-115.1199999999999
 72
     2
 10
180.7016542509982
 20
-115.1199999999999
 40
0.6500000000000057
 50
0.0
 51
90.0
 73
     1
 72
     2
 10
180.7016542509982
 20
-113.8199999999999
 40
0.6500000000000057
 50
270.0
 51
360.0
 73
     1
 72
     1
 10
181.3516542509982
 20
-113.8199999999999
 11
181.3516542509982
 21
-111.2199999999999
 72
     2
 10
180.3516542509982
 20
-111.2199999999999
 40
1.0
 50
0.0
 51
90.0
 73
     1
 97
        9
330
246
330
245
330
247
330
2D1
330
290
330
2BF
330
2BE
330
28F
330
2CB
 92
       16
 93
        6
 72
     2
 10
179.5016542509982
 20
-111.9699999999999
 40
0.6500000000000057
 50
0.0
 51
90.0
 73
     1
 72
     1
 10
179.5016542509982
 20
-111.3199999999999
 11
178.8516542509982
 21
-111.3199999999999
 72
     1
 10
178.8516542509982
 20
-111.3199999999999
 11
178.8516542509982
 21
-113.9199999999999
 72
     1
 10
178.8516542509982
 20
-113.9199999999999
 11
179.5016542509982
 21
-113.9199999999999
 72
     2
 10
179.5016542509982
 20
-113.2699999999999
 40
0.6500000000000057
 50
270.0
 51
360.0
 73
     1
 72
     1
 10
180.1516542509982
 20
-113.2699999999999
 11
180.1516542509982
 21
-111.9699999999999
 97
        6
330
2F0
330
27E
330
284
330
280
330
2F1
330
27F
 92
       16
 93
        6
 72
     2
 10
179.5016542509982
 20
-115.6699999999999
 40
0.6500000000000057
 50
0.0
 51
90.0
 73
     1
 72
     1
 10
179.5016542509982
 20
-115.0199999999999
 11
178.8516542509982
 21
-115.0199999999999
 72
     1
 10
178.8516542509982
 20
-115.0199999999999
 11
178.8516542509982
 21
-118.30758746051
 72
     1
 10
178.8516542509982
 20
-118.30758746051
 11
179.5016542509982
 21
-118.30758746051
 72
     2
 10
179.5016542509982
 20
-117.65758746051
 40
0.6500000000000057
 50
270.0
 51
360.0
 73
     1
 72
     1
 10
180.1516542509982
 20
-117.65758746051
 11
180.1516542509982
 21
-115.6699999999999
 97
        6
330
2F2
330
285
330
281
330
282
330
2F3
330
283
 75
     1
 76
     0
 52
90.00000000000003
 41
0.15
 77
     0
 78
     1
 53
90.00000000000003
 43
0.0
 44
0.0
 45
-0.15
 46
-0.0000000000000001
 79
     0
 98
        1
 10
0.0
 20
0.0
  0
HATCH
  5
327
330
5D
100
AcDbEntity
  8
1
  6
Continuous
 62
     2
100
AcDbHatch
 10
0.0
 20
0.0
 30
0.0
210
0.0
220
0.0
230
1.0
  2
_USER
 70
     0
 71
     1
 91
        2
 92
        1
 93
        8
 72
     2
 10
174.1516542509982
 20
-111.2199999999999
 40
1.0
 50
90.0
 51
180.0
 73
     1
 72
     1
 10
173.1516542509982
 20
-111.2199999999999
 11
173.1516542509982
 21
-118.4199999999999
 72
     2
 10
174.1516542509982
 20
-118.4199999999999
 40
1.0
 50
180.0
 51
270.0
 73
     1
 72
     1
 10
174.1516542509982
 20
-119.4199999999999
 11
175.8516542509982
 21
-119.4199999999999
 72
     2
 10
175.8516542509982
 20
-118.4199999999999
 40
1.0
 50
270.0
 51
360.0
 73
     1
 72
     1
 10
176.8516542509982
 20
-118.4199999999999
 11
176.8516542509982
 21
-111.2199999999999
 72
     2
 10
175.8516542509982
 20
-111.2199999999999
 40
1.0
 50
0.0
 51
90.0
 73
     1
 72
     1
 10
175.8516542509982
 20
-110.2199999999999
 11
174.1516542509982
 21
-110.2199999999999
 97
        8
330
2C9
330
299
330
2D3
330
244
330
2D2
330
252
330
2CA
330
243
 92
       16
 93
        6
 72
     2
 10
175.0016542509982
 20
-111.9699999999999
 40
0.6500000000000057
 50
90.0
 51
180.0
 73
     1
 72
     1
 10
174.3516542509982
 20
-111.9699999999999
 11
174.3516542509982
 21
-117.65758746051
 72
     2
 10
175.0016542509982
 20
-117.65758746051
 40
0.6500000000000057
 50
180.0
 51
270.0
 73
     1
 72
     2
 10
175.0016542509982
 20
-117.65758746051
 40
0.6500000000000057
 50
270.0
 51
360.0
 73
     1
 72
     1
 10
175.6516542509982
 20
-117.65758746051
 11
175.6516542509982
 21
-111.9699999999999
 72
     2
 10
175.0016542509982
 20
-111.9699999999999
 40
0.6500000000000057
 50
0.0
 51
90.0
 73
     1
 97
        6
330
2EC
330
27D
330
2EE
330
2EF
330
27C
330
2ED
 75
     1
 76
     0
 52
90.00000000000003
 41
0.15
 77
     0
 78
     1
 53
90.00000000000003
 43
0.0
 44
0.0
 45
-0.15
 46
-0.0000000000000001
 79
     0
 98
        1
 10
0.0
 20
0.0
  0
HATCH
  5
328
330
5D
100
AcDbEntity
  8
1
  6
Continuous
 62
     2
100
AcDbHatch
 10
0.0
 20
0.0
 30
0.0
210
0.0
220
0.0
230
1.0
  2
_USER
 70
     0
 71
     1
 91
        2
 92
        1
 93
        6
 72
     1
 10
193.7516542509982
 20
-111.2199999999999
 11
193.7516542509982
 21
-118.4199999999999
 72
     2
 10
192.7516542509982
 20
-118.4199999999999
 40
1.0
 50
0.0
 51
90.0
 73
     0
 72
     1
 10
192.7516542509982
 20
-119.4199999999999
 11
190.0516542509982
 21
-119.4199999999999
 72
     1
 10
190.0516542509982
 20
-119.4199999999999
 11
190.0516542509982
 21
-110.2199999999999
 72
     1
 10
190.0516542509982
 20
-110.2199999999999
 11
192.7516542509982
 21
-110.2199999999999
 72
     2
 10
192.7516542509982
 20
-111.2199999999999
 40
1.0
 50
270.0
 51
360.0
 73
     0
 97
        6
330
251
330
250
330
253
330
2D4
330
254
330
2CE
 92
       16
 93
        7
 72
     2
 10
191.9016542509982
 20
-111.9699999999999
 40
0.6500000000000057
 50
0.0
 51
90.0
 73
     1
 72
     1
 10
191.9016542509982
 20
-111.3199999999999
 11
191.2516542509982
 21
-111.3199999999999
 72
     1
 10
191.2516542509982
 20
-111.3199999999999
 11
191.2516542509982
 21
-111.9699999999999
 72
     1
 10
191.2516542509982
 20
-111.9699999999999
 11
191.2516542509982
 21
-118.30758746051
 72
     1
 10
191.2516542509982
 20
-118.30758746051
 11
191.9016542509982
 21
-118.30758746051
 72
     2
 10
191.9016542509982
 20
-117.65758746051
 40
0.6500000000000057
 50
270.0
 51
360.0
 73
     1
 72
     1
 10
192.5516542509982
 20
-117.65758746051
 11
192.5516542509982
 21
-111.9699999999999
 97
        7
330
2E6
330
28D
330
28E
330
28A
330
289
330
2E7
330
288
 75
     1
 76
     0
 52
90.00000000000003
 41
0.15
 77
     0
 78
     1
 53
90.00000000000003
 43
0.0
 44
0.0
 45
-0.15
 46
-0.0000000000000001
 79
     0
 98
        1
 10
0.0
 20
0.0
  0
HATCH
  5
329
330
5D
100
AcDbEntity
  8
1
  6
Continuous
 62
     2
100
AcDbHatch
 10
0.0
 20
0.0
 30
0.0
210
0.0
220
0.0
230
1.0
  2
_USER
 70
     0
 71
     1
 91
        2
 92
        1
 93
       13
 72
     2
 10
155.3161055621215
 20
-115.6535223168009
 40
0.8355765145285912
 50
359.5324065739073
 51
445.9815862299461
 73
     1
 72
     2
 10
155.3000342667233
 20
-113.9710002560295
 40
0.8522732028340286
 50
275.0233190242853
 51
357.7566077588553
 73
     1
 72
     1
 10
156.1516542509982
 20
-114.0043621302671
 11
156.1516542509982
 21
-111.2199999999999
 72
     2
 10
155.1516542509982
 20
-111.2199999999999
 40
1.0
 50
0.0
 51
90.0
 73
     1
 72
     1
 10
155.1516542509982
 20
-110.2199999999999
 11
152.4516542509982
 21
-110.2199999999999
 72
     1
 10
152.4516542509982
 20
-110.2199999999999
 11
152.4516542509982
 21
-119.4199999999999
 72
     1
 10
152.4516542509982
 20
-119.4199999999999
 11
153.6516542509982
 21
-119.4199999999999
 72
     1
 10
153.6516542509982
 20
-119.4199999999999
 11
153.6516542509982
 21
-115.4199999999999
 72
     1
 10
153.6516542509982
 20
-115.4199999999999
 11
154.3016542509982
 21
-115.4199999999999
 72
     2
 10
154.3016542509982
 20
-116.0699999999999
 40
0.6499999999999773
 50
270.0
 51
360.0
 73
     0
 72
     1
 10
154.9516542509982
 20
-116.0699999999999
 11
154.9516542509982
 21
-119.4199999999999
 72
     1
 10
154.9516542509982
 20
-119.4199999999999
 11
156.1516542509982
 21
-119.4199999999999
 72
     1
 10
156.1516542509982
 20
-119.4199999999999
 11
156.1516542509982
 21
-115.6603414185126
 97
       13
330
2BC
330
2BB
330
239
330
2C6
330
238
330
237
330
261
330
279
330
278
330
2DC
330
25F
330
260
330
23A
 92
       16
 93
        6
 72
     2
 10
154.3016542509982
 20
-111.9699999999999
 40
0.6499999999999773
 50
0.0
 51
90.0
 73
     1
 72
     1
 10
154.3016542509982
 20
-111.3199999999999
 11
153.6516542509982
 21
-111.3199999999999
 72
     1
 10
153.6516542509982
 20
-111.3199999999999
 11
153.6516542509982
 21
-114.2199999999999
 72
     1
 10
153.6516542509982
 20
-114.2199999999999
 11
154.3016542509982
 21
-114.2199999999999
 72
     2
 10
154.3016542509982
 20
-113.5699999999999
 40
0.6500000000000057
 50
270.0
 51
360.0
 73
     1
 72
     1
 10
154.9516542509982
 20
-113.5699999999999
 11
154.9516542509982
 21
-111.9699999999999
 97
        6
330
2DB
330
275
330
276
330
277
330
2DD
330
25E
 75
     1
 76
     0
 52
90.00000000000003
 41
0.15
 77
     0
 78
     1
 53
90.00000000000003
 43
0.0
 44
0.0
 45
-0.15
 46
-0.0000000000000001
 79
     0
 98
        1
 10
0.0
 20
0.0
  0
HATCH
  5
32A
330
5D
100
AcDbEntity
  8
1
  6
Continuous
 62
     2
100
AcDbHatch
 10
0.0
 20
0.0
 30
0.0
210
0.0
220
0.0
230
1.0
  2
_USER
 70
     0
 71
     1
 91
        1
 92
        1
 93
       23
 72
     1
 10
159.4516542509982
 20
-117.65758746051
 11
159.4516542509982
 21
-115.9199999999999
 72
     1
 10
159.4516542509982
 20
-115.9199999999999
 11
158.9016542509982
 21
-115.9199999999999
 72
     1
 10
158.9016542509982
 20
-115.9199999999999
 11
158.9016542509982
 21
-114.7199999999999
 72
     1
 10
158.9016542509982
 20
-114.7199999999999
 11
159.7415058473918
 21
-114.7199999999999
 72
     1
 10
159.7415058473918
 20
-114.7199999999999
 11
160.6516542509982
 21
-114.7199999999999
 72
     1
 10
160.6516542509982
 20
-114.7199999999999
 11
160.6516542509982
 21
-119.4199999999999
 72
     1
 10
160.6516542509982
 20
-119.4199999999999
 11
160.1516542509982
 21
-119.4199999999999
 72
     1
 10
160.1516542509982
 20
-119.4199999999999
 11
159.8046153744343
 21
-118.8199999999999
 72
     2
 10
158.8327793484388
 20
-118.3331447179281
 40
1.086965191302833
 50
26.60924039545096
 51
90.8147991292736
 73
     0
 72
     1
 10
158.8173222162131
 20
-119.4199999999999
 11
157.9516542509982
 21
-119.4199999999999
 72
     2
 10
157.9516542509982
 20
-118.4199999999999
 40
1.0
 50
90.0
 51
180.0
 73
     0
 72
     1
 10
156.9516542509982
 20
-118.4199999999999
 11
156.9516542509982
 21
-111.2199999999999
 72
     2
 10
157.9516542509982
 20
-111.2199999999999
 40
1.0
 50
180.0
 51
270.0
 73
     0
 72
     1
 10
157.9516542509982
 20
-110.2199999999999
 11
159.6516542509982
 21
-110.2199999999999
 72
     2
 10
159.6516542509982
 20
-111.2199999999999
 40
1.000000000000085
 50
270.0
 51
360.0
 73
     0
 72
     1
 10
160.6516542509983
 20
-111.2199999999999
 11
160.6516542509982
 21
-113.3199999999999
 72
     1
 10
160.6516542509982
 20
-113.3199999999999
 11
159.4516542509982
 21
-113.3199999999999
 72
     1
 10
159.4516542509982
 20
-113.3199999999999
 11
159.4516542509982
 21
-111.9699999999999
 72
     2
 10
158.8016542509982
 20
-111.9699999999999
 40
0.6499999999999773
 50
0.0
 51
90.0
 73
     1
 72
     2
 10
158.8016542509982
 20
-111.9699999999999
 40
0.6500000000000057
 50
90.0
 51
180.0
 73
     1
 72
     1
 10
158.1516542509982
 20
-111.9699999999999
 11
158.1516542509982
 21
-117.65758746051
 72
     2
 10
158.8016542509982
 20
-117.65758746051
 40
0.6500000000000057
 50
180.0
 51
270.0
 73
     1
 72
     2
 10
158.8016542509982
 20
-117.65758746051
 40
0.6500000000000057
 50
270.0
 51
360.0
 73
     1
 97
       23
330
2E0
330
25C
330
2DE
330
2DF
330
25B
330
23D
330
23E
330
2C8
330
23B
330
2C7
330
256
330
2D5
330
255
330
2BD
330
25A
330
259
330
23C
330
27B
330
269
330
26A
330
26B
330
25D
330
2E1
 75
     1
 76
     0
 52
90.00000000000003
 41
0.15
 77
     0
 78
     1
 53
90.00000000000003
 43
0.0
 44
0.0
 45
-0.15
 46
-0.0000000000000001
 79
     0
 98
        1
 10
0.0
 20
0.0
  0
HATCH
  5
32B
330
5D
100
AcDbEntity
  8
1
  6
Continuous
 62
     2
100
AcDbHatch
 10
0.0
 20
0.0
 30
0.0
210
0.0
220
0.0
230
1.0
  2
_USER
 70
     0
 71
     1
 91
        1
 92
        1
 93
       22
 72
     1
 10
143.7516542509982
 20
-119.4199999999999
 11
143.2516542509982
 21
-119.4199999999999
 72
     1
 10
143.2516542509982
 20
-119.4199999999999
 11
142.9048783308657
 21
-118.8199999999999
 72
     2
 10
141.9264261003899
 20
-118.3227040643326
 40
1.097575516743276
 50
26.94184191294435
 51
91.2932531058712
 73
     0
 72
     1
 10
141.9016542509982
 20
-119.4199999999999
 11
141.0516542509982
 21
-119.4199999999999
 72
     2
 10
141.0516542509982
 20
-118.4199999999999
 40
1.0
 50
90.0
 51
180.0
 73
     0
 72
     1
 10
140.0516542509982
 20
-118.4199999999999
 11
140.0516542509982
 21
-111.2199999999999
 72
     2
 10
141.0516542509982
 20
-111.2199999999999
 40
1.0
 50
180.0
 51
270.0
 73
     0
 72
     1
 10
141.0516542509982
 20
-110.2199999999999
 11
142.7516542509982
 21
-110.2199999999999
 72
     2
 10
142.7516542509982
 20
-111.2199999999999
 40
1.0
 50
270.0
 51
360.0
 73
     0
 72
     1
 10
143.7516542509982
 20
-111.2199999999999
 11
143.7516542509982
 21
-113.3199999999999
 72
     1
 10
143.7516542509982
 20
-113.3199999999999
 11
142.5516542509982
 21
-113.3199999999999
 72
     1
 10
142.5516542509982
 20
-113.3199999999999
 11
142.5516542509982
 21
-111.9699999999999
 72
     2
 10
141.9016542509982
 20
-111.9699999999999
 40
0.6500000000000057
 50
0.0
 51
90.0
 73
     1
 72
     2
 10
141.9016542509982
 20
-111.9699999999999
 40
0.6500000000000057
 50
90.0
 51
180.0
 73
     1
 72
     1
 10
141.2516542509982
 20
-111.9699999999999
 11
141.2516542509982
 21
-117.65758746051
 72
     2
 10
141.9016542509982
 20
-117.65758746051
 40
0.6500000000000057
 50
180.0
 51
270.0
 73
     1
 72
     2
 10
141.9016542509982
 20
-117.65758746051
 40
0.6500000000000057
 50
270.0
 51
360.0
 73
     1
 72
     1
 10
142.5516542509982
 20
-117.65758746051
 11
142.5516542509982
 21
-115.9199999999999
 72
     1
 10
142.5516542509982
 20
-115.9199999999999
 11
141.9927287849846
 21
-115.9199999999999
 72
     1
 10
141.9927287849846
 20
-115.9199999999999
 11
141.9927287849846
 21
-114.7199999999999
 72
     1
 10
141.9927287849846
 20
-114.7199999999999
 11
143.7516542509982
 21
-114.7199999999999
 72
     1
 10
143.7516542509982
 20
-114.7199999999999
 11
143.7516542509982
 21
-119.4199999999999
 97
       22
330
228
330
229
330
226
330
271
330
2E5
330
2E4
330
272
330
2E2
330
2E3
330
273
330
274
330
22B
330
2C0
330
258
330
2D6
330
257
330
2C1
330
232
330
2BA
330
231
330
22A
330
230
 75
     1
 76
     0
 52
90.00000000000003
 41
0.15
 77
     0
 78
     1
 53
90.00000000000003
 43
0.0
 44
0.0
 45
-0.15
 46
-0.0000000000000001
 79
     0
 98
        1
 10
0.0
 20
0.0
  0
ENDBLK
  5
5F
330
5D
100
AcDbEntity
  8
0
100
AcDbBlockEnd
  0
BLOCK
  5
350
330
349
100
AcDbEntity
  8
0
100
AcDbBlockBegin
  2
*D15
 70
     1
 71
     0
 10
0.0
 20
0.0
 30
0.0
  3
*D15
  1

  0
LINE
  5
34A
330
349
100
AcDbEntity
  8
1
  6
Continuous
 62
     2
100
AcDbLine
 10
-162.857132
 20
113.925576206426
 30
0.0
 11
-25.35713199999999
 21
113.925576206426
 31
0.0
  0
LINE
  5
34B
330
349
100
AcDbEntity
  8
1
  6
Continuous
 62
     2
100
AcDbLine
 10
-162.857132
 20
96.993946
 30
0.0
 11
-162.857132
 21
115.925576206426
 31
0.0
  0
LINE
  5
34C
330
349
100
AcDbEntity
  8
1
  6
Continuous
 62
     2
100
AcDbLine
 10
-25.35713199999999
 20
101.4939435
 30
0.0
 11
-25.35713199999999
 21
115.925576206426
 31
0.0
  0
SOLID
  5
34D
330
349
100
AcDbEntity
  8
1
 62
     2
100
AcDbTrace
 10
-155.857132
 20
114.8471436895378
 30
0.0
 11
-155.857132
 21
113.0040087233142
 31
0.0
 12
-162.857132
 22
113.925576206426
 32
0.0
 13
-162.857132
 23
113.925576206426
 33
0.0
  0
SOLID
  5
34E
330
349
100
AcDbEntity
  8
1
 62
     2
100
AcDbTrace
 10
-32.35713199999999
 20
113.0040087233142
 30
0.0
 11
-32.35713199999999
 21
114.8471436895378
 31
0.0
 12
-25.35713199999999
 22
113.925576206426
 32
0.0
 13
-25.35713199999999
 23
113.925576206426
 33
0.0
  0
MTEXT
  5
34F
330
349
100
AcDbEntity
  8
1
 62
     3
100
AcDbMText
 10
-98.7158546761199
 20
117.925576206426
 30
0.0
 40
7.0
 41
0.0
 71
     7
 72
     1
  1
137.5
  7
CONVERTER_15
 11
0.9999999999970621
 21
2.424068405545307E-6
 31
0.0
 73
     1
 44
0.60024009603842
  0
ENDBLK
  5
351
330
349
100
AcDbEntity
  8
0
100
AcDbBlockEnd
  0
BLOCK
  5
35B
330
354
100
AcDbEntity
  8
0
100
AcDbBlockBegin
  2
*D16
 70
     1
 71
     0
 10
0.0
 20
0.0
 30
0.0
  3
*D16
  1

  0
LINE
  5
355
330
354
100
AcDbEntity
  8
1
  6
Continuous
 62
     2
100
AcDbLine
 10
78.8569834123215
 20
18.99394300000002
 30
0.0
 11
78.8569834123215
 21
180.993943
 31
0.0
  0
LINE
  5
356
330
354
100
AcDbEntity
  8
1
  6
Continuous
 62
     2
100
AcDbLine
 10
-25.35713199999999
 20
18.99394300000002
 30
0.0
 11
80.8569834123215
 21
18.99394300000002
 31
0.0
  0
LINE
  5
357
330
354
100
AcDbEntity
  8
1
  6
Continuous
 62
     2
100
AcDbLine
 10
-0.35713199999999
 20
180.993943
 30
0.0
 11
80.8569834123215
 21
180.993943
 31
0.0
  0
SOLID
  5
358
330
354
100
AcDbEntity
  8
1
 62
     2
100
AcDbTrace
 10
77.93541592920973
 20
25.99394300000002
 30
0.0
 11
79.77855089543327
 21
25.99394300000002
 31
0.0
 12
78.8569834123215
 22
18.99394300000002
 32
0.0
 13
78.8569834123215
 23
18.99394300000002
 33
0.0
  0
SOLID
  5
359
330
354
100
AcDbEntity
  8
1
 62
     2
100
AcDbTrace
 10
79.77855089543327
 20
173.993943
 30
0.0
 11
77.93541592920973
 21
173.993943
 31
0.0
 12
78.8569834123215
 22
180.993943
 32
0.0
 13
78.8569834123215
 23
180.993943
 33
0.0
  0
MTEXT
  5
35A
330
354
100
AcDbEntity
  8
1
 62
     3
100
AcDbMText
 10
74.8569834123215
 20
96.466097235012
 30
0.0
 40
7.0
 41
0.0
 71
     7
 72
     1
  1
162
  7
CONVERTER_15
 11
0.0
 21
1.0
 31
0.0
 73
     1
 44
0.60024009603842
  0
ENDBLK
  5
35C
330
354
100
AcDbEntity
  8
0
100
AcDbBlockEnd
  0
BLOCK
  5
366
330
35F
100
AcDbEntity
  8
0
100
AcDbBlockBegin
  2
*D17
 70
     1
 71
     0
 10
0.0
 20
0.0
 30
0.0
  3
*D17
  1

  0
LINE
  5
360
330
35F
100
AcDbEntity
  8
1
  6
Continuous
 62
     2
100
AcDbLine
 10
113.063242926702
 20
18.993943
 30
0.0
 11
113.063242926702
 21
66.493943
 31
0.0
  0
LINE
  5
361
330
35F
100
AcDbEntity
  8
1
  6
Continuous
 62
     2
100
AcDbLine
 10
159.0958684834117
 20
18.993943
 30
0.0
 11
111.063242926702
 21
18.993943
 31
0.0
  0
LINE
  5
362
330
35F
100
AcDbEntity
  8
1
  6
Continuous
 62
     2
100
AcDbLine
 10
232.932261
 20
66.493943
 30
0.0
 11
111.063242926702
 21
66.493943
 31
0.0
  0
SOLID
  5
363
330
35F
100
AcDbEntity
  8
1
 62
     2
100
AcDbTrace
 10
112.1416754435902
 20
25.993943
 30
0.0
 11
113.9848104098138
 21
25.993943
 31
0.0
 12
113.063242926702
 22
18.993943
 32
0.0
 13
113.063242926702
 23
18.993943
 33
0.0
  0
SOLID
  5
364
330
35F
100
AcDbEntity
  8
1
 62
     2
100
AcDbTrace
 10
113.9848104098138
 20
59.493943
 30
0.0
 11
112.1416754435902
 21
59.493943
 31
0.0
 12
113.063242926702
 22
66.493943
 32
0.0
 13
113.063242926702
 23
66.493943
 33
0.0
  0
MTEXT
  5
365
330
35F
100
AcDbEntity
  8
1
 62
     3
100
AcDbMText
 10
109.063242926702
 20
33.4383444848408
 30
0.0
 40
7.0
 41
0.0
 71
     7
 72
     1
  1
47.5
  7
CONVERTER_15
 11
0.0
 21
1.0
 31
0.0
 73
     1
 44
0.60024009603842
  0
ENDBLK
  5
367
330
35F
100
AcDbEntity
  8
0
100
AcDbBlockEnd
  0
BLOCK
  5
371
330
36A
100
AcDbEntity
  8
0
100
AcDbBlockBegin
  2
*D18
 70
     1
 71
     0
 10
0.0
 20
0.0
 30
0.0
  3
*D18
  1

  0
LINE
  5
36B
330
36A
100
AcDbEntity
  8
1
  6
Continuous
 62
     2
100
AcDbLine
 10
157.0958684834117
 20
210.361978348374
 30
0.0
 11
251.0958684834117
 21
210.361978348374
 31
0.0
  0
LINE
  5
36C
330
36A
100
AcDbEntity
  8
1
  6
Continuous
 62
     2
100
AcDbLine
 10
157.0958684834117
 20
178.993943
 30
0.0
 11
157.0958684834117
 21
212.361978348374
 31
0.0
  0
LINE
  5
36D
330
36A
100
AcDbEntity
  8
1
  6
Continuous
 62
     2
100
AcDbLine
 10
251.0958684834117
 20
178.993943
 30
0.0
 11
251.0958684834117
 21
212.361978348374
 31
0.0
  0
SOLID
  5
36E
330
36A
100
AcDbEntity
  8
1
 62
     2
100
AcDbTrace
 10
164.0958684834117
 20
211.2835458314858
 30
0.0
 11
164.0958684834117
 21
209.4404108652622
 31
0.0
 12
157.0958684834117
 22
210.361978348374
 32
0.0
 13
157.0958684834117
 23
210.361978348374
 33
0.0
  0
SOLID
  5
36F
330
36A
100
AcDbEntity
  8
1
 62
     2
100
AcDbTrace
 10
244.0958684834117
 20
209.4404108652622
 30
0.0
 11
244.0958684834117
 21
211.2835458314858
 31
0.0
 12
251.0958684834117
 22
210.361978348374
 32
0.0
 13
251.0958684834117
 23
210.361978348374
 33
0.0
  0
MTEXT
  5
370
330
36A
100
AcDbEntity
  8
1
 62
     3
100
AcDbMText
 10
197.863894955528
 20
214.361978348374
 30
0.0
 40
7.0
 41
0.0
 71
     7
 72
     1
  1
94
  7
CONVERTER_15
 11
0.9999999999970621
 21
2.424068405545307E-6
 31
0.0
 73
     1
 44
0.60024009603842
  0
ENDBLK
  5
372
330
36A
100
AcDbEntity
  8
0
100
AcDbBlockEnd
  0
BLOCK
  5
37C
330
375
100
AcDbEntity
  8
0
100
AcDbBlockBegin
  2
*D19
 70
     1
 71
     0
 10
0.0
 20
0.0
 30
0.0
  3
*D19
  1

  0
LINE
  5
376
330
375
100
AcDbEntity
  8
1
  6
Continuous
 62
     2
100
AcDbLine
 10
62.64286799999999
 20
193.064691663962
 30
0.0
 11
-25.357132
 21
193.064691663962
 31
0.0
  0
LINE
  5
377
330
375
100
AcDbEntity
  8
1
  6
Continuous
 62
     2
100
AcDbLine
 10
62.64286799999999
 20
126.81744386791
 30
0.0
 11
62.64286799999999
 21
195.064691663962
 31
0.0
  0
LINE
  5
378
330
375
100
AcDbEntity
  8
1
  6
Continuous
 62
     2
100
AcDbLine
 10
-25.357132
 20
180.993943
 30
0.0
 11
-25.357132
 21
195.064691663962
 31
0.0
  0
SOLID
  5
379
330
375
100
AcDbEntity
  8
1
 62
     2
100
AcDbTrace
 10
55.64286799999999
 20
192.1431241808502
 30
0.0
 11
55.64286799999999
 21
193.9862591470738
 31
0.0
 12
62.64286799999999
 22
193.064691663962
 32
0.0
 13
62.64286799999999
 23
193.064691663962
 33
0.0
  0
SOLID
  5
37A
330
375
100
AcDbEntity
  8
1
 62
     2
100
AcDbTrace
 10
-18.357132
 20
193.9862591470738
 30
0.0
 11
-18.357132
 21
192.1431241808502
 31
0.0
 12
-25.357132
 22
193.064691663962
 32
0.0
 13
-25.357132
 23
193.064691663962
 33
0.0
  0
MTEXT
  5
37B
330
375
100
AcDbEntity
  8
1
 62
     3
100
AcDbMText
 10
19.25547368259744
 20
197.064691663962
 30
0.0
 40
7.0
 41
0.0
 71
     7
 72
     1
  1
88
  7
CONVERTER_15
 11
0.9999999999970621
 21
2.424068405545307E-6
 31
0.0
 73
     1
 44
0.60024009603842
  0
ENDBLK
  5
37D
330
375
100
AcDbEntity
  8
0
100
AcDbBlockEnd
  0
BLOCK
  5
387
330
380
100
AcDbEntity
  8
0
100
AcDbBlockBegin
  2
*D20
 70
     1
 71
     0
 10
0.0
 20
0.0
 30
0.0
  3
*D20
  1

  0
LINE
  5
381
330
380
100
AcDbEntity
  8
1
  6
Continuous
 62
     2
100
AcDbLine
 10
62.64286799999998
 20
208.361978348374
 30
0.0
 11
-162.857132
 21
208.361978348374
 31
0.0
  0
LINE
  5
382
330
380
100
AcDbEntity
  8
1
  6
Continuous
 62
     2
100
AcDbLine
 10
62.64286799999998
 20
126.81744386791
 30
0.0
 11
62.64286799999998
 21
210.361978348374
 31
0.0
  0
LINE
  5
383
330
380
100
AcDbEntity
  8
1
  6
Continuous
 62
     2
100
AcDbLine
 10
-162.857132
 20
101.493938
 30
0.0
 11
-162.857132
 21
210.361978348374
 31
0.0
  0
SOLID
  5
384
330
380
100
AcDbEntity
  8
1
 62
     2
100
AcDbTrace
 10
55.64286799999998
 20
207.4404108652622
 30
0.0
 11
55.64286799999998
 21
209.2835458314858
 31
0.0
 12
62.64286799999998
 22
208.361978348374
 32
0.0
 13
62.64286799999998
 23
208.361978348374
 33
0.0
  0
SOLID
  5
385
330
380
100
AcDbEntity
  8
1
 62
     2
100
AcDbTrace
 10
-155.857132
 20
209.2835458314858
 30
0.0
 11
-155.857132
 21
207.4404108652622
 31
0.0
 12
-162.857132
 22
208.361978348374
 32
0.0
 13
-162.857132
 23
208.361978348374
 33
0.0
  0
MTEXT
  5
386
330
380
100
AcDbEntity
  8
1
 62
     3
100
AcDbMText
 10
-64.78521652276322
 20
212.361978348374
 30
0.0
 40
7.0
 41
0.0
 71
     7
 72
     1
  1
k ( k1 )
  7
CONVERTER_15
 11
0.9999999999970621
 21
2.424068405545307E-6
 31
0.0
 73
     1
 44
0.60024009603842
  0
ENDBLK
  5
388
330
380
100
AcDbEntity
  8
0
100
AcDbBlockEnd
  0
BLOCK
  5
392
330
38B
100
AcDbEntity
  8
0
100
AcDbBlockBegin
  2
*D21
 70
     1
 71
     0
 10
0.0
 20
0.0
 30
0.0
  3
*D21
  1

  0
LINE
  5
38C
330
38B
100
AcDbEntity
  8
1
  6
Continuous
 62
     2
100
AcDbLine
 10
-185.857133
 20
81.0929102187889
 30
0.0
 11
-162.857133
 21
81.0929102187889
 31
0.0
  0
LINE
  5
38D
330
38B
100
AcDbEntity
  8
1
  6
Continuous
 62
     2
100
AcDbLine
 10
-185.857133
 20
71.493941
 30
0.0
 11
-185.857133
 21
83.0929102187889
 31
0.0
  0
LINE
  5
38E
330
38B
100
AcDbEntity
  8
1
  6
Continuous
 62
     2
100
AcDbLine
 10
-162.857133
 20
72.2439435
 30
0.0
 11
-162.857133
 21
83.0929102187889
 31
0.0
  0
SOLID
  5
38F
330
38B
100
AcDbEntity
  8
1
 62
     2
100
AcDbTrace
 10
-178.857133
 20
82.01447770190067
 30
0.0
 11
-178.857133
 21
80.17134273567713
 31
0.0
 12
-185.857133
 22
81.0929102187889
 32
0.0
 13
-185.857133
 23
81.0929102187889
 33
0.0
  0
SOLID
  5
390
330
38B
100
AcDbEntity
  8
1
 62
     2
100
AcDbTrace
 10
-169.857133
 20
80.17134273567713
 30
0.0
 11
-169.857133
 21
82.01447770190067
 31
0.0
 12
-162.857133
 22
81.0929102187889
 32
0.0
 13
-162.857133
 23
81.0929102187889
 33
0.0
  0
MTEXT
  5
391
330
38B
100
AcDbEntity
  8
1
 62
     3
100
AcDbMText
 10
-179.060374894502
 20
85.0929102187889
 30
0.0
 40
7.0
 41
0.0
 71
     7
 72
     1
  1
23
  7
CONVERTER_15
 11
0.9999999999970621
 21
2.424068405545307E-6
 31
0.0
 73
     1
 44
0.60024009603842
  0
ENDBLK
  5
393
330
38B
100
AcDbEntity
  8
0
100
AcDbBlockEnd
  0
BLOCK
  5
39F
330
396
100
AcDbEntity
  8
0
100
AcDbBlockBegin
  2
*D22
 70
     1
 71
     0
 10
0.0
 20
0.0
 30
0.0
  3
*D22
  1

  0
LINE
  5
397
330
396
100
AcDbEntity
  8
1
  6
Continuous
 62
     2
100
AcDbLine
 10
-165.857133
 20
4.529444841914
 30
0.0
 11
-151.857133
 21
4.529444841914
 31
0.0
  0
LINE
  5
398
330
396
100
AcDbEntity
  8
1
  6
Continuous
 62
     2
100
AcDbLine
 10
-181.857133
 20
4.529444841914
 30
0.0
 11
-165.857133
 21
4.529444841914
 31
0.0
  0
LINE
  5
399
330
396
100
AcDbEntity
  8
1
  6
Continuous
 62
     2
100
AcDbLine
 10
-195.857133
 20
4.529444841914
 30
0.0
 11
-181.857133
 21
4.529444841914
 31
0.0
  0
LINE
  5
39A
330
396
100
AcDbEntity
  8
1
  6
Continuous
 62
     2
100
AcDbLine
 10
-181.857133
 20
66.493944
 30
0.0
 11
-181.857133
 21
2.529444841914
 31
0.0
  0
LINE
  5
39B
330
396
100
AcDbEntity
  8
1
  6
Continuous
 62
     2
100
AcDbLine
 10
-165.857133
 20
66.493944
 30
0.0
 11
-165.857133
 21
2.529444841914
 31
0.0
  0
SOLID
  5
39C
330
396
100
AcDbEntity
  8
1
 62
     2
100
AcDbTrace
 10
-188.857133
 20
3.60787735880223
 30
0.0
 11
-188.857133
 21
5.45101232502577
 31
0.0
 12
-181.857133
 22
4.529444841914
 32
0.0
 13
-181.857133
 23
4.529444841914
 33
0.0
  0
SOLID
  5
39D
330
396
100
AcDbEntity
  8
1
 62
     2
100
AcDbTrace
 10
-158.857133
 20
5.45101232502577
 30
0.0
 11
-158.857133
 21
3.60787735880223
 31
0.0
 12
-165.857133
 22
4.529444841914
 32
0.0
 13
-165.857133
 23
4.529444841914
 33
0.0
  0
MTEXT
  5
39E
330
396
100
AcDbEntity
  8
1
 62
     3
100
AcDbMText
 10
-177.517957780953
 20
8.529444841914
 30
0.0
 40
7.0
 41
0.0
 71
     7
 72
     1
  1
16
  7
CONVERTER_15
 11
0.9999999999970621
 21
2.424068405545307E-6
 31
0.0
 73
     1
 44
0.60024009603842
  0
ENDBLK
  5
3A0
330
396
100
AcDbEntity
  8
0
100
AcDbBlockEnd
  0
BLOCK
  5
3AC
330
3A3
100
AcDbEntity
  8
0
100
AcDbBlockBegin
  2
*D23
 70
     1
 71
     0
 10
0.0
 20
0.0
 30
0.0
  3
*D23
  1

  0
LINE
  5
3A4
330
3A3
100
AcDbEntity
  8
1
  6
Continuous
 62
     2
100
AcDbLine
 10
197.566237
 20
106.094006243593
 30
0.0
 11
210.066577
 21
106.094006243593
 31
0.0
  0
LINE
  5
3A5
330
3A3
100
AcDbEntity
  8
1
  6
Continuous
 62
     2
100
AcDbLine
 10
197.566237
 20
106.094006243593
 30
0.0
 11
183.566237
 21
106.094006243593
 31
0.0
  0
LINE
  5
3A6
330
3A3
100
AcDbEntity
  8
1
  6
Continuous
 62
     2
100
AcDbLine
 10
210.066577
 20
106.094006243593
 30
0.0
 11
224.066577
 21
106.094006243593
 31
0.0
  0
LINE
  5
3A7
330
3A3
100
AcDbEntity
  8
1
  6
Continuous
 62
     2
100
AcDbLine
 10
197.566237
 20
66.493943
 30
0.0
 11
197.566237
 21
108.094006243593
 31
0.0
  0
LINE
  5
3A8
330
3A3
100
AcDbEntity
  8
1
  6
Continuous
 62
     2
100
AcDbLine
 10
210.066577
 20
64.493943
 30
0.0
 11
210.066577
 21
108.094006243593
 31
0.0
  0
SOLID
  5
3A9
330
3A3
100
AcDbEntity
  8
1
 62
     2
100
AcDbTrace
 10
190.566237
 20
105.1724387604812
 30
0.0
 11
190.566237
 21
107.0155737267048
 31
0.0
 12
197.566237
 22
106.094006243593
 32
0.0
 13
197.566237
 23
106.094006243593
 33
0.0
  0
SOLID
  5
3AA
330
3A3
100
AcDbEntity
  8
1
 62
     2
100
AcDbTrace
 10
217.066577
 20
107.0155737267048
 30
0.0
 11
217.066577
 21
105.1724387604812
 31
0.0
 12
210.066577
 22
106.094006243593
 32
0.0
 13
210.066577
 23
106.094006243593
 33
0.0
  0
MTEXT
  5
3AB
330
3A3
100
AcDbEntity
  8
1
 62
     3
100
AcDbMText
 10
173.903934082099
 20
112.369006243593
 30
0.0
 40
7.0
 41
0.0
 71
     7
 72
     1
  1
\C3;12.5\C2;\H4.2;\S^ -0,1;
  7
CONVERTER_15
 11
0.9999999999970621
 21
2.424068405545307E-6
 31
0.0
 73
     1
 44
0.60024009603842
  0
ENDBLK
  5
3AD
330
3A3
100
AcDbEntity
  8
0
100
AcDbBlockEnd
  0
BLOCK
  5
3B9
330
3B0
100
AcDbEntity
  8
0
100
AcDbBlockBegin
  2
*D24
 70
     1
 71
     0
 10
0.0
 20
0.0
 30
0.0
  3
*D24
  1

  0
LINE
  5
3B1
330
3B0
100
AcDbEntity
  8
1
  6
Continuous
 62
     2
100
AcDbLine
 10
224.514455846263
 20
50.49394299999999
 30
0.0
 11
224.514455846263
 21
64.493943
 31
0.0
  0
LINE
  5
3B2
330
3B0
100
AcDbEntity
  8
1
  6
Continuous
 62
     2
100
AcDbLine
 10
224.514455846263
 20
64.493943
 30
0.0
 11
224.514455846263
 21
68.493943
 31
0.0
  0
LINE
  5
3B3
330
3B0
100
AcDbEntity
  8
1
  6
Continuous
 62
     2
100
AcDbLine
 10
224.514455846263
 20
68.493943
 30
0.0
 11
224.514455846263
 21
88.89598593131241
 31
0.0
  0
LINE
  5
3B4
330
3B0
100
AcDbEntity
  8
1
  6
Continuous
 62
     2
100
AcDbLine
 10
210.066577
 20
64.493943
 30
0.0
 11
226.514455846263
 21
64.493943
 31
0.0
  0
LINE
  5
3B5
330
3B0
100
AcDbEntity
  8
1
  6
Continuous
 62
     2
100
AcDbLine
 10
210.066577
 20
68.493943
 30
0.0
 11
226.514455846263
 21
68.493943
 31
0.0
  0
SOLID
  5
3B6
330
3B0
100
AcDbEntity
  8
1
 62
     2
100
AcDbTrace
 10
223.5928883631512
 20
75.493943
 30
0.0
 11
225.4360233293748
 21
75.493943
 31
0.0
 12
224.514455846263
 22
68.493943
 32
0.0
 13
224.514455846263
 23
68.493943
 33
0.0
  0
SOLID
  5
3B7
330
3B0
100
AcDbEntity
  8
1
 62
     2
100
AcDbTrace
 10
225.4360233293748
 20
57.493943
 30
0.0
 11
223.5928883631512
 21
57.493943
 31
0.0
 12
224.514455846263
 22
64.493943
 32
0.0
 13
224.514455846263
 23
64.493943
 33
0.0
  0
MTEXT
  5
3B8
330
3B0
100
AcDbEntity
  8
1
 62
     3
100
AcDbMText
 10
218.764455846263
 20
76.9959859313124
 30
0.0
 40
7.0
 41
0.0
 71
     7
 72
     1
  1
\C3;4\C2;\H4.2;\S^ h9;
  7
CONVERTER_15
 11
0.0
 21
1.0
 31
0.0
 73
     1
 44
0.60024009603842
  0
ENDBLK
  5
3BA
330
3B0
100
AcDbEntity
  8
0
100
AcDbBlockEnd
  0
BLOCK
  5
3C4
330
3BD
100
AcDbEntity
  8
0
100
AcDbBlockBegin
  2
*D25
 70
     1
 71
     0
 10
0.0
 20
0.0
 30
0.0
  3
*D25
  1

  0
LINE
  5
3BE
330
3BD
100
AcDbEntity
  8
1
  6
Continuous
 62
     2
100
AcDbLine
 10
168.066237
 20
-17.21153198078292
 30
0.0
 11
238.066237
 21
-17.21153198078292
 31
0.0
  0
LINE
  5
3BF
330
3BD
100
AcDbEntity
  8
1
  6
Continuous
 62
     2
100
AcDbLine
 10
168.066237
 20
38.20967334352829
 30
0.0
 11
168.066237
 21
-19.21153198078292
 31
0.0
  0
LINE
  5
3C0
330
3BD
100
AcDbEntity
  8
1
  6
Continuous
 62
     2
100
AcDbLine
 10
238.066237
 20
38.20967334352841
 30
0.0
 11
238.066237
 21
-19.21153198078292
 31
0.0
  0
SOLID
  5
3C1
330
3BD
100
AcDbEntity
  8
1
 62
     2
100
AcDbTrace
 10
231.066237
 20
-18.13309946389469
 30
0.0
 11
231.066237
 21
-16.28996449767115
 31
0.0
 12
238.066237
 22
-17.21153198078292
 32
0.0
 13
238.066237
 23
-17.21153198078292
 33
0.0
  0
SOLID
  5
3C2
330
3BD
100
AcDbEntity
  8
1
 62
     2
100
AcDbTrace
 10
175.066237
 20
-16.28996449767115
 30
0.0
 11
175.066237
 21
-18.13309946389469
 31
0.0
 12
168.066237
 22
-17.21153198078292
 32
0.0
 13
168.066237
 23
-17.21153198078292
 33
0.0
  0
MTEXT
  5
3C3
330
3BD
100
AcDbEntity
  8
1
 62
     3
100
AcDbMText
 10
190.1651620269107
 20
-13.21155980908822
 30
0.0
 40
7.0
 41
0.0
 71
     7
 72
     1
  1
\C3;{\Fgdt;8}\C3;70
  7
CONVERTER_15
 11
0.9999999999970621
 21
2.424068405545307E-6
 31
0.0
 73
     1
 44
0.60024009603842
  0
ENDBLK
  5
3C5
330
3BD
100
AcDbEntity
  8
0
100
AcDbBlockEnd
  0
BLOCK
  5
3CF
330
3C8
100
AcDbEntity
  8
0
100
AcDbBlockBegin
  2
*D26
 70
     1
 71
     0
 10
0.0
 20
0.0
 30
0.0
  3
*D26
  1

  0
LINE
  5
3C9
330
3C8
100
AcDbEntity
  8
1
  6
Continuous
 62
     2
100
AcDbLine
 10
-185.857133
 20
172.055926423425
 30
0.0
 11
-162.857132
 21
172.055926423425
 31
0.0
  0
LINE
  5
3CA
330
3C8
100
AcDbEntity
  8
1
  6
Continuous
 62
     2
100
AcDbLine
 10
-185.857133
 20
68.993948
 30
0.0
 11
-185.857133
 21
174.055926423425
 31
0.0
  0
LINE
  5
3CB
330
3C8
100
AcDbEntity
  8
1
  6
Continuous
 62
     2
100
AcDbLine
 10
-162.857132
 20
101.493938
 30
0.0
 11
-162.857132
 21
174.055926423425
 31
0.0
  0
SOLID
  5
3CC
330
3C8
100
AcDbEntity
  8
1
 62
     2
100
AcDbTrace
 10
-178.857133
 20
172.9774939065368
 30
0.0
 11
-178.857133
 21
171.1343589403132
 31
0.0
 12
-185.857133
 22
172.055926423425
 32
0.0
 13
-185.857133
 23
172.055926423425
 33
0.0
  0
SOLID
  5
3CD
330
3C8
100
AcDbEntity
  8
1
 62
     2
100
AcDbTrace
 10
-169.857132
 20
171.1343589403132
 30
0.0
 11
-169.857132
 21
172.9774939065368
 31
0.0
 12
-162.857132
 22
172.055926423425
 32
0.0
 13
-162.857132
 23
172.055926423425
 33
0.0
  0
MTEXT
  5
3CE
330
3C8
100
AcDbEntity
  8
1
 62
     3
100
AcDbMText
 10
-179.411583451277
 20
176.055926423425
 30
0.0
 40
7.0
 41
0.0
 71
     7
 72
     1
  1
23
  7
CONVERTER_15
 11
0.9999999999970621
 21
2.424068405545307E-6
 31
0.0
 73
     1
 44
0.60024009603842
  0
ENDBLK
  5
3D0
330
3C8
100
AcDbEntity
  8
0
100
AcDbBlockEnd
  0
BLOCK
  5
3DC
330
3D3
100
AcDbEntity
  8
0
100
AcDbBlockBegin
  2
*D27
 70
     1
 71
     0
 10
0.0
 20
0.0
 30
0.0
  3
*D27
  1

  0
LINE
  5
3D4
330
3D3
100
AcDbEntity
  8
1
  6
Continuous
 62
     2
100
AcDbLine
 10
-202.838481912616
 20
60.99394000000001
 30
0.0
 11
-202.838481912616
 21
46.99394000000001
 31
0.0
  0
LINE
  5
3D5
330
3D3
100
AcDbEntity
  8
1
  6
Continuous
 62
     2
100
AcDbLine
 10
-202.838481912616
 20
71.99394699999999
 30
0.0
 11
-202.838481912616
 21
60.99394000000001
 31
0.0
  0
LINE
  5
3D6
330
3D3
100
AcDbEntity
  8
1
  6
Continuous
 62
     2
100
AcDbLine
 10
-202.838481912616
 20
85.99394699999999
 30
0.0
 11
-202.838481912616
 21
71.99394699999999
 31
0.0
  0
LINE
  5
3D7
330
3D3
100
AcDbEntity
  8
1
  6
Continuous
 62
     2
100
AcDbLine
 10
-185.5887864335176
 20
71.99394699999999
 30
0.0
 11
-204.838481912616
 21
71.99394699999999
 31
0.0
  0
LINE
  5
3D8
330
3D3
100
AcDbEntity
  8
1
  6
Continuous
 62
     2
100
AcDbLine
 10
-185.5887864335175
 20
60.99394000000001
 30
0.0
 11
-204.838481912616
 21
60.99394000000001
 31
0.0
  0
SOLID
  5
3D9
330
3D3
100
AcDbEntity
  8
1
 62
     2
100
AcDbTrace
 10
-203.7600493957278
 20
78.99394699999999
 30
0.0
 11
-201.9169144295042
 21
78.99394699999999
 31
0.0
 12
-202.838481912616
 22
71.99394699999999
 32
0.0
 13
-202.838481912616
 23
71.99394699999999
 33
0.0
  0
SOLID
  5
3DA
330
3D3
100
AcDbEntity
  8
1
 62
     2
100
AcDbTrace
 10
-201.9169144295042
 20
53.99394000000001
 30
0.0
 11
-203.7600493957278
 21
53.99394000000001
 31
0.0
 12
-202.838481912616
 22
60.99394000000001
 32
0.0
 13
-202.838481912616
 23
60.99394000000001
 33
0.0
  0
MTEXT
  5
3DB
330
3D3
100
AcDbEntity
  8
1
 62
     3
100
AcDbMText
 10
-208.588481912616
 20
51.5555625852109
 30
0.0
 40
7.0
 41
0.0
 71
     7
 72
     1
  1
\C3;{\Fgdt;n}\C3;\C3;11\C2;\H4.2;\S^ k5;
  7
CONVERTER_15
 11
0.0
 21
1.0
 31
0.0
 73
     1
 44
0.60024009603842
  0
ENDBLK
  5
3DD
330
3D3
100
AcDbEntity
  8
0
100
AcDbBlockEnd
  0
BLOCK
  5
3E9
330
3E0
100
AcDbEntity
  8
0
100
AcDbBlockBegin
  2
*D28
 70
     1
 71
     0
 10
0.0
 20
0.0
 30
0.0
  3
*D28
  1

  0
LINE
  5
3E1
330
3E0
100
AcDbEntity
  8
1
  6
Continuous
 62
     2
100
AcDbLine
 10
-165.35713
 20
134.476610848536
 30
0.0
 11
-179.35713
 21
134.476610848536
 31
0.0
  0
LINE
  5
3E2
330
3E0
100
AcDbEntity
  8
1
  6
Continuous
 62
     2
100
AcDbLine
 10
-162.857132
 20
134.476610848536
 30
0.0
 11
-165.35713
 21
134.476610848536
 31
0.0
  0
LINE
  5
3E3
330
3E0
100
AcDbEntity
  8
1
  6
Continuous
 62
     2
100
AcDbLine
 10
-148.857132
 20
134.476610848536
 30
0.0
 11
-162.857132
 21
134.476610848536
 31
0.0
  0
LINE
  5
3E4
330
3E0
100
AcDbEntity
  8
1
  6
Continuous
 62
     2
100
AcDbLine
 10
-162.857132
 20
96.993946
 30
0.0
 11
-162.857132
 21
136.476610848536
 31
0.0
  0
LINE
  5
3E5
330
3E0
100
AcDbEntity
  8
1
  6
Continuous
 62
     2
100
AcDbLine
 10
-165.35713
 20
96.359974
 30
0.0
 11
-165.35713
 21
136.476610848536
 31
0.0
  0
SOLID
  5
3E6
330
3E0
100
AcDbEntity
  8
1
 62
     2
100
AcDbTrace
 10
-155.857132
 20
135.3981783316478
 30
0.0
 11
-155.857132
 21
133.5550433654242
 31
0.0
 12
-162.857132
 22
134.476610848536
 32
0.0
 13
-162.857132
 23
134.476610848536
 33
0.0
  0
SOLID
  5
3E7
330
3E0
100
AcDbEntity
  8
1
 62
     2
100
AcDbTrace
 10
-172.35713
 20
133.5550433654242
 30
0.0
 11
-172.35713
 21
135.3981783316478
 31
0.0
 12
-165.35713
 22
134.476610848536
 32
0.0
 13
-165.35713
 23
134.476610848536
 33
0.0
  0
MTEXT
  5
3E8
330
3E0
100
AcDbEntity
  8
1
 62
     3
100
AcDbMText
 10
-178.565540667404
 20
138.476610848536
 30
0.0
 40
7.0
 41
0.0
 71
     7
 72
     1
  1
2.5
  7
CONVERTER_15
 11
0.9999999999970621
 21
2.424068405545307E-6
 31
0.0
 73
     1
 44
0.60024009603842
  0
ENDBLK
  5
3EA
330
3E0
100
AcDbEntity
  8
0
100
AcDbBlockEnd
  0
BLOCK
  5
3F6
330
3ED
100
AcDbEntity
  8
0
100
AcDbBlockBegin
  2
*D29
 70
     1
 71
     0
 10
0.0
 20
0.0
 30
0.0
  3
*D29
  1

  0
LINE
  5
3EE
330
3ED
100
AcDbEntity
  8
1
  6
Continuous
 62
     2
100
AcDbLine
 10
193.549735
 20
3.525688664546
 30
0.0
 11
179.549735
 21
3.525688664546
 31
0.0
  0
LINE
  5
3EF
330
3ED
100
AcDbEntity
  8
1
  6
Continuous
 62
     2
100
AcDbLine
 10
173.549735
 20
3.525688664546
 30
0.0
 11
179.549735
 21
3.525688664546
 31
0.0
  0
LINE
  5
3F0
330
3ED
100
AcDbEntity
  8
1
  6
Continuous
 62
     2
100
AcDbLine
 10
173.549735
 20
3.525688664546
 30
0.0
 11
154.796253509056
 21
3.525688664546
 31
0.0
  0
LINE
  5
3F1
330
3ED
100
AcDbEntity
  8
1
  6
Continuous
 62
     2
100
AcDbLine
 10
173.549735
 20
39.977442
 30
0.0
 11
173.549735
 21
1.525688664546
 31
0.0
  0
LINE
  5
3F2
330
3ED
100
AcDbEntity
  8
1
  6
Continuous
 62
     2
100
AcDbLine
 10
179.549735
 20
39.977442
 30
0.0
 11
179.549735
 21
1.525688664546
 31
0.0
  0
SOLID
  5
3F3
330
3ED
100
AcDbEntity
  8
1
 62
     2
100
AcDbTrace
 10
166.549735
 20
2.60412118143423
 30
0.0
 11
166.549735
 21
4.44725614765777
 31
0.0
 12
173.549735
 22
3.525688664546
 32
0.0
 13
173.549735
 23
3.525688664546
 33
0.0
  0
SOLID
  5
3F4
330
3ED
100
AcDbEntity
  8
1
 62
     2
100
AcDbTrace
 10
186.549735
 20
4.44725614765777
 30
0.0
 11
186.549735
 21
2.60412118143423
 31
0.0
 12
179.549735
 22
3.525688664546
 32
0.0
 13
179.549735
 23
3.525688664546
 33
0.0
  0
MTEXT
  5
3F5
330
3ED
100
AcDbEntity
  8
1
 62
     3
100
AcDbMText
 10
150.7362535090897
 20
7.5256608362407
 30
0.0
 40
7.0
 41
0.0
 71
     7
 72
     1
  1
\C3;{\Fgdt;n}\C3;6
  7
CONVERTER_15
 11
0.9999999999970621
 21
2.424068405545307E-6
 31
0.0
 73
     1
 44
0.60024009603842
  0
ENDBLK
  5
3F7
330
3ED
100
AcDbEntity
  8
0
100
AcDbBlockEnd
  0
BLOCK
  5
401
330
3FA
100
AcDbEntity
  8
0
100
AcDbBlockBegin
  2
*D30
 70
     1
 71
     0
 10
0.0
 20
0.0
 30
0.0
  3
*D30
  1

  0
LINE
  5
3FB
330
3FA
100
AcDbEntity
  8
1
  6
Continuous
 62
     2
100
AcDbLine
 10
-220.931161091997
 20
36.49394599999998
 30
0.0
 11
-220.931161091997
 21
96.493953
 31
0.0
  0
LINE
  5
3FC
330
3FA
100
AcDbEntity
  8
1
  6
Continuous
 62
     2
100
AcDbLine
 10
-164.857131
 20
36.49394599999998
 30
0.0
 11
-222.931161091997
 21
36.49394599999998
 31
0.0
  0
LINE
  5
3FD
330
3FA
100
AcDbEntity
  8
1
  6
Continuous
 62
     2
100
AcDbLine
 10
-165.357131
 20
96.493953
 30
0.0
 11
-222.931161091997
 21
96.493953
 31
0.0
  0
SOLID
  5
3FE
330
3FA
100
AcDbEntity
  8
1
 62
     2
100
AcDbTrace
 10
-221.8527285751088
 20
43.49394599999998
 30
0.0
 11
-220.0095936088852
 21
43.49394599999998
 31
0.0
 12
-220.931161091997
 22
36.49394599999998
 32
0.0
 13
-220.931161091997
 23
36.49394599999998
 33
0.0
  0
SOLID
  5
3FF
330
3FA
100
AcDbEntity
  8
1
 62
     2
100
AcDbTrace
 10
-220.0095936088852
 20
89.493953
 30
0.0
 11
-221.8527285751088
 21
89.493953
 31
0.0
 12
-220.931161091997
 22
96.493953
 32
0.0
 13
-220.931161091997
 23
96.493953
 33
0.0
  0
MTEXT
  5
400
330
3FA
100
AcDbEntity
  8
1
 62
     3
100
AcDbMText
 10
-228.256161091997
 20
50.89877114198561
 30
0.0
 40
7.0
 41
0.0
 71
     7
 72
     1
  1
\C3;{\Fgdt;n}\C3;\C3;60\C2;\H4.2;\S^ j6;
  7
CONVERTER_15
 11
0.0
 21
1.0
 31
0.0
 73
     1
 44
0.60024009603842
  0
ENDBLK
  5
402
330
3FA
100
AcDbEntity
  8
0
100
AcDbBlockEnd
  0
BLOCK
  5
40E
330
405
100
AcDbEntity
  8
0
100
AcDbBlockBegin
  2
*D31
 70
     1
 71
     0
 10
0.0
 20
0.0
 30
0.0
  3
*D31
  1

  0
LINE
  5
406
330
405
100
AcDbEntity
  8
1
  6
Continuous
 62
     2
100
AcDbLine
 10
-181.857133
 20
19.2802042264495
 30
0.0
 11
-167.857133
 21
19.2802042264495
 31
0.0
  0
LINE
  5
407
330
405
100
AcDbEntity
  8
1
  6
Continuous
 62
     2
100
AcDbLine
 10
-185.857133
 20
19.2802042264495
 30
0.0
 11
-181.857133
 21
19.2802042264495
 31
0.0
  0
LINE
  5
408
330
405
100
AcDbEntity
  8
1
  6
Continuous
 62
     2
100
AcDbLine
 10
-199.857133
 20
19.2802042264495
 30
0.0
 11
-185.857133
 21
19.2802042264495
 31
0.0
  0
LINE
  5
409
330
405
100
AcDbEntity
  8
1
  6
Continuous
 62
     2
100
AcDbLine
 10
-185.857133
 20
61.493946
 30
0.0
 11
-185.857133
 21
17.2802042264495
 31
0.0
  0
LINE
  5
40A
330
405
100
AcDbEntity
  8
1
  6
Continuous
 62
     2
100
AcDbLine
 10
-181.857133
 20
66.493944
 30
0.0
 11
-181.857133
 21
17.2802042264495
 31
0.0
  0
SOLID
  5
40B
330
405
100
AcDbEntity
  8
1
 62
     2
100
AcDbTrace
 10
-192.857133
 20
18.35863674333773
 30
0.0
 11
-192.857133
 21
20.20177170956127
 31
0.0
 12
-185.857133
 22
19.2802042264495
 32
0.0
 13
-185.857133
 23
19.2802042264495
 33
0.0
  0
SOLID
  5
40C
330
405
100
AcDbEntity
  8
1
 62
     2
100
AcDbTrace
 10
-174.857133
 20
20.20177170956127
 30
0.0
 11
-174.857133
 21
18.35863674333773
 31
0.0
 12
-181.857133
 22
19.2802042264495
 32
0.0
 13
-181.857133
 23
19.2802042264495
 33
0.0
  0
MTEXT
  5
40D
330
405
100
AcDbEntity
  8
1
 62
     3
100
AcDbMText
 10
-195.505636960334
 20
23.2802042264495
 30
0.0
 40
7.0
 41
0.0
 71
     7
 72
     1
  1
4
  7
CONVERTER_15
 11
0.9999999999970621
 21
2.424068405545307E-6
 31
0.0
 73
     1
 44
0.60024009603842
  0
ENDBLK
  5
40F
330
405
100
AcDbEntity
  8
0
100
AcDbBlockEnd
  0
BLOCK
  5
41B
330
412
100
AcDbEntity
  8
0
100
AcDbBlockBegin
  2
*D32
 70
     1
 71
     0
 10
0.0
 20
0.0
 30
0.0
  3
*D32
  1

  0
LINE
  5
413
330
412
100
AcDbEntity
  8
1
  6
Continuous
 62
     2
100
AcDbLine
 10
-154.857136
 20
151.33462157372
 30
0.0
 11
-140.857136
 21
151.33462157372
 31
0.0
  0
LINE
  5
414
330
412
100
AcDbEntity
  8
1
  6
Continuous
 62
     2
100
AcDbLine
 10
-162.857132
 20
151.33462157372
 30
0.0
 11
-154.857136
 21
151.33462157372
 31
0.0
  0
LINE
  5
415
330
412
100
AcDbEntity
  8
1
  6
Continuous
 62
     2
100
AcDbLine
 10
-176.857132
 20
151.33462157372
 30
0.0
 11
-162.857132
 21
151.33462157372
 31
0.0
  0
LINE
  5
416
330
412
100
AcDbEntity
  8
1
  6
Continuous
 62
     2
100
AcDbLine
 10
-162.857132
 20
101.493938
 30
0.0
 11
-162.857132
 21
153.33462157372
 31
0.0
  0
LINE
  5
417
330
412
100
AcDbEntity
  8
1
  6
Continuous
 62
     2
100
AcDbLine
 10
-154.857136
 20
101.493938
 30
0.0
 11
-154.857136
 21
153.33462157372
 31
0.0
  0
SOLID
  5
418
330
412
100
AcDbEntity
  8
1
 62
     2
100
AcDbTrace
 10
-169.857132
 20
150.4130540906082
 30
0.0
 11
-169.857132
 21
152.2561890568318
 31
0.0
 12
-162.857132
 22
151.33462157372
 32
0.0
 13
-162.857132
 23
151.33462157372
 33
0.0
  0
SOLID
  5
419
330
412
100
AcDbEntity
  8
1
 62
     2
100
AcDbTrace
 10
-147.857136
 20
152.2561890568318
 30
0.0
 11
-147.857136
 21
150.4130540906082
 31
0.0
 12
-154.857136
 22
151.33462157372
 32
0.0
 13
-154.857136
 23
151.33462157372
 33
0.0
  0
MTEXT
  5
41A
330
412
100
AcDbEntity
  8
1
 62
     3
100
AcDbMText
 10
-153.360610147375
 20
155.33462157372
 30
0.0
 40
7.0
 41
0.0
 71
     7
 72
     1
  1
8
  7
CONVERTER_15
 11
0.9999999999970621
 21
2.424068405545307E-6
 31
0.0
 73
     1
 44
0.60024009603842
  0
ENDBLK
  5
41C
330
412
100
AcDbEntity
  8
0
100
AcDbBlockEnd
  0
BLOCK
  5
426
330
41F
100
AcDbEntity
  8
0
100
AcDbBlockBegin
  2
*D33
 70
     1
 71
     0
 10
0.0
 20
0.0
 30
0.0
  3
*D33
  1

  0
LINE
  5
420
330
41F
100
AcDbEntity
  8
1
  6
Continuous
 62
     2
100
AcDbLine
 10
130.815721365967
 20
31.49394799999999
 30
0.0
 11
130.815721365967
 21
66.493943
 31
0.0
  0
LINE
  5
421
330
41F
100
AcDbEntity
  8
1
  6
Continuous
 62
     2
100
AcDbLine
 10
174.7819611563447
 20
31.49394799999999
 30
0.0
 11
128.815721365967
 21
31.49394799999999
 31
0.0
  0
LINE
  5
422
330
41F
100
AcDbEntity
  8
1
  6
Continuous
 62
     2
100
AcDbLine
 10
161.698176188591
 20
66.493943
 30
0.0
 11
128.815721365967
 21
66.493943
 31
0.0
  0
SOLID
  5
423
330
41F
100
AcDbEntity
  8
1
 62
     2
100
AcDbTrace
 10
129.8941538828552
 20
38.49394799999999
 30
0.0
 11
131.7372888490788
 21
38.49394799999999
 31
0.0
 12
130.815721365967
 22
31.49394799999999
 32
0.0
 13
130.815721365967
 23
31.49394799999999
 33
0.0
  0
SOLID
  5
424
330
41F
100
AcDbEntity
  8
1
 62
     2
100
AcDbTrace
 10
131.7372888490788
 20
59.493943
 30
0.0
 11
129.8941538828552
 21
59.493943
 31
0.0
 12
130.815721365967
 22
66.493943
 32
0.0
 13
130.815721365967
 23
66.493943
 33
0.0
  0
MTEXT
  5
425
330
41F
100
AcDbEntity
  8
1
 62
     3
100
AcDbMText
 10
126.815721365967
 20
42.33064554307629
 30
0.0
 40
7.0
 41
0.0
 71
     7
 72
     1
  1
35
  7
CONVERTER_15
 11
0.0
 21
1.0
 31
0.0
 73
     1
 44
0.60024009603842
  0
ENDBLK
  5
427
330
41F
100
AcDbEntity
  8
0
100
AcDbBlockEnd
  0
BLOCK
  5
42F
330
42A
100
AcDbEntity
  8
0
100
AcDbBlockBegin
  2
*D34
 70
     1
 71
     0
 10
0.0
 20
0.0
 30
0.0
  3
*D34
  1

  0
LINE
  5
42B
330
42A
100
AcDbEntity
  8
1
  6
Continuous
 62
     2
100
AcDbLine
 10
163.1558997060362
 20
62.56366127461138
 30
0.0
 11
146.1328027122656
 21
45.54056428084088
 31
0.0
  0
LINE
  5
42C
330
42A
100
AcDbEntity
  8
1
  6
Continuous
 62
     2
100
AcDbLine
 10
171.2464325537121
 20
34.67413855371211
 30
0.0
 11
151.8421912070514
 21
54.07837990037282
 31
0.0
  0
SOLID
  5
42D
330
42A
100
AcDbEntity
  8
1
 62
     2
100
AcDbTrace
 10
157.554505621101
 20
58.26556042293489
 30
0.0
 11
158.8577988543597
 21
56.96226718967618
 31
0.0
 12
153.2564047694245
 22
52.66416633799972
 32
0.0
 13
153.2564047694245
 23
52.66416633799972
 33
0.0
  0
MTEXT
  5
42E
330
42A
100
AcDbEntity
  8
1
 62
     3
100
AcDbMText
 10
143.3043755875194
 20
48.36899140558708
 30
0.0
 40
7.0
 41
0.0
 71
     7
 72
     1
  1
90
  7
CONVERTER_15
 11
0.7071067811865483
 21
0.7071067811865467
 31
0.0
 73
     1
 44
0.60024009603842
  0
ENDBLK
  5
430
330
42A
100
AcDbEntity
  8
0
100
AcDbBlockEnd
  0
BLOCK
  5
437
330
432
100
AcDbEntity
  8
0
100
AcDbBlockBegin
  2
*D35
 70
     1
 71
     0
 10
0.0
 20
0.0
 30
0.0
  3
*D35
  1

  0
LINE
  5
433
330
432
100
AcDbEntity
  8
1
  6
Continuous
 62
     2
100
AcDbLine
 10
235.6043694098897
 20
47.85205631231496
 30
0.0
 11
134.4904004575896
 21
105.7827060498508
 31
0.0
  0
SOLID
  5
434
330
432
100
AcDbEntity
  8
1
 62
     2
100
AcDbTrace
 10
177.0600161491623
 20
82.45563976705417
 30
0.0
 11
176.1437624640837
 21
80.85638191158006
 31
0.0
 12
170.5281045901103
 22
85.13582968768503
 32
0.0
 13
170.5281045901103
 23
85.13582968768503
 33
0.0
  0
SOLID
  5
435
330
432
100
AcDbEntity
  8
1
 62
     2
100
AcDbTrace
 10
229.0724578508376
 20
50.53224623294583
 30
0.0
 11
229.9887115359163
 21
52.13150408841993
 31
0.0
 12
235.6043694098897
 22
47.85205631231496
 32
0.0
 13
235.6043694098897
 23
47.85205631231496
 33
0.0
  0
MTEXT
  5
436
330
432
100
AcDbEntity
  8
1
 62
     3
100
AcDbMText
 10
132.9560732353653
 20
111.2717351056257
 30
0.0
 40
7.0
 41
0.0
 71
     7
 72
     1
  1
\C3;{\Fgdt;n}\C3;75
  7
CONVERTER_15
 11
0.8676835309303911
 21
-0.4971169783382675
 31
0.0
 73
     1
 44
0.60024009603842
  0
ENDBLK
  5
438
330
432
100
AcDbEntity
  8
0
100
AcDbBlockEnd
  0
BLOCK
  5
443
330
43A
100
AcDbEntity
  8
0
100
AcDbBlockBegin
  2
*D36
 70
     1
 71
     0
 10
0.0
 20
0.0
 30
0.0
  3
*D36
  1

  0
LINE
  5
43B
330
43A
100
AcDbEntity
  8
1
  6
Continuous
 62
     2
100
AcDbLine
 10
203.066237
 20
0.64236848870343
 30
0.0
 11
203.066237
 21
-1.35763151129657
 31
0.0
  0
LINE
  5
43C
330
43A
100
AcDbEntity
  8
1
  6
Continuous
 62
     2
100
AcDbLine
 10
249.630331888749
 20
19.929848111251
 30
0.0
 11
251.0445454511221
 21
18.51563454887791
 31
0.0
  0
LINE
  5
43D
330
43A
100
AcDbEntity
  8
1
  6
Continuous
 62
     2
100
AcDbLine
 10
203.066237
 20
24.82182444297899
 30
0.0
 11
203.066237
 21
0.64236848870343
 31
0.0
  0
LINE
  5
43E
330
43A
100
AcDbEntity
  8
1
  6
Continuous
 62
     2
100
AcDbLine
 10
232.828274622966
 20
36.731905377034
 30
0.0
 11
249.630331888749
 21
19.929848111251
 31
0.0
  0
ARC
  5
43F
330
43A
100
AcDbEntity
  8
1
  6
Continuous
 62
     2
100
AcDbCircle
 10
203.066237
 20
66.49394299999997
 30
0.0
 40
65.85157451129655
100
AcDbArc
 50
-90.0
 51
-44.99999999999996
  0
SOLID
  5
440
330
43A
100
AcDbEntity
  8
1
 62
     2
100
AcDbTrace
 10
210.0073940644801
 20
1.93450827686365
 30
0.0
 11
210.1053102590207
 21
0.09397603792771
 31
0.0
 12
203.066237
 22
0.64236848870343
 32
0.0
 13
203.066237
 23
0.64236848870343
 33
0.0
  0
SOLID
  5
441
330
43A
100
AcDbEntity
  8
1
 62
     2
100
AcDbTrace
 10
245.0407274747216
 20
14.56469965583351
 30
0.0
 11
243.8085118527252
 21
15.93538968812524
 31
0.0
 12
249.630331888749
 22
19.929848111251
 32
0.0
 13
249.630331888749
 23
19.929848111251
 33
0.0
  0
MTEXT
  5
442
330
43A
100
AcDbEntity
  8
1
 62
     3
100
AcDbMText
 10
216.4129349998356
 20
5.78621266828973
 30
0.0
 40
7.0
 41
0.0
 71
     7
 72
     1
  1
45{\Fgdt;~}
  7
CONVERTER_15
 11
0.950587105832348
 21
0.3104579749745215
 31
0.0
 73
     1
 44
0.60024009603842
  0
ENDBLK
  5
444
330
43A
100
AcDbEntity
  8
0
100
AcDbBlockEnd
  0
ENDSEC
  0
SECTION
  2
ENTITIES
  0
INSERT
  5
60
330
1F
100
AcDbEntity
  8
0
100
AcDbBlockReference
  2
Servoverst_rker
 10
-77.90413151658831
 20
72.993943
 30
0.0
  0
INSERT
  5
61
330
1F
100
AcDbEntity
  8
1
100
AcDbBlockReference
  2
Pa_feder
 10
-184.1280563362179
 20
-408.4746401702008
 30
0.0
  0
INSERT
  5
62
330
1F
100
AcDbEntity
  8
0
100
AcDbBlockReference
  2
Flachlagerschild_B5_A90
 10
-106.8409087114539
 20
-175.1936780950078
 30
0.0
  0
INSERT
  5
63
330
1F
100
AcDbEntity
  8
0
100
AcDbBlockReference
  2
Rotor
 10
-122.9699995878999
 20
-109.8445518022832
 30
0.0
  0
INSERT
  5
64
330
1F
100
AcDbEntity
  8
0
100
AcDbBlockReference
  2
Sechskantschraube
 10
-236.965839510263
 20
223.798053367213
 30
0.0
  0
INSERT
  5
65
330
1F
100
AcDbEntity
  8
1
100
AcDbBlockReference
  2
Geh_use
 10
-108.357138
 20
31.49394799999999
 30
0.0
  0
INSERT
  5
66
330
1F
100
AcDbEntity
  8
1
100
AcDbBlockReference
  2
Lagerschild_B-Seite
 10
-68.357133
 20
31.11894699999999
 30
0.0
  0
INSERT
  5
67
330
1F
100
AcDbEntity
  8
1
100
AcDbBlockReference
  2
Abschlu_deckel
 10
38.14486079627153
 20
31.4939440395313
 30
0.0
  0
INSERT
  5
68
330
1F
100
AcDbEntity
  8
1
100
AcDbBlockReference
  2
Steckerplatte
 10
-57.10713000000001
 20
99.63118800000001
 30
0.0
  0
INSERT
  5
69
330
1F
100
AcDbEntity
  8
1
100
AcDbBlockReference
  2
tb_frame_A3
 10
0.0
 20
0.0
 30
0.0
 41
2.0
 42
2.0
 43
2.0
  0
LINE
  5
32C
330
1F
100
AcDbEntity
  8
1
  6
Continuous
 62
     2
100
AcDbLine
 10
-156.3419693271969
 20
-177.23854213191
 30
0.0
 11
-156.3419693271969
 21
-271.83854213191
 31
0.0
  0
LINE
  5
32D
330
1F
100
AcDbEntity
  8
1
  6
Continuous
 62
     2
100
AcDbLine
 10
-365.184353433157
 20
-253.83854213191
 30
0.0
 11
-156.3419693271969
 21
-253.83854213191
 31
0.0
  0
LINE
  5
32E
330
1F
100
AcDbEntity
  8
1
  6
Continuous
 62
     2
100
AcDbLine
 10
-365.184353433157
 20
-217.83854213191
 30
0.0
 11
-156.3419693271969
 21
-217.83854213191
 31
0.0
  0
LINE
  5
32F
330
1F
100
AcDbEntity
  8
1
  6
Continuous
 62
     2
100
AcDbLine
 10
-188.3419693271968
 20
-177.23854213191
 30
0.0
 11
-188.3419693271968
 21
-271.83854213191
 31
0.0
  0
LINE
  5
330
330
1F
100
AcDbEntity
  8
1
  6
Continuous
 62
     7
100
AcDbLine
 10
-365.184353433157
 20
-177.23854213191
 30
0.0
 11
-156.3419693271969
 21
-177.23854213191
 31
0.0
  0
LINE
  5
331
330
1F
100
AcDbEntity
  8
1
  6
Continuous
 62
     7
100
AcDbLine
 10
-365.184353433157
 20
-199.83854213191
 30
0.0
 11
-156.3419693271969
 21
-199.83854213191
 31
0.0
  0
LINE
  5
332
330
1F
100
AcDbEntity
  8
1
  6
Continuous
 62
     7
100
AcDbLine
 10
-365.184353433157
 20
-177.23854213191
 30
0.0
 11
-365.184353433157
 21
-271.83854213191
 31
0.0
  0
LINE
  5
333
330
1F
100
AcDbEntity
  8
1
  6
Continuous
 62
     7
100
AcDbLine
 10
-365.184353433157
 20
-271.83854213191
 30
0.0
 11
-156.3419693271969
 21
-271.83854213191
 31
0.0
  0
LINE
  5
334
330
1F
100
AcDbEntity
  8
1
  6
Continuous
 62
     2
100
AcDbLine
 10
-220.3419693271966
 20
-177.23854213191
 30
0.0
 11
-220.3419693271966
 21
-271.83854213191
 31
0.0
  0
LINE
  5
335
330
1F
100
AcDbEntity
  8
1
  6
Continuous
 62
     2
100
AcDbLine
 10
-365.184353433157
 20
-235.83854213191
 30
0.0
 11
-156.3419693271969
 21
-235.83854213191
 31
0.0
  0
LEADER
  5
336
330
1F
100
AcDbEntity
  8
1
  6
Continuous
 62
     2
100
AcDbLeader
  3
Standard
 71
     0
 76
     5
 10
-188.597623670963
 20
64.41010687271901
 30
0.0
 10
-185.857133
 20
66.4939435
 30
0.0
 10
-191.139340909585
 20
69.173296707638
 30
0.0
 10
-191.139340909585
 20
139.243943
 30
0.0
 10
-245.467254336301
 20
139.243943
 30
0.0
  0
MTEXT
  5
337
330
1F
100
AcDbEntity
  8
1
 62
     2
100
AcDbMText
 10
-205.1855675385678
 20
-182.322998095504
 30
0.0
 40
3.2
 41
0.0
 71
     5
 72
     1
  1
mit Bremse
  7
CONVERTER_15
 73
     1
 44
1.32052821128451
  0
MTEXT
  5
338
330
1F
100
AcDbEntity
  8
1
 62
     3
100
AcDbMText
 10
-205.3419693271966
 20
-226.33854213191
 30
0.0
 40
7.0
 41
0.0
 71
     5
 72
     1
  1
314
  7
CONVERTER_15
 73
     1
 44
1.32052821128451
  0
MTEXT
  5
339
330
1F
100
AcDbEntity
  8
1
 62
     3
100
AcDbMText
 10
-173.3419693271968
 20
-226.33854213191
 30
0.0
 40
7.0
 41
0.0
 71
     5
 72
     1
  1
266
  7
CONVERTER_15
 73
     1
 44
1.32052821128451
  0
MTEXT
  5
33A
330
1F
100
AcDbEntity
  8
1
 62
     3
100
AcDbMText
 10
-360.184353433157
 20
-226.33854213191
 30
0.0
 40
7.0
 41
0.0
 71
     4
 72
     1
  1
KSD 268.xx D(-MD)-R4/xx/2/..
  7
CONVERTER_15
 73
     1
 44
1.32052821128451
  0
MTEXT
  5
33B
330
1F
100
AcDbEntity
  8
1
 62
     3
100
AcDbMText
 10
-325.170337009802
 20
-161.8158499658939
 30
0.0
 40
7.0
 41
0.0
 71
     4
 72
     1
  1
/S23 = mit Paßfedernut\P-MD  = mit Bremse
  7
CONVERTER_15
 73
     1
 44
1.32052821128451
  0
MTEXT
  5
33C
330
1F
100
AcDbEntity
  8
1
 62
     3
100
AcDbMText
 10
-238.947800171547
 20
128.1632981631804
 30
0.0
 40
7.0
 41
0.0
 71
     7
 72
     1
  1
Zentrierung\PM4 DIN 332
  7
CONVERTER_15
 73
     1
 44
1.32052821128451
  0
MTEXT
  5
33D
330
1F
100
AcDbEntity
  8
1
 62
     3
100
AcDbMText
 10
-360.184353433157
 20
-208.33854213191
 30
0.0
 40
7.0
 41
0.0
 71
     4
 72
     1
  1
KSD 264.xx D(-MD)-R4/xx/2/..
  7
CONVERTER_15
 73
     1
 44
1.32052821128451
  0
MTEXT
  5
33E
330
1F
100
AcDbEntity
  8
1
 62
     3
100
AcDbMText
 10
-360.184353433157
 20
-188.63854213191
 30
0.0
 40
7.0
 41
0.0
 71
     4
 72
     1
  1
KSD -Typ
  7
CONVERTER_15
 73
     1
 44
1.32052821128451
  0
MTEXT
  5
33F
330
1F
100
AcDbEntity
  8
1
 62
     3
100
AcDbMText
 10
-175.3419693271968
 20
-190.63854213191
 30
0.0
 40
7.0
 41
0.0
 71
     5
 72
     1
  1
k
  7
CONVERTER_15
 73
     1
 44
1.32052821128451
  0
MTEXT
  5
340
330
1F
100
AcDbEntity
  8
1
 62
     3
100
AcDbMText
 10
-173.3419693271968
 20
-208.33854213191
 30
0.0
 40
7.0
 41
0.0
 71
     5
 72
     1
  1
226
  7
CONVERTER_15
 73
     1
 44
1.32052821128451
  0
MTEXT
  5
341
330
1F
100
AcDbEntity
  8
1
 62
     3
100
AcDbMText
 10
-205.3419693271966
 20
-208.33854213191
 30
0.0
 40
7.0
 41
0.0
 71
     5
 72
     1
  1
274
  7
CONVERTER_15
 73
     1
 44
1.32052821128451
  0
MTEXT
  5
342
330
1F
100
AcDbEntity
  8
1
 62
     3
100
AcDbMText
 10
-207.3419693271966
 20
-190.63854213191
 30
0.0
 40
7.0
 41
0.0
 71
     5
 72
     1
  1
k1
  7
CONVERTER_15
 73
     1
 44
1.32052821128451
  0
MTEXT
  5
343
330
1F
100
AcDbEntity
  8
1
 62
     3
100
AcDbMText
 10
-360.184353433157
 20
-244.33854213191
 30
0.0
 40
7.0
 41
0.0
 71
     4
 72
     1
  1
KSD 264.xx D(-MD)-RQ/xx/2/..
  7
CONVERTER_15
 73
     1
 44
1.32052821128451
  0
MTEXT
  5
344
330
1F
100
AcDbEntity
  8
1
 62
     3
100
AcDbMText
 10
-360.184353433157
 20
-262.33854213191
 30
0.0
 40
7.0
 41
0.0
 71
     4
 72
     1
  1
KSD 268.xx D(-MD)-RQ/xx/2/..
  7
CONVERTER_15
 73
     1
 44
1.32052821128451
  0
MTEXT
  5
345
330
1F
100
AcDbEntity
  8
1
 62
     3
100
AcDbMText
 10
-173.3419693271968
 20
-244.33854213191
 30
0.0
 40
7.0
 41
0.0
 71
     5
 72
     1
  1
252
  7
CONVERTER_15
 73
     1
 44
1.32052821128451
  0
MTEXT
  5
346
330
1F
100
AcDbEntity
  8
1
 62
     3
100
AcDbMText
 10
-173.3419693271968
 20
-262.33854213191
 30
0.0
 40
7.0
 41
0.0
 71
     5
 72
     1
  1
292
  7
CONVERTER_15
 73
     1
 44
1.32052821128451
  0
MTEXT
  5
347
330
1F
100
AcDbEntity
  8
1
 62
     3
100
AcDbMText
 10
-205.3419693271966
 20
-244.33854213191
 30
0.0
 40
7.0
 41
0.0
 71
     5
 72
     1
  1
301
  7
CONVERTER_15
 73
     1
 44
1.32052821128451
  0
MTEXT
  5
348
330
1F
100
AcDbEntity
  8
1
 62
     3
100
AcDbMText
 10
-205.3419693271966
 20
-262.33854213191
 30
0.0
 40
7.0
 41
0.0
 71
     5
 72
     1
  1
341
  7
CONVERTER_15
 73
     1
 44
1.32052821128451
  0
DIMENSION
  5
353
330
1F
100
AcDbEntity
  8
1
100
AcDbDimension
  2
*D15
 10
-162.857132
 20
113.925576206426
 30
0.0
 11
-89.4058546761199
 21
121.425576206426
 31
0.0
 70
    32
  1
<>
 71
     5
 42
-1.0
 53
0.00013888888889
  3
ME10_DIM_10
100
AcDbAlignedDimension
 13
-25.35713199999999
 23
101.4939435
 33
0.0
 14
-162.857132
 24
96.993946
 34
0.0
100
AcDbRotatedDimension
  0
DIMENSION
  5
35E
330
1F
100
AcDbEntity
  8
1
100
AcDbDimension
  2
*D16
 10
78.8569834123215
 20
18.99394300000002
 30
0.0
 11
71.3569834123215
 21
102.346097235012
 31
0.0
 70
    32
  1
<>
 71
     5
 42
-1.0
 53
90.0
  3
ME10_DIM_11
100
AcDbAlignedDimension
 13
-0.35713199999999
 23
180.993943
 33
0.0
 14
-25.35713199999999
 24
18.993943
 34
0.0
 50
90.0
100
AcDbRotatedDimension
  0
DIMENSION
  5
369
330
1F
100
AcDbEntity
  8
1
100
AcDbDimension
  2
*D17
 10
113.063242926702
 20
18.993943
 30
0.0
 11
105.563242926702
 21
41.0683444848408
 31
0.0
 70
    32
  1
<>
 71
     5
 42
-1.0
 53
90.0
  3
ME10_DIM_12
100
AcDbAlignedDimension
 13
232.932261
 23
66.493943
 33
0.0
 14
159.0958684834117
 24
18.993943
 34
0.0
 50
90.0
100
AcDbRotatedDimension
  0
DIMENSION
  5
374
330
1F
100
AcDbEntity
  8
1
100
AcDbDimension
  2
*D18
 10
157.0958684834117
 20
210.361978348374
 30
0.0
 11
202.063894955528
 21
217.861978348374
 31
0.0
 70
    32
  1
<>
 71
     5
 42
-1.0
 53
0.00013888888889
  3
ME10_DIM_13
100
AcDbAlignedDimension
 13
251.0958684834117
 23
178.993943
 33
0.0
 14
157.0958684834117
 24
178.993943
 34
0.0
100
AcDbRotatedDimension
  0
DIMENSION
  5
37F
330
1F
100
AcDbEntity
  8
1
100
AcDbDimension
  2
*D19
 10
62.64286799999999
 20
193.064691663962
 30
0.0
 11
23.45547368259744
 21
200.564691663962
 31
0.0
 70
    32
  1
<>
 71
     5
 42
-1.0
 53
0.00013888888889
  3
ME10_DIM_14
100
AcDbAlignedDimension
 13
-25.35713199999999
 23
180.993943
 33
0.0
 14
62.64286800000001
 24
126.81744386791
 34
0.0
100
AcDbRotatedDimension
  0
DIMENSION
  5
38A
330
1F
100
AcDbEntity
  8
1
100
AcDbDimension
  2
*D20
 10
62.64286799999998
 20
208.361978348374
 30
0.0
 11
-49.66521652276322
 21
215.861978348374
 31
0.0
 70
    32
  1
k ( k1 )
 71
     5
 42
-1.0
 53
0.00013888888889
  3
ME10_DIM_15
100
AcDbAlignedDimension
 13
-162.857132
 23
101.493938
 33
0.0
 14
62.64286800000001
 24
126.81744386791
 34
0.0
100
AcDbRotatedDimension
  0
DIMENSION
  5
395
330
1F
100
AcDbEntity
  8
1
100
AcDbDimension
  2
*D21
 10
-185.857133
 20
81.0929102187889
 30
0.0
 11
-174.860374894502
 21
88.5929102187889
 31
0.0
 70
    32
  1
<>
 71
     5
 42
-1.0
 53
0.00013888888889
  3
ME10_DIM_16
100
AcDbAlignedDimension
 13
-162.857133
 23
72.2439435
 33
0.0
 14
-185.857133
 24
71.493941
 34
0.0
100
AcDbRotatedDimension
  0
DIMENSION
  5
3A2
330
1F
100
AcDbEntity
  8
1
100
AcDbDimension
  2
*D22
 10
-181.857133
 20
4.529444841914
 30
0.0
 11
-174.157957780953
 21
12.029444841914
 31
0.0
 70
    32
  1
<>
 71
     5
 42
-1.0
 53
0.00013888888889
  3
ME10_DIM_17
100
AcDbAlignedDimension
 13
-165.857133
 23
66.493944
 33
0.0
 14
-181.857133
 24
66.493944
 34
0.0
100
AcDbRotatedDimension
  0
DIMENSION
  5
3AF
330
1F
100
AcDbEntity
  8
1
100
AcDbDimension
  2
*D23
 10
197.566237
 20
106.094006243593
 30
0.0
 11
186.391934082099
 21
115.869006243593
 31
0.0
 70
    32
  1
<>
 71
     5
 42
-1.0
 53
0.00013888888889
  3
ME10_DIM_18
100
AcDbAlignedDimension
 13
210.066577
 23
64.493943
 33
0.0
 14
197.566237
 24
66.493943
 34
0.0
100
AcDbRotatedDimension
  0
DIMENSION
  5
3BC
330
1F
100
AcDbEntity
  8
1
100
AcDbDimension
  2
*D24
 10
224.514455846263
 20
68.493943
 30
0.0
 11
215.264455846263
 21
82.9459859313124
 31
0.0
 70
    32
  1
<>
 71
     5
 42
-1.0
 53
90.0
  3
ME10_DIM_19
100
AcDbAlignedDimension
 13
210.066577
 23
64.493943
 33
0.0
 14
210.066577
 24
68.493943
 34
0.0
 50
90.0
100
AcDbRotatedDimension
  0
DIMENSION
  5
3C7
330
1F
100
AcDbEntity
  8
1
100
AcDbDimension
  2
*D25
 10
238.066237
 20
-17.21153198078292
 30
0.0
 11
201.295162026877
 21
-9.71153198078292
 31
0.0
 70
    32
  1
<>
 71
     5
 42
-1.0
 53
0.00013888888889
  3
ME10_DIM_20
100
AcDbAlignedDimension
 13
168.066237
 23
38.20967334352829
 33
0.0
 14
238.066237
 24
38.20967334352841
 34
0.0
100
AcDbRotatedDimension
  0
DIMENSION
  5
3D2
330
1F
100
AcDbEntity
  8
1
100
AcDbDimension
  2
*D26
 10
-185.857133
 20
172.055926423425
 30
0.0
 11
-175.211583451277
 21
179.555926423425
 31
0.0
 70
    32
  1
<>
 71
     5
 42
-1.0
 53
0.00013888888889
  3
ME10_DIM_21
100
AcDbAlignedDimension
 13
-162.857132
 23
101.493938
 33
0.0
 14
-185.857133
 24
68.99394799999999
 34
0.0
100
AcDbRotatedDimension
  0
DIMENSION
  5
3DF
330
1F
100
AcDbEntity
  8
1
100
AcDbDimension
  2
*D27
 10
-202.838481912616
 20
71.99394699999999
 30
0.0
 11
-212.088481912616
 21
66.1155625852109
 31
0.0
 70
    32
  1
<>
 71
     5
 42
-1.0
 53
90.0
  3
ME10_DIM_22
100
AcDbAlignedDimension
 13
-185.5887864335175
 23
60.99394000000001
 33
0.0
 14
-185.5887864335176
 24
71.99394699999999
 34
0.0
 50
90.0
100
AcDbRotatedDimension
  0
DIMENSION
  5
3EC
330
1F
100
AcDbEntity
  8
1
100
AcDbDimension
  2
*D28
 10
-162.857132
 20
134.476610848536
 30
0.0
 11
-173.455540667404
 21
141.976610848536
 31
0.0
 70
    32
  1
<>
 71
     5
 42
-1.0
 53
0.00013888888889
  3
ME10_DIM_23
100
AcDbAlignedDimension
 13
-165.35713
 23
96.359974
 33
0.0
 14
-162.857132
 24
96.993946
 34
0.0
100
AcDbRotatedDimension
  0
DIMENSION
  5
3F9
330
1F
100
AcDbEntity
  8
1
100
AcDbDimension
  2
*D29
 10
173.549735
 20
3.525688664546
 30
0.0
 11
160.186253509056
 21
11.025688664546
 31
0.0
 70
    32
  1
<>
 71
     5
 42
-1.0
 53
0.00013888888889
  3
ME10_DIM_24
100
AcDbAlignedDimension
 13
179.549735
 23
39.977442
 33
0.0
 14
173.549735
 24
39.977442
 34
0.0
100
AcDbRotatedDimension
  0
DIMENSION
  5
404
330
1F
100
AcDbEntity
  8
1
100
AcDbDimension
  2
*D30
 10
-220.931161091997
 20
36.49394599999998
 30
0.0
 11
-231.756161091997
 21
66.4667711419856
 31
0.0
 70
    32
  1
<>
 71
     5
 42
-1.0
 53
90.0
  3
ME10_DIM_25
100
AcDbAlignedDimension
 13
-165.357131
 23
96.493953
 33
0.0
 14
-164.857131
 24
36.49394599999999
 34
0.0
 50
90.0
100
AcDbRotatedDimension
  0
DIMENSION
  5
411
330
1F
100
AcDbEntity
  8
1
100
AcDbDimension
  2
*D31
 10
-185.857133
 20
19.2802042264495
 30
0.0
 11
-193.825636960334
 21
26.7802042264495
 31
0.0
 70
    32
  1
<>
 71
     5
 42
-1.0
 53
0.00013888888889
  3
ME10_DIM_26
100
AcDbAlignedDimension
 13
-181.857133
 23
66.493944
 33
0.0
 14
-185.857133
 24
61.49394599999999
 34
0.0
100
AcDbRotatedDimension
  0
DIMENSION
  5
41E
330
1F
100
AcDbEntity
  8
1
100
AcDbDimension
  2
*D32
 10
-162.857132
 20
151.33462157372
 30
0.0
 11
-151.680610147375
 21
158.83462157372
 31
0.0
 70
    32
  1
<>
 71
     5
 42
-1.0
 53
0.00013888888889
  3
ME10_DIM_27
100
AcDbAlignedDimension
 13
-154.857136
 23
101.493938
 33
0.0
 14
-162.857132
 24
101.493938
 34
0.0
100
AcDbRotatedDimension
  0
DIMENSION
  5
429
330
1F
100
AcDbEntity
  8
1
100
AcDbDimension
  2
*D33
 10
130.815721365967
 20
31.49394799999999
 30
0.0
 11
123.315721365967
 21
46.5306455430763
 31
0.0
 70
    32
  1
<>
 71
     5
 42
-1.0
 53
90.0
  3
ME10_DIM_28
100
AcDbAlignedDimension
 13
161.698176188591
 23
66.493943
 33
0.0
 14
174.7819611563447
 24
31.49394799999999
 34
0.0
 50
90.0
100
AcDbRotatedDimension
  0
INSERT
  5
431
330
1F
100
AcDbEntity
  8
1
100
AcDbBlockReference
  2
*D34
 10
0.0
 20
0.0
 30
0.0
  0
INSERT
  5
439
330
1F
100
AcDbEntity
  8
1
100
AcDbBlockReference
  2
*D35
 10
0.0
 20
0.0
 30
0.0
  0
DIMENSION
  5
446
330
1F
100
AcDbEntity
  8
1
100
AcDbDimension
  2
*D36
 10
228.2665435606285
 20
5.65502112537118
 30
0.0
 11
221.181948659352
 21
11.025688664546
 31
0.0
 70
    37
  1
<>
 71
     5
 42
-1.0
  3
ME10_DIM_29
100
AcDb3PointAngularDimension
 13
203.066237
 23
24.82182444297899
 33
0.0
 14
225.597285904412
 24
43.96289409558801
 34
0.0
 15
203.066237
 25
66.49394299999997
 35
0.0
  0
ENDSEC
  0
SECTION
  2
OBJECTS
  0
DICTIONARY
  5
C
330
0
100
AcDbDictionary
281
     1
  3
ACAD_GROUP
350
D
  3
ACAD_LAYOUT
350
1A
  3
ACAD_MLINESTYLE
350
17
  3
ACAD_PLOTSETTINGS
350
19
  3
ACAD_PLOTSTYLENAME
350
E
  0
DICTIONARY
  5
D
102
{ACAD_REACTORS
330
C
102
}
330
C
100
AcDbDictionary
281
     1
  0
DICTIONARY
  5
1A
102
{ACAD_REACTORS
330
C
102
}
330
C
100
AcDbDictionary
281
     1
  3
Layout1
350
1E
  3
Layout2
350
26
  3
Model
350
22
  0
DICTIONARY
  5
17
102
{ACAD_REACTORS
330
C
102
}
330
C
100
AcDbDictionary
281
     1
  3
Standard
350
18
  0
DICTIONARY
  5
19
102
{ACAD_REACTORS
330
C
102
}
330
C
100
AcDbDictionary
281
     1
  0
ACDBDICTIONARYWDFLT
  5
E
102
{ACAD_REACTORS
330
C
102
}
330
C
100
AcDbDictionary
281
     1
  3
Normal
350
F
100
AcDbDictionaryWithDefault
340
F
  0
LAYOUT
  5
1E
102
{ACAD_REACTORS
330
1A
102
}
330
1A
100
AcDbPlotSettings
  1

  2

  4

  6

 40
0.0
 41
0.0
 42
0.0
 43
0.0
 44
0.0
 45
0.0
 46
0.0
 47
0.0
 48
0.0
 49
0.0
140
0.0
141
0.0
142
1.0
143
1.0
 70
   688
 72
     0
 73
     0
 74
     5
  7

 75
    16
 76
     0
 77
     2
 78
   300
147
1.0
148
0.0
149
0.0
100
AcDbLayout
  1
Layout1
 70
     1
 71
     1
 10
0.0
 20
0.0
 11
0.0
 21
0.0
 12
0.0
 22
0.0
 32
0.0
 14
0.0
 24
0.0
 34
0.0
 15
0.0
 25
0.0
 35
0.0
146
0.0
 13
0.0
 23
0.0
 33
0.0
 16
1.0
 26
0.0
 36
0.0
 17
0.0
 27
1.0
 37
0.0
 76
     0
330
1B
  0
LAYOUT
  5
26
102
{ACAD_REACTORS
330
1A
102
}
330
1A
100
AcDbPlotSettings
  1

  2

  4

  6

 40
0.0
 41
0.0
 42
0.0
 43
0.0
 44
0.0
 45
0.0
 46
0.0
 47
0.0
 48
0.0
 49
0.0
140
0.0
141
0.0
142
1.0
143
1.0
 70
   688
 72
     0
 73
     0
 74
     5
  7

 75
    16
 76
     0
 77
     2
 78
   300
147
1.0
148
0.0
149
0.0
100
AcDbLayout
  1
Layout2
 70
     1
 71
     2
 10
0.0
 20
0.0
 11
0.0
 21
0.0
 12
0.0
 22
0.0
 32
0.0
 14
0.0
 24
0.0
 34
0.0
 15
0.0
 25
0.0
 35
0.0
146
0.0
 13
0.0
 23
0.0
 33
0.0
 16
1.0
 26
0.0
 36
0.0
 17
0.0
 27
1.0
 37
0.0
 76
     0
330
23
  0
LAYOUT
  5
22
102
{ACAD_REACTORS
330
1A
102
}
330
1A
100
AcDbPlotSettings
  1

  2

  4

  6

 40
0.0
 41
0.0
 42
0.0
 43
0.0
 44
0.0
 45
0.0
 46
0.0
 47
0.0
 48
0.0
 49
0.0
140
0.0
141
0.0
142
1.0
143
1.0
 70
  1712
 72
     0
 73
     0
 74
     0
  7

 75
     0
 76
     0
 77
     2
 78
   300
147
1.0
148
0.0
149
0.0
100
AcDbLayout
  1
Model
 70
     1
 71
     0
 10
0.0
 20
0.0
 11
0.0
 21
0.0
 12
0.0
 22
0.0
 32
0.0
 14
-397.760000000002
 24
-285.0
 34
0.0
 15
410.0
 25
284.0
 35
0.0
146
0.0
 13
0.0
 23
0.0
 33
0.0
 16
1.0
 26
0.0
 36
0.0
 17
0.0
 27
1.0
 37
0.0
 76
     0
330
1F
  0
MLINESTYLE
  5
18
102
{ACAD_REACTORS
330
17
102
}
330
17
100
AcDbMlineStyle
  2
Standard
 70
     0
  3

 62
   256
 51
90.0
 52
90.0
 71
     2
 49
0.5
 62
   256
  6
BYLAYER
 49
-0.5
 62
   256
  6
BYLAYER
  0
ACDBPLACEHOLDER
  5
F
102
{ACAD_REACTORS
330
E
102
}
330
E
  0
ENDSEC
  0
EOF
