  0
SECTION
  2
HEADER
  9
$ACADVER
  1
AC1018
  9
$ACADMAINTVER
 70
     0
  9
$DWGCODEPAGE
  3
ANSI_1252
  9
$INSBASE
 10
0.0
 20
0.0
 30
0.0
  9
$EXTMIN
 10
-198.880000000001
 20
-142.5
 30
0.0
  9
$EXTMAX
 10
205.0
 20
142.0
 30
0.0
  9
$LIMMIN
 10
0.0
 20
0.0
  9
$LIMMAX
 10
12.0
 20
9.0
  9
$ORTHOMODE
 70
     0
  9
$REGENMODE
 70
     1
  9
$FILLMODE
 70
     1
  9
$QTEXTMODE
 70
     0
  9
$MIRRTEXT
 70
     1
  9
$LTSCALE
 40
1.0
  9
$ATTMODE
 70
     1
  9
$TEXTSIZE
 40
0.2
  9
$TRACEWID
 40
0.05
  9
$TEXTSTYLE
  7
Standard
  9
$CLAYER
  8
0
  9
$CELTYPE
  6
ByLayer
  9
$CECOLOR
 62
   256
  9
$CELTSCALE
 40
1.0
  9
$DISPSILH
 70
     0
  9
$DIMSCALE
 40
1.0
  9
$DIMASZ
 40
0.18
  9
$DIMEXO
 40
0.0625
  9
$DIMDLI
 40
0.38
  9
$DIMRND
 40
0.0
  9
$DIMDLE
 40
0.0
  9
$DIMEXE
 40
0.18
  9
$DIMTP
 40
0.0
  9
$DIMTM
 40
0.0
  9
$DIMTXT
 40
0.18
  9
$DIMCEN
 40
0.09
  9
$DIMTSZ
 40
0.0
  9
$DIMTOL
 70
     0
  9
$DIMLIM
 70
     0
  9
$DIMTIH
 70
     1
  9
$DIMTOH
 70
     1
  9
$DIMSE1
 70
     0
  9
$DIMSE2
 70
     0
  9
$DIMTAD
 70
     0
  9
$DIMZIN
 70
     0
  9
$DIMBLK
  1

  9
$DIMASO
 70
     1
  9
$DIMSHO
 70
     1
  9
$DIMPOST
  1

  9
$DIMAPOST
  1

  9
$DIMALT
 70
     0
  9
$DIMALTD
 70
     2
  9
$DIMALTF
 40
25.4
  9
$DIMLFAC
 40
1.0
  9
$DIMTOFL
 70
     0
  9
$DIMTVP
 40
0.0
  9
$DIMTIX
 70
     0
  9
$DIMSOXD
 70
     0
  9
$DIMSAH
 70
     0
  9
$DIMBLK1
  1

  9
$DIMBLK2
  1

  9
$DIMSTYLE
  2
Standard
  9
$DIMCLRD
 70
     0
  9
$DIMCLRE
 70
     0
  9
$DIMCLRT
 70
     0
  9
$DIMTFAC
 40
1.0
  9
$DIMGAP
 40
0.09
  9
$DIMJUST
 70
     0
  9
$DIMSD1
 70
     0
  9
$DIMSD2
 70
     0
  9
$DIMTOLJ
 70
     1
  9
$DIMTZIN
 70
     0
  9
$DIMALTZ
 70
     0
  9
$DIMALTTZ
 70
     0
  9
$DIMUPT
 70
     0
  9
$DIMDEC
 70
     4
  9
$DIMTDEC
 70
     4
  9
$DIMALTU
 70
     2
  9
$DIMALTTD
 70
     2
  9
$DIMTXSTY
  7
Standard
  9
$DIMAUNIT
 70
     0
  9
$DIMADEC
 70
     0
  9
$DIMALTRND
 40
0.0
  9
$DIMAZIN
 70
     0
  9
$DIMDSEP
 70
    46
  9
$DIMATFIT
 70
     3
  9
$DIMFRAC
 70
     0
  9
$DIMLDRBLK
  1

  9
$DIMLUNIT
 70
     2
  9
$DIMLWD
 70
    -2
  9
$DIMLWE
 70
    -2
  9
$DIMTMOVE
 70
     0
  9
$LUNITS
 70
     2
  9
$LUPREC
 70
     4
  9
$SKETCHINC
 40
0.1
  9
$FILLETRAD
 40
0.5
  9
$AUNITS
 70
     0
  9
$AUPREC
 70
     0
  9
$MENU
  1
.
  9
$ELEVATION
 40
0.0
  9
$PELEVATION
 40
0.0
  9
$THICKNESS
 40
0.0
  9
$LIMCHECK
 70
     0
  9
$CHAMFERA
 40
0.5
  9
$CHAMFERB
 40
0.5
  9
$CHAMFERC
 40
1.0
  9
$CHAMFERD
 40
0.0
  9
$SKPOLY
 70
     0
  9
$TDCREATE
 40
2454958.395778993
  9
$TDUCREATE
 40
2454958.31244566
  9
$TDUPDATE
 40
2454958.395779005
  9
$TDUUPDATE
 40
2454958.312445671
  9
$TDINDWG
 40
0.0000000116
  9
$TDUSRTIMER
 40
0.0000000116
  9
$USRTIMER
 70
     1
  9
$ANGBASE
 50
0.0
  9
$ANGDIR
 70
     0
  9
$PDMODE
 70
     0
  9
$PDSIZE
 40
0.0
  9
$PLINEWID
 40
0.0
  9
$SPLFRAME
 70
     0
  9
$SPLINETYPE
 70
     6
  9
$SPLINESEGS
 70
     8
  9
$HANDSEED
  5
526
  9
$SURFTAB1
 70
     6
  9
$SURFTAB2
 70
     6
  9
$SURFTYPE
 70
     6
  9
$SURFU
 70
     6
  9
$SURFV
 70
     6
  9
$UCSBASE
  2

  9
$UCSNAME
  2

  9
$UCSORG
 10
0.0
 20
0.0
 30
0.0
  9
$UCSXDIR
 10
1.0
 20
0.0
 30
0.0
  9
$UCSYDIR
 10
0.0
 20
1.0
 30
0.0
  9
$UCSORTHOREF
  2

  9
$UCSORTHOVIEW
 70
     0
  9
$UCSORGTOP
 10
0.0
 20
0.0
 30
0.0
  9
$UCSORGBOTTOM
 10
0.0
 20
0.0
 30
0.0
  9
$UCSORGLEFT
 10
0.0
 20
0.0
 30
0.0
  9
$UCSORGRIGHT
 10
0.0
 20
0.0
 30
0.0
  9
$UCSORGFRONT
 10
0.0
 20
0.0
 30
0.0
  9
$UCSORGBACK
 10
0.0
 20
0.0
 30
0.0
  9
$PUCSBASE
  2

  9
$PUCSNAME
  2

  9
$PUCSORG
 10
0.0
 20
0.0
 30
0.0
  9
$PUCSXDIR
 10
1.0
 20
0.0
 30
0.0
  9
$PUCSYDIR
 10
0.0
 20
1.0
 30
0.0
  9
$PUCSORTHOREF
  2

  9
$PUCSORTHOVIEW
 70
     0
  9
$PUCSORGTOP
 10
0.0
 20
0.0
 30
0.0
  9
$PUCSORGBOTTOM
 10
0.0
 20
0.0
 30
0.0
  9
$PUCSORGLEFT
 10
0.0
 20
0.0
 30
0.0
  9
$PUCSORGRIGHT
 10
0.0
 20
0.0
 30
0.0
  9
$PUCSORGFRONT
 10
0.0
 20
0.0
 30
0.0
  9
$PUCSORGBACK
 10
0.0
 20
0.0
 30
0.0
  9
$USERI1
 70
     0
  9
$USERI2
 70
     0
  9
$USERI3
 70
     0
  9
$USERI4
 70
     0
  9
$USERI5
 70
     0
  9
$USERR1
 40
14.5
  9
$USERR2
 40
0.0
  9
$USERR3
 40
0.0
  9
$USERR4
 40
0.0
  9
$USERR5
 40
0.0
  9
$WORLDVIEW
 70
     1
  9
$SHADEDGE
 70
     3
  9
$SHADEDIF
 70
    70
  9
$TILEMODE
 70
     1
  9
$MAXACTVP
 70
    64
  9
$PINSBASE
 10
0.0
 20
0.0
 30
0.0
  9
$PLIMCHECK
 70
     0
  9
$PEXTMIN
 10
1.00000000000000E+20
 20
1.00000000000000E+20
 30
1.00000000000000E+20
  9
$PEXTMAX
 10
-1.00000000000000E+20
 20
-1.00000000000000E+20
 30
-1.00000000000000E+20
  9
$PLIMMIN
 10
0.0
 20
0.0
  9
$PLIMMAX
 10
12.0
 20
9.0
  9
$UNITMODE
 70
     0
  9
$VISRETAIN
 70
     1
  9
$PLINEGEN
 70
     0
  9
$PSLTSCALE
 70
     1
  9
$TREEDEPTH
 70
  3020
  9
$CMLSTYLE
  2
Standard
  9
$CMLJUST
 70
     0
  9
$CMLSCALE
 40
1.0
  9
$PROXYGRAPHICS
 70
     1
  9
$MEASUREMENT
 70
     1
  9
$CELWEIGHT
370
    -1
  9
$ENDCAPS
280
     0
  9
$JOINSTYLE
280
     0
  9
$LWDISPLAY
290
     0
  9
$INSUNITS
 70
     1
  9
$HYPERLINKBASE
  1

  9
$STYLESHEET
  1

  9
$XEDIT
290
     1
  9
$CEPSNTYPE
380
     0
  9
$PSTYLEMODE
290
     1
  9
$FINGERPRINTGUID
  2
{3DA07163-3BF7-41EC-AE7A-BE881A6811A7}
  9
$VERSIONGUID
  2
{FAEB1C32-E019-11D5-929B-00C0DF256EC4}
  9
$EXTNAMES
290
     1
  9
$PSVPSCALE
 40
0.0
  9
$OLESTARTUP
290
     0
  9
$SORTENTS
280
   127
  9
$INDEXCTL
280
     0
  9
$HIDETEXT
280
     1
  9
$XCLIPFRAME
290
     0
  9
$HALOGAP
280
     0
  9
$OBSCOLOR
 70
   257
  9
$OBSLTYPE
280
     0
  9
$INTERSECTIONDISPLAY
280
     0
  9
$INTERSECTIONCOLOR
 70
   257
  9
$DIMASSOC
280
     2
  9
$PROJECTNAME
  1

  0
ENDSEC
  0
SECTION
  2
CLASSES
  0
CLASS
  1
ACDBDICTIONARYWDFLT
  2
AcDbDictionaryWithDefault
  3
ObjectDBX Classes
 90
        0
 91
        3
280
     0
281
     0
  0
CLASS
  1

  2
exOdDbCircle
  3

 90
        0
 91
        3
280
     0
281
     1
  0
CLASS
  1

  2
exOdDbSpline
  3

 90
        0
 91
        3
280
     0
281
     1
  0
ENDSEC
  0
SECTION
  2
TABLES
  0
TABLE
  2
VPORT
  5
8
330
0
100
AcDbSymbolTable
 70
     1
  0
VPORT
  5
29
330
8
100
AcDbSymbolTableRecord
100
AcDbViewportTableRecord
  2
*Active
 70
     0
 10
0.0
 20
0.0
 11
1.0
 21
1.0
 12
3.0599999999995
 22
-0.25
 13
0.0
 23
0.0
 14
0.5
 24
0.5
 15
0.5
 25
0.5
 16
0.0
 26
0.0
 36
1.0
 17
0.0
 27
0.0
 37
0.0
 40
312.95
 41
1.60267857142857
 42
50.0
 43
0.0
 44
0.0
 50
0.0
 51
0.0
 71
     0
 72
   100
 73
     1
 74
     3
 75
     0
 76
     0
 77
     0
 78
     0
281
     0
 65
     1
110
0.0
120
0.0
130
0.0
111
1.0
121
0.0
131
0.0
112
0.0
122
1.0
132
0.0
 79
     0
146
0.0
  0
ENDTAB
  0
TABLE
  2
LTYPE
  5
5
330
0
100
AcDbSymbolTable
 70
     8
  0
LTYPE
  5
14
330
5
100
AcDbSymbolTableRecord
100
AcDbLinetypeTableRecord
  2
ByBlock
 70
     0
  3

 72
    65
 73
     0
 40
0.0
  0
LTYPE
  5
15
330
5
100
AcDbSymbolTableRecord
100
AcDbLinetypeTableRecord
  2
ByLayer
 70
     0
  3

 72
    65
 73
     0
 40
0.0
  0
LTYPE
  5
16
330
5
100
AcDbSymbolTableRecord
100
AcDbLinetypeTableRecord
  2
Continuous
 70
     0
  3
Solid line
 72
    65
 73
     0
 40
0.0
  0
LTYPE
  5
2A
330
5
100
AcDbSymbolTableRecord
100
AcDbLinetypeTableRecord
  2
DASHED
 70
     0
  3
Dashed
 72
    65
 73
     2
 40
15.0
 49
7.0
 74
     0
 49
-8.0
 74
     0
  0
LTYPE
  5
2B
330
5
100
AcDbSymbolTableRecord
100
AcDbLinetypeTableRecord
  2
DOTTED
 70
     0
  3
Dotted
 72
    65
 73
     2
 40
1.0
 49
0.0
 74
     0
 49
-1.0
 74
     0
  0
LTYPE
  5
2C
330
5
100
AcDbSymbolTableRecord
100
AcDbLinetypeTableRecord
  2
DOT_CENTER
 70
     0
  3
Dot_Center
 72
    65
 73
     4
 40
14.0
 49
12.0
 74
     0
 49
-1.0
 74
     0
 49
0.0
 74
     0
 49
-1.0
 74
     0
  0
LTYPE
  5
2D
330
5
100
AcDbSymbolTableRecord
100
AcDbLinetypeTableRecord
  2
LONG_DASHED
 70
     0
  3
Long_Dashed
 72
    65
 73
     2
 40
15.0
 49
10.0
 74
     0
 49
-5.0
 74
     0
  0
LTYPE
  5
2E
330
5
100
AcDbSymbolTableRecord
100
AcDbLinetypeTableRecord
  2
DASH_CENTER
 70
     0
  3
Dash_Center
 72
    65
 73
     4
 40
14.0
 49
11.0
 74
     0
 49
-1.0
 74
     0
 49
1.0
 74
     0
 49
-1.0
 74
     0
  0
LTYPE
  5
2F
330
5
100
AcDbSymbolTableRecord
100
AcDbLinetypeTableRecord
  2
PHANTOM
 70
     0
  3
Phantom
 72
    65
 73
     6
 40
13.0
 49
10.0
 74
     0
 49
-1.0
 74
     0
 49
0.0
 74
     0
 49
-1.0
 74
     0
 49
0.0
 74
     0
 49
-1.0
 74
     0
  0
LTYPE
  5
30
330
5
100
AcDbSymbolTableRecord
100
AcDbLinetypeTableRecord
  2
CENTER_DASH_DASH
 70
     0
  3
Center_Dash_Dash
 72
    65
 73
     6
 40
14.0
 49
9.0
 74
     0
 49
-1.0
 74
     0
 49
1.0
 74
     0
 49
-1.0
 74
     0
 49
1.0
 74
     0
 49
-1.0
 74
     0
  0
ENDTAB
  0
TABLE
  2
LAYER
  5
2
330
0
100
AcDbSymbolTable
 70
     3
  0
LAYER
  5
10
330
2
100
AcDbSymbolTableRecord
100
AcDbLayerTableRecord
  2
0
 70
     0
 62
     7
  6
Continuous
370
    -3
390
F
  0
LAYER
  5
31
330
2
100
AcDbSymbolTableRecord
100
AcDbLayerTableRecord
  2
1
 70
     0
 62
     7
  6
Continuous
370
    -3
390
F
  0
LAYER
  5
32
330
2
100
AcDbSymbolTableRecord
100
AcDbLayerTableRecord
  2
AM_VIS
 70
     0
 62
     7
  6
Continuous
370
    -3
390
F
  0
ENDTAB
  0
TABLE
  2
STYLE
  5
3
330
0
100
AcDbSymbolTable
 70
     6
  0
STYLE
  5
11
330
3
100
AcDbSymbolTableRecord
100
AcDbTextStyleTableRecord
  2
Standard
 70
     0
 40
0.0
 41
1.0
 50
0.0
 71
     0
 42
0.2
  3
txt
  4

  0
STYLE
  5
3D0
330
3
100
AcDbSymbolTableRecord
100
AcDbTextStyleTableRecord
  2
CONVERTER_11
 70
     0
 40
0.0
 41
0.855
 50
0.0
 71
     0
 42
0.2
  3
complex.shx
  4

  0
STYLE
  5
3D2
330
3
100
AcDbSymbolTableRecord
100
AcDbTextStyleTableRecord
  2
CONVERTER_12
 70
     0
 40
0.0
 41
0.9
 50
0.0
 71
     0
 42
0.2
  3
txt.shx
  4

  0
STYLE
  5
3DA
330
3
100
AcDbSymbolTableRecord
100
AcDbTextStyleTableRecord
  2
CONVERTER_13
 70
     0
 40
0.0
 41
0.765
 50
0.0
 71
     0
 42
0.2
  3
txt.shx
  4

  0
STYLE
  5
3DD
330
3
100
AcDbSymbolTableRecord
100
AcDbTextStyleTableRecord
  2
CONVERTER_14
 70
     0
 40
0.0
 41
0.81
 50
0.0
 71
     0
 42
0.2
  3
txt.shx
  4

  0
STYLE
  5
3E1
330
3
100
AcDbSymbolTableRecord
100
AcDbTextStyleTableRecord
  2
CONVERTER_15
 70
     0
 40
0.0
 41
0.72
 50
0.0
 71
     0
 42
0.2
  3
txt.shx
  4

  0
ENDTAB
  0
TABLE
  2
VIEW
  5
6
330
0
100
AcDbSymbolTable
 70
     0
  0
ENDTAB
  0
TABLE
  2
UCS
  5
7
330
0
100
AcDbSymbolTable
 70
     0
  0
ENDTAB
  0
TABLE
  2
APPID
  5
9
330
0
100
AcDbSymbolTable
 70
     1
  0
APPID
  5
12
330
9
100
AcDbSymbolTableRecord
100
AcDbRegAppTableRecord
  2
ACAD
 70
     0
  0
ENDTAB
  0
TABLE
  2
DIMSTYLE
  5
A
330
0
100
AcDbSymbolTable
 70
    17
100
AcDbDimStyleTable
  0
DIMSTYLE
105
27
330
A
100
AcDbSymbolTableRecord
100
AcDbDimStyleTableRecord
  2
Standard
 70
     0
340
11
  0
DIMSTYLE
105
45B
102
{ACAD_REACTORS
330
45C
102
}
330
A
100
AcDbSymbolTableRecord
100
AcDbDimStyleTableRecord
  2
ME10_DIM_10
 70
     0
 41
3.5
 42
0.0
 44
1.0
 73
     0
 74
     0
 77
     1
 78
     8
140
3.5
147
2.0
172
     1
173
     1
176
     2
177
     2
178
     3
271
     3
340
3E1
  0
DIMSTYLE
105
466
102
{ACAD_REACTORS
330
467
102
}
330
A
100
AcDbSymbolTableRecord
100
AcDbDimStyleTableRecord
  2
ME10_DIM_11
 70
     0
 41
3.5
 42
0.0
 44
1.0
 73
     0
 74
     0
 77
     1
 78
     8
140
3.5
147
2.0
172
     1
173
     1
176
     2
177
     2
178
     3
271
     3
340
3E1
  0
DIMSTYLE
105
473
102
{ACAD_REACTORS
330
474
102
}
330
A
100
AcDbSymbolTableRecord
100
AcDbDimStyleTableRecord
  2
ME10_DIM_12
 70
     0
 41
3.5
 42
0.0
 44
1.0
 48
-9.0
 71
     1
 73
     0
 74
     0
 77
     1
 78
     8
140
3.5
146
0.6
147
2.0
172
     1
173
     1
176
     2
177
     2
178
     3
271
     3
272
     0
340
3E1
  0
DIMSTYLE
105
47E
102
{ACAD_REACTORS
330
47F
102
}
330
A
100
AcDbSymbolTableRecord
100
AcDbDimStyleTableRecord
  2
ME10_DIM_13
 70
     0
 41
3.5
 42
0.0
 44
1.0
 71
     1
 73
     0
 74
     0
 77
     1
 78
     8
140
3.5
146
0.6
147
2.0
172
     1
173
     1
176
     2
177
     2
178
     3
271
     3
272
     0
340
3E1
  0
DIMSTYLE
105
489
102
{ACAD_REACTORS
330
48A
102
}
330
A
100
AcDbSymbolTableRecord
100
AcDbDimStyleTableRecord
  2
ME10_DIM_14
 70
     0
 41
3.5
 42
0.0
 44
1.0
 73
     0
 74
     0
 77
     1
 78
     8
140
3.5
147
2.0
172
     1
173
     1
176
     2
177
     2
178
     3
271
     3
340
3E1
  0
DIMSTYLE
105
496
102
{ACAD_REACTORS
330
497
102
}
330
A
100
AcDbSymbolTableRecord
100
AcDbDimStyleTableRecord
  2
ME10_DIM_15
 70
     0
 41
3.5
 42
0.0
 44
1.0
 73
     0
 74
     0
 77
     1
 78
     8
140
3.5
147
2.0
172
     1
173
     1
176
     2
177
     2
178
     3
271
     3
340
3E1
  0
DIMSTYLE
105
4A1
102
{ACAD_REACTORS
330
4A2
102
}
330
A
100
AcDbSymbolTableRecord
100
AcDbDimStyleTableRecord
  2
ME10_DIM_16
 70
     0
 41
3.5
 42
0.0
 44
1.0
 73
     0
 74
     0
 77
     1
 78
     8
140
3.5
147
2.0
172
     1
173
     1
176
     2
177
     2
178
     3
271
     2
340
3E1
  0
DIMSTYLE
105
4AC
102
{ACAD_REACTORS
330
4AD
102
}
330
A
100
AcDbSymbolTableRecord
100
AcDbDimStyleTableRecord
  2
ME10_DIM_17
 70
     0
  3
{\Fgdt;n}<>
 41
3.5
 42
0.0
 44
1.0
 48
-6.0
 71
     1
 73
     0
 74
     0
 77
     1
 78
     8
140
3.5
146
0.6
147
2.0
172
     1
173
     1
176
     2
177
     2
178
     3
271
     3
272
     0
340
3E1
  0
DIMSTYLE
105
4B9
102
{ACAD_REACTORS
330
4BA
102
}
330
A
100
AcDbSymbolTableRecord
100
AcDbDimStyleTableRecord
  2
ME10_DIM_18
 70
     0
 41
3.5
 42
0.0
 44
1.0
 73
     0
 74
     0
 77
     1
 78
     8
140
3.5
147
2.0
172
     1
173
     1
176
     2
177
     2
178
     3
271
     3
340
3E1
  0
DIMSTYLE
105
4C4
102
{ACAD_REACTORS
330
4C5
102
}
330
A
100
AcDbSymbolTableRecord
100
AcDbDimStyleTableRecord
  2
ME10_DIM_19
 70
     0
 41
3.5
 42
0.0
 44
1.0
 73
     0
 74
     0
 77
     1
 78
     8
140
3.5
147
2.0
172
     1
173
     1
176
     2
177
     2
178
     3
271
     2
340
3E1
  0
DIMSTYLE
105
4CF
102
{ACAD_REACTORS
330
4D0
102
}
330
A
100
AcDbSymbolTableRecord
100
AcDbDimStyleTableRecord
  2
ME10_DIM_20
 70
     0
  3
{\Fgdt;n}<>
 41
3.5
 42
0.0
 44
1.0
 48
-5.0
 71
     1
 73
     0
 74
     0
 77
     1
 78
     8
140
3.5
146
0.6
147
2.0
172
     1
173
     1
176
     2
177
     2
178
     3
271
     3
272
     0
340
3E1
  0
DIMSTYLE
105
4DA
102
{ACAD_REACTORS
330
4DB
102
}
330
A
100
AcDbSymbolTableRecord
100
AcDbDimStyleTableRecord
  2
ME10_DIM_21
 70
     0
 41
3.5
 42
0.0
 44
1.0
 73
     0
 74
     0
 77
     1
 78
     8
140
3.5
147
2.0
172
     1
173
     1
176
     2
177
     2
178
     3
271
     3
340
3E1
  0
DIMSTYLE
105
4E5
102
{ACAD_REACTORS
330
4E6
102
}
330
A
100
AcDbSymbolTableRecord
100
AcDbDimStyleTableRecord
  2
ME10_DIM_22
 70
     0
  3
{\Fgdt;8}<>
 41
3.5
 42
0.0
 44
1.0
 73
     0
 74
     0
 77
     1
 78
     8
140
3.5
147
2.0
172
     1
173
     1
176
     2
177
     2
178
     3
271
     3
340
3E1
  0
DIMSTYLE
105
4F0
102
{ACAD_REACTORS
330
4F1
102
}
330
A
100
AcDbSymbolTableRecord
100
AcDbDimStyleTableRecord
  2
ME10_DIM_23
 70
     0
 41
3.5
 42
0.0
 44
1.0
 73
     0
 74
     0
 77
     1
 78
     8
140
3.5
147
2.0
172
     1
173
     1
176
     2
177
     2
178
     3
271
     3
340
3E1
  0
DIMSTYLE
105
4FB
102
{ACAD_REACTORS
330
4FC
102
}
330
A
100
AcDbSymbolTableRecord
100
AcDbDimStyleTableRecord
  2
ME10_DIM_24
 70
     0
 41
3.5
 42
0.0
 44
1.0
 73
     0
 74
     0
 77
     1
 78
     8
140
3.5
147
2.0
172
     1
173
     1
176
     2
177
     2
178
     3
271
     3
340
3E1
  0
DIMSTYLE
105
524
102
{ACAD_REACTORS
330
525
102
}
330
A
100
AcDbSymbolTableRecord
100
AcDbDimStyleTableRecord
  2
ME10_DIM_25
 70
     0
 41
3.5
 42
0.0
 44
1.0
 73
     0
 74
     0
 77
     1
 78
     8
140
3.5
147
2.0
172
     1
173
     1
176
     2
177
     2
178
     3
271
     3
340
3E1
  0
ENDTAB
  0
TABLE
  2
BLOCK_RECORD
  5
1
330
0
100
AcDbSymbolTable
 70
    30
  0
BLOCK_RECORD
  5
1F
330
1
100
AcDbSymbolTableRecord
100
AcDbBlockTableRecord
  2
*Model_Space
340
22
  0
BLOCK_RECORD
  5
1B
330
1
100
AcDbSymbolTableRecord
100
AcDbBlockTableRecord
  2
*Paper_Space
340
1E
  0
BLOCK_RECORD
  5
23
330
1
100
AcDbSymbolTableRecord
100
AcDbBlockTableRecord
  2
*Paper_Space0
340
26
  0
BLOCK_RECORD
  5
33
330
1
100
AcDbSymbolTableRecord
100
AcDbBlockTableRecord
  2
M3x10_DIN_84
340
0
102
{BLKREFS
331
52
102
}
  0
BLOCK_RECORD
  5
36
330
1
100
AcDbSymbolTableRecord
100
AcDbBlockTableRecord
  2
O-Ring
340
0
102
{BLKREFS
331
3A
102
}
  0
BLOCK_RECORD
  5
39
330
1
100
AcDbSymbolTableRecord
100
AcDbBlockTableRecord
  2
Winkelflanschdose_8-polig_drehbar
340
0
102
{BLKREFS
331
53
102
}
  0
BLOCK_RECORD
  5
3D
330
1
100
AcDbSymbolTableRecord
100
AcDbBlockTableRecord
  2
M2_5x6_DIN_7985
340
0
102
{BLKREFS
331
54
102
}
  0
BLOCK_RECORD
  5
40
330
1
100
AcDbSymbolTableRecord
100
AcDbBlockTableRecord
  2
Steckerplatte
340
0
102
{BLKREFS
331
55
102
}
  0
BLOCK_RECORD
  5
43
330
1
100
AcDbSymbolTableRecord
100
AcDbBlockTableRecord
  2
Lagerschild_B-Seite
340
0
102
{BLKREFS
331
56
102
}
  0
BLOCK_RECORD
  5
46
330
1
100
AcDbSymbolTableRecord
100
AcDbBlockTableRecord
  2
Winkelflanschdose_12-polig_drehbar
340
0
102
{BLKREFS
331
57
102
}
  0
BLOCK_RECORD
  5
49
330
1
100
AcDbSymbolTableRecord
100
AcDbBlockTableRecord
  2
Rotor
340
0
102
{BLKREFS
331
58
102
}
  0
BLOCK_RECORD
  5
4C
330
1
100
AcDbSymbolTableRecord
100
AcDbBlockTableRecord
  2
Flachlagerschild_B5_A90
340
0
102
{BLKREFS
331
59
102
}
  0
BLOCK_RECORD
  5
4F
330
1
100
AcDbSymbolTableRecord
100
AcDbBlockTableRecord
  2
tb_frame_A3
340
0
102
{BLKREFS
331
5A
102
}
  0
BLOCK_RECORD
  5
452
330
1
100
AcDbSymbolTableRecord
100
AcDbBlockTableRecord
  2
*D11
340
0
  0
BLOCK_RECORD
  5
45D
330
1
100
AcDbSymbolTableRecord
100
AcDbBlockTableRecord
  2
*D12
340
0
  0
BLOCK_RECORD
  5
468
330
1
100
AcDbSymbolTableRecord
100
AcDbBlockTableRecord
  2
*D13
340
0
  0
BLOCK_RECORD
  5
475
330
1
100
AcDbSymbolTableRecord
100
AcDbBlockTableRecord
  2
*D14
340
0
  0
BLOCK_RECORD
  5
480
330
1
100
AcDbSymbolTableRecord
100
AcDbBlockTableRecord
  2
*D15
340
0
  0
BLOCK_RECORD
  5
48B
330
1
100
AcDbSymbolTableRecord
100
AcDbBlockTableRecord
  2
*D16
340
0
  0
BLOCK_RECORD
  5
498
330
1
100
AcDbSymbolTableRecord
100
AcDbBlockTableRecord
  2
*D17
340
0
  0
BLOCK_RECORD
  5
4A3
330
1
100
AcDbSymbolTableRecord
100
AcDbBlockTableRecord
  2
*D18
340
0
  0
BLOCK_RECORD
  5
4AE
330
1
100
AcDbSymbolTableRecord
100
AcDbBlockTableRecord
  2
*D19
340
0
  0
BLOCK_RECORD
  5
4BB
330
1
100
AcDbSymbolTableRecord
100
AcDbBlockTableRecord
  2
*D20
340
0
  0
BLOCK_RECORD
  5
4C6
330
1
100
AcDbSymbolTableRecord
100
AcDbBlockTableRecord
  2
*D21
340
0
  0
BLOCK_RECORD
  5
4D1
330
1
100
AcDbSymbolTableRecord
100
AcDbBlockTableRecord
  2
*D22
340
0
  0
BLOCK_RECORD
  5
4DC
330
1
100
AcDbSymbolTableRecord
100
AcDbBlockTableRecord
  2
*D23
340
0
  0
BLOCK_RECORD
  5
4E7
330
1
100
AcDbSymbolTableRecord
100
AcDbBlockTableRecord
  2
*D24
340
0
  0
BLOCK_RECORD
  5
4F2
330
1
100
AcDbSymbolTableRecord
100
AcDbBlockTableRecord
  2
*D25
340
0
  0
BLOCK_RECORD
  5
4FD
330
1
100
AcDbSymbolTableRecord
100
AcDbBlockTableRecord
  2
*D26
340
0
102
{BLKREFS
331
504
102
}
  0
BLOCK_RECORD
  5
505
330
1
100
AcDbSymbolTableRecord
100
AcDbBlockTableRecord
  2
*D27
340
0
102
{BLKREFS
331
50C
102
}
  0
BLOCK_RECORD
  5
50D
330
1
100
AcDbSymbolTableRecord
100
AcDbBlockTableRecord
  2
*D28
340
0
102
{BLKREFS
331
518
102
}
  0
BLOCK_RECORD
  5
519
330
1
100
AcDbSymbolTableRecord
100
AcDbBlockTableRecord
  2
*D29
340
0
  0
ENDTAB
  0
ENDSEC
  0
SECTION
  2
BLOCKS
  0
BLOCK
  5
20
330
1F
100
AcDbEntity
  8
0
100
AcDbBlockBegin
  2
*Model_Space
 70
     0
 71
     0
 10
0.0
 20
0.0
 30
0.0
  3
*Model_Space
  1

  0
ENDBLK
  5
21
330
1F
100
AcDbEntity
  8
0
100
AcDbBlockEnd
  0
BLOCK
  5
1C
330
1B
100
AcDbEntity
 67
     1
  8
0
100
AcDbBlockBegin
  2
*Paper_Space
 70
     0
 71
     0
 10
0.0
 20
0.0
 30
0.0
  3
*Paper_Space
  1

  0
ENDBLK
  5
1D
330
1B
100
AcDbEntity
 67
     1
  8
0
100
AcDbBlockEnd
  0
BLOCK
  5
24
330
23
100
AcDbEntity
  8
0
100
AcDbBlockBegin
  2
*Paper_Space0
 70
     0
 71
     0
 10
0.0
 20
0.0
 30
0.0
  3
*Paper_Space0
  1

  0
ENDBLK
  5
25
330
23
100
AcDbEntity
  8
0
100
AcDbBlockEnd
  0
BLOCK
  5
34
330
33
100
AcDbEntity
  8
0
100
AcDbBlockBegin
  2
M3x10_DIN_84
 70
     0
 71
     0
 10
-27.90713
 20
72.3689149604873
 30
0.0
  3
M3x10_DIN_84
  1

  0
LINE
  5
5B
330
33
100
AcDbEntity
  8
1
  6
DOT_CENTER
 62
     2
100
AcDbLine
 10
-42.5460404773701
 20
77.34740151857761
 30
0.0
 11
-42.54601018052369
 21
72.3689149604873
 31
0.0
  0
LINE
  5
5C
330
33
100
AcDbEntity
  8
1
  6
DOT_CENTER
 62
     2
100
AcDbLine
 10
124.0662460000001
 20
77.3523041989387
 30
0.0
 11
124.0662459999999
 21
72.368932
 31
0.0
  0
LINE
  5
5D
330
33
100
AcDbEntity
  8
1
  6
DOT_CENTER
 62
     2
100
AcDbLine
 10
64.0662515
 20
77.347385
 30
0.0
 11
64.0662515
 21
72.368932
 31
0.0
  0
LINE
  5
5E
330
33
100
AcDbEntity
  8
1
  6
Continuous
 62
     7
100
AcDbLine
 10
-21.26042636104697
 20
75.347385
 30
0.0
 11
-21.34601936104696
 21
74.368932
 31
0.0
  0
LINE
  5
5F
330
33
100
AcDbEntity
  8
1
  6
Continuous
 62
     7
100
AcDbLine
 10
-18.14603236104696
 20
75.46893800000001
 30
0.0
 11
-18.14603236104696
 21
76.16894300000001
 31
0.0
  0
LINE
  5
60
330
33
100
AcDbEntity
  8
1
  6
Continuous
 62
     7
100
AcDbLine
 10
-18.94603236104697
 20
75.46893800000001
 30
0.0
 11
-18.14603236104696
 21
75.46893800000001
 31
0.0
  0
LINE
  5
61
330
33
100
AcDbEntity
  8
1
  6
Continuous
 62
     7
100
AcDbLine
 10
-18.94603236104697
 20
76.16894300000001
 30
0.0
 11
-18.94603236104697
 21
75.46893800000001
 31
0.0
  0
LINE
  5
62
330
33
100
AcDbEntity
  8
1
  6
Continuous
 62
     7
100
AcDbLine
 10
-15.74603436104695
 20
74.368932
 30
0.0
 11
-15.83161536104697
 21
75.347385
 31
0.0
  0
LINE
  5
63
330
33
100
AcDbEntity
  8
1
  6
Continuous
 62
     7
100
AcDbLine
 10
-18.14603236104696
 20
76.16894300000001
 30
0.0
 11
-16.72819336104695
 21
76.16894300000001
 31
0.0
  0
LINE
  5
64
330
33
100
AcDbEntity
  8
1
  6
Continuous
 62
     7
100
AcDbLine
 10
-20.36384836104696
 20
76.16894300000001
 30
0.0
 11
-18.94603236104697
 21
76.16894300000001
 31
0.0
  0
LINE
  5
65
330
33
100
AcDbEntity
  8
1
  6
Continuous
 62
     7
100
AcDbLine
 10
-45.26042636104697
 20
75.347385
 30
0.0
 11
-45.34601936104696
 21
74.368932
 31
0.0
  0
LINE
  5
66
330
33
100
AcDbEntity
  8
1
  6
Continuous
 62
     7
100
AcDbLine
 10
-39.74602236104695
 20
74.368932
 30
0.0
 11
-39.83162736104696
 21
75.347385
 31
0.0
  0
LINE
  5
67
330
33
100
AcDbEntity
  8
1
  6
Continuous
 62
     7
100
AcDbLine
 10
-42.14602136104696
 20
75.46893800000001
 30
0.0
 11
-42.14602136104696
 21
76.16894300000001
 31
0.0
  0
LINE
  5
68
330
33
100
AcDbEntity
  8
1
  6
Continuous
 62
     7
100
AcDbLine
 10
-42.94602036104695
 20
75.46893800000001
 30
0.0
 11
-42.14602136104696
 21
75.46893800000001
 31
0.0
  0
LINE
  5
69
330
33
100
AcDbEntity
  8
1
  6
Continuous
 62
     7
100
AcDbLine
 10
-42.14602136104696
 20
76.16894300000001
 30
0.0
 11
-40.72820536104697
 21
76.16894300000001
 31
0.0
  0
LINE
  5
6A
330
33
100
AcDbEntity
  8
1
  6
Continuous
 62
     7
100
AcDbLine
 10
-44.36384836104696
 20
76.16894300000001
 30
0.0
 11
-42.94602036104695
 21
76.16894300000001
 31
0.0
  0
LINE
  5
6B
330
33
100
AcDbEntity
  8
1
  6
Continuous
 62
     7
100
AcDbLine
 10
-42.94602036104695
 20
76.16894300000001
 30
0.0
 11
-42.94602036104695
 21
75.46893800000001
 31
0.0
  0
LINE
  5
6C
330
33
100
AcDbEntity
  8
1
  6
Continuous
 62
     7
100
AcDbLine
 10
121.266247
 20
74.368932
 30
0.0
 11
126.866245
 21
74.368932
 31
0.0
  0
LINE
  5
6D
330
33
100
AcDbEntity
  8
1
  6
Continuous
 62
     7
100
AcDbLine
 10
122.525206
 20
76.16894300000001
 30
0.0
 11
122.931044
 21
76.16894300000001
 31
0.0
  0
LINE
  5
6E
330
33
100
AcDbEntity
  8
1
  6
Continuous
 62
     7
100
AcDbLine
 10
124.066246
 20
76.16894300000001
 30
0.0
 11
124.667711
 21
76.16894300000001
 31
0.0
  0
LINE
  5
6F
330
33
100
AcDbEntity
  8
1
  6
Continuous
 62
     7
100
AcDbLine
 10
125.607286
 20
76.16894300000001
 30
0.0
 11
125.839515
 21
76.16894300000001
 31
0.0
  0
LINE
  5
70
330
33
100
AcDbEntity
  8
1
  6
Continuous
 62
     7
100
AcDbLine
 10
125.839515
 20
76.16894300000001
 30
0.0
 11
125.963829
 21
76.160708
 31
0.0
  0
LINE
  5
71
330
33
100
AcDbEntity
  8
1
  6
Continuous
 62
     7
100
AcDbLine
 10
126.515394
 20
75.87673699999999
 30
0.0
 11
126.681881
 21
75.62115700000001
 31
0.0
  0
LINE
  5
72
330
33
100
AcDbEntity
  8
1
  6
Continuous
 62
     7
100
AcDbLine
 10
121.515142
 20
75.743945
 30
0.0
 11
121.62313
 21
75.88315700000001
 31
0.0
  0
LINE
  5
73
330
33
100
AcDbEntity
  8
1
  6
Continuous
 62
     7
100
AcDbLine
 10
122.160161
 20
76.15954500000001
 30
0.0
 11
122.292977
 21
76.16894300000001
 31
0.0
  0
LINE
  5
74
330
33
100
AcDbEntity
  8
1
  6
Continuous
 62
     7
100
AcDbLine
 10
126.866245
 20
74.368932
 30
0.0
 11
126.7839738676955
 21
75.30926838082311
 31
0.0
  0
LINE
  5
75
330
33
100
AcDbEntity
  8
1
  6
Continuous
 62
     7
100
AcDbLine
 10
122.292977
 20
76.16894300000001
 30
0.0
 11
122.525206
 21
76.16894300000001
 31
0.0
  0
LINE
  5
76
330
33
100
AcDbEntity
  8
1
  6
Continuous
 62
     7
100
AcDbLine
 10
123.464757
 20
76.16894300000001
 30
0.0
 11
124.066246
 21
76.16894300000001
 31
0.0
  0
LINE
  5
77
330
33
100
AcDbEntity
  8
1
  6
Continuous
 62
     7
100
AcDbLine
 10
125.201448
 20
76.16894300000001
 30
0.0
 11
125.607286
 21
76.16894300000001
 31
0.0
  0
LINE
  5
78
330
33
100
AcDbEntity
  8
1
  6
Continuous
 62
     7
100
AcDbLine
 10
126.267953
 20
76.064977
 30
0.0
 11
126.515394
 21
75.87673699999999
 31
0.0
  0
LINE
  5
79
330
33
100
AcDbEntity
  8
1
  6
Continuous
 62
     7
100
AcDbLine
 10
121.3522833864819
 20
75.3523041989387
 30
0.0
 11
121.515142
 21
75.743945
 31
0.0
  0
LINE
  5
7A
330
33
100
AcDbEntity
  8
1
  6
Continuous
 62
     7
100
AcDbLine
 10
121.868294
 20
76.066915
 30
0.0
 11
122.160161
 21
76.15954500000001
 31
0.0
  0
LINE
  5
7B
330
33
100
AcDbEntity
  8
1
  6
Continuous
 62
     7
100
AcDbLine
 10
121.3522833864819
 20
75.3523041989387
 30
0.0
 11
121.266247
 21
74.368932
 31
0.0
  0
LINE
  5
7C
330
33
100
AcDbEntity
  8
1
  6
Continuous
 62
     7
100
AcDbLine
 10
122.931044
 20
76.16894300000001
 30
0.0
 11
123.464757
 21
76.16894300000001
 31
0.0
  0
LINE
  5
7D
330
33
100
AcDbEntity
  8
1
  6
Continuous
 62
     7
100
AcDbLine
 10
124.667711
 20
76.16894300000001
 30
0.0
 11
125.201448
 21
76.16894300000001
 31
0.0
  0
LINE
  5
7E
330
33
100
AcDbEntity
  8
1
  6
Continuous
 62
     7
100
AcDbLine
 10
125.963829
 20
76.160708
 30
0.0
 11
126.267953
 21
76.064977
 31
0.0
  0
LINE
  5
7F
330
33
100
AcDbEntity
  8
1
  6
Continuous
 62
     7
100
AcDbLine
 10
126.681881
 20
75.62115700000001
 30
0.0
 11
126.7839738676955
 21
75.30926838082311
 31
0.0
  0
LINE
  5
80
330
33
100
AcDbEntity
  8
1
  6
Continuous
 62
     7
100
AcDbLine
 10
121.62313
 20
75.88315700000001
 30
0.0
 11
121.868294
 21
76.066915
 31
0.0
  0
LINE
  5
81
330
33
100
AcDbEntity
  8
1
  6
Continuous
 62
     7
100
AcDbLine
 10
61.26625300000001
 20
74.368932
 30
0.0
 11
66.86625
 21
74.368932
 31
0.0
  0
LINE
  5
82
330
33
100
AcDbEntity
  8
1
  6
Continuous
 62
     7
100
AcDbLine
 10
66.515399
 20
75.87673699999999
 30
0.0
 11
66.7682986601934
 21
75.48850191166139
 31
0.0
  0
LINE
  5
83
330
33
100
AcDbEntity
  8
1
  6
Continuous
 62
     7
100
AcDbLine
 10
61.868275
 20
76.066915
 30
0.0
 11
62.16014199999999
 21
76.15954500000001
 31
0.0
  0
LINE
  5
84
330
33
100
AcDbEntity
  8
1
  6
Continuous
 62
     7
100
AcDbLine
 10
62.525212
 20
76.16894300000001
 30
0.0
 11
62.931049
 21
76.16894300000001
 31
0.0
  0
LINE
  5
85
330
33
100
AcDbEntity
  8
1
  6
Continuous
 62
     7
100
AcDbLine
 10
63.46476199999999
 20
76.16894300000001
 30
0.0
 11
64.066251
 21
76.16894300000001
 31
0.0
  0
LINE
  5
86
330
33
100
AcDbEntity
  8
1
  6
Continuous
 62
     7
100
AcDbLine
 10
66.267934
 20
76.064977
 30
0.0
 11
66.515399
 21
75.87673699999999
 31
0.0
  0
LINE
  5
87
330
33
100
AcDbEntity
  8
1
  6
Continuous
 62
     7
100
AcDbLine
 10
61.35185799999999
 20
75.347385
 30
0.0
 11
61.26625300000001
 21
74.368932
 31
0.0
  0
LINE
  5
88
330
33
100
AcDbEntity
  8
1
  6
Continuous
 62
     7
100
AcDbLine
 10
61.35229748483791
 20
75.352408249321
 30
0.0
 11
61.515147
 21
75.743945
 31
0.0
  0
LINE
  5
89
330
33
100
AcDbEntity
  8
1
  6
Continuous
 62
     7
100
AcDbLine
 10
61.515147
 20
75.743945
 30
0.0
 11
61.623135
 21
75.88315700000001
 31
0.0
  0
LINE
  5
8A
330
33
100
AcDbEntity
  8
1
  6
Continuous
 62
     7
100
AcDbLine
 10
62.16014199999999
 20
76.15954500000001
 30
0.0
 11
62.29298300000001
 21
76.16894300000001
 31
0.0
  0
LINE
  5
8B
330
33
100
AcDbEntity
  8
1
  6
Continuous
 62
     7
100
AcDbLine
 10
62.931049
 20
76.16894300000001
 30
0.0
 11
63.46476199999999
 21
76.16894300000001
 31
0.0
  0
LINE
  5
8C
330
33
100
AcDbEntity
  8
1
  6
Continuous
 62
     7
100
AcDbLine
 10
65.963834
 20
76.160708
 30
0.0
 11
66.267934
 21
76.064977
 31
0.0
  0
LINE
  5
8D
330
33
100
AcDbEntity
  8
1
  6
Continuous
 62
     7
100
AcDbLine
 10
66.86625
 20
74.368932
 30
0.0
 11
66.7682986601934
 21
75.48850191166139
 31
0.0
  0
LINE
  5
8E
330
33
100
AcDbEntity
  8
1
  6
Continuous
 62
     7
100
AcDbLine
 10
62.29298300000001
 20
76.16894300000001
 30
0.0
 11
62.525212
 21
76.16894300000001
 31
0.0
  0
LINE
  5
8F
330
33
100
AcDbEntity
  8
1
  6
Continuous
 62
     7
100
AcDbLine
 10
61.623135
 20
75.88315700000001
 30
0.0
 11
61.868275
 21
76.066915
 31
0.0
  0
LINE
  5
90
330
33
100
AcDbEntity
  8
1
  6
Continuous
 62
     7
100
AcDbLine
 10
64.066251
 20
76.16894300000001
 30
0.0
 11
64.667717
 21
76.16894300000001
 31
0.0
  0
ARC
  5
91
330
33
100
AcDbEntity
  8
1
  6
Continuous
 62
     7
100
AcDbCircle
 10
-16.72819336104695
 20
75.26894999999999
 30
0.0
 40
0.900000000000023
100
AcDbArc
 50
5.00000000000185
 51
90.0
  0
ARC
  5
92
330
33
100
AcDbEntity
  8
1
  6
Continuous
 62
     7
100
AcDbCircle
 10
-20.36384836104696
 20
75.26894999999999
 30
0.0
 40
0.9000000000000057
100
AcDbArc
 50
90.0
 51
174.9999999999982
  0
ARC
  5
93
330
33
100
AcDbEntity
  8
1
  6
Continuous
 62
     7
100
AcDbCircle
 10
-44.36384836104696
 20
75.26894999999999
 30
0.0
 40
0.9000000000000057
100
AcDbArc
 50
90.0
 51
174.9999999999981
  0
ARC
  5
94
330
33
100
AcDbEntity
  8
1
  6
Continuous
 62
     7
100
AcDbCircle
 10
-40.72820536104697
 20
75.26894999999999
 30
0.0
 40
0.8999999999999327
100
AcDbArc
 50
5.00000000000235
 51
90.0
  0
ENDBLK
  5
35
330
33
100
AcDbEntity
  8
0
100
AcDbBlockEnd
  0
BLOCK
  5
37
330
36
100
AcDbEntity
  8
0
100
AcDbBlockBegin
  2
O-Ring
 70
     0
 71
     0
 10
275.8218105988087
 20
26.0257383953884
 30
0.0
  3
O-Ring
  1

  0
LINE
  5
95
330
36
100
AcDbEntity
  8
1
  6
Continuous
 62
     7
100
AcDbLine
 10
-5.29383200000029
 20
88.74139100970191
 30
0.0
 11
-5.29383200000029
 21
89.3163910097019
 31
0.0
  0
LINE
  5
96
330
36
100
AcDbEntity
  8
1
  6
Continuous
 62
     7
100
AcDbLine
 10
-5.29383200000029
 20
110.916391009702
 30
0.0
 11
-5.29383200000029
 21
111.4913910097019
 31
0.0
  0
ARC
  5
97
102
{ACAD_REACTORS
330
9A
330
9A
102
}
330
36
100
AcDbEntity
  8
1
  6
Continuous
 62
     7
100
AcDbCircle
 10
-6.09383200000036
 20
111.4913910097019
 30
0.0
 40
0.80000000000007
100
AcDbArc
 50
0.0
 51
180.0
  0
ARC
  5
98
102
{ACAD_REACTORS
330
9A
330
9A
102
}
330
36
100
AcDbEntity
  8
1
  6
Continuous
 62
     7
100
AcDbCircle
 10
-6.09383200000036
 20
111.4913910097019
 30
0.0
 40
0.7999999999999492
100
AcDbArc
 50
180.0
 51
0.0
  0
CIRCLE
  5
99
102
{ACAD_REACTORS
330
9B
330
9B
102
}
330
36
100
AcDbEntity
  8
1
  6
Continuous
 62
     7
100
AcDbCircle
 10
-6.09383200000036
 20
88.74139100970191
 30
0.0
 40
0.80000000000007
  0
HATCH
  5
9A
330
36
100
AcDbEntity
  8
1
  6
Continuous
 62
     2
100
AcDbHatch
 10
0.0
 20
0.0
 30
0.0
210
0.0
220
0.0
230
1.0
  2
CUSTOM0
 70
     0
 71
     1
 91
        1
 92
        1
 93
        2
 72
     2
 10
-6.093832000000363
 20
111.4913910097019
 40
0.80000000000007
 50
0.0
 51
180.0
 73
     1
 72
     2
 10
-6.093832000000363
 20
111.4913910097019
 40
0.7999999999999492
 50
180.0
 51
360.0
 73
     1
 97
        2
330
97
330
98
 75
     1
 76
     2
 52
45.0
 41
0.5
 77
     0
 78
     2
 53
45.0
 43
0.0
 44
0.0
 45
-0.7071067811865475
 46
0.0000000000000001
 79
     0
 53
135.0
 43
0.0
 44
0.0
 45
0.0000000000000003
 46
-0.7071067811865475
 79
     0
 98
        1
 10
0.0
 20
0.0
  0
HATCH
  5
9B
330
36
100
AcDbEntity
  8
1
  6
Continuous
 62
     2
100
AcDbHatch
 10
0.0
 20
0.0
 30
0.0
210
0.0
220
0.0
230
1.0
  2
CUSTOM1
 70
     0
 71
     1
 91
        1
 92
        1
 93
        1
 72
     2
 10
-6.093832000000363
 20
88.74139100970191
 40
0.80000000000007
 50
0.0
 51
360.0
 73
     1
 97
        1
330
99
 75
     1
 76
     2
 52
45.0
 41
0.5
 77
     0
 78
     2
 53
45.0
 43
0.0
 44
0.0
 45
-0.7071067811865475
 46
0.0000000000000001
 79
     0
 53
135.0
 43
0.0
 44
0.0
 45
0.0000000000000003
 46
-0.7071067811865475
 79
     0
 98
        1
 10
0.0
 20
0.0
  0
ENDBLK
  5
38
330
36
100
AcDbEntity
  8
0
100
AcDbBlockEnd
  0
BLOCK
  5
3B
330
39
100
AcDbEntity
  8
0
100
AcDbBlockBegin
  2
Winkelflanschdose_8-polig_drehbar
 70
     0
 71
     0
 10
360.746688887328
 20
144.800892248901
 30
0.0
  3
Winkelflanschdose_8-polig_drehbar
  1

  0
INSERT
  5
3A
330
39
100
AcDbEntity
  8
1
100
AcDbBlockReference
  2
O-Ring
 10
275.8218105988087
 20
26.0257383953884
 30
0.0
  0
POINT
  5
9C
330
39
100
AcDbEntity
  8
1
 62
     3
 60
     1
100
AcDbPoint
 10
68.0650613215079
 20
87.1189187191097
 30
0.0
  0
POINT
  5
9D
330
39
100
AcDbEntity
  8
1
 62
     3
 60
     1
100
AcDbPoint
 10
67.2150613215078
 20
87.1189187191097
 30
0.0
  0
POINT
  5
9E
330
39
100
AcDbEntity
  8
1
 62
     3
 60
     1
100
AcDbPoint
 10
67.2150613215078
 20
77.1189187191097
 30
0.0
  0
POINT
  5
9F
330
39
100
AcDbEntity
  8
1
 62
     3
 60
     1
100
AcDbPoint
 10
-17.50713200000029
 20
83.61893184134621
 30
0.0
  0
POINT
  5
A0
330
39
100
AcDbEntity
  8
1
 62
     3
 60
     1
100
AcDbPoint
 10
-17.50713200000029
 20
83.618931
 30
0.0
  0
POINT
  5
A1
330
39
100
AcDbEntity
  8
1
 62
     3
 60
     1
100
AcDbPoint
 10
-17.50713200000029
 20
87.618931
 30
0.0
  0
POINT
  5
A2
330
39
100
AcDbEntity
  8
1
 62
     3
 60
     1
100
AcDbPoint
 10
92.0650613215079
 20
83.6189187191097
 30
0.0
  0
POINT
  5
A3
330
39
100
AcDbEntity
  8
1
 62
     3
 60
     1
100
AcDbPoint
 10
68.0650613215079
 20
83.6189187191097
 30
0.0
  0
LINE
  5
A4
330
39
100
AcDbEntity
  8
1
  6
Continuous
 62
     7
100
AcDbLine
 10
8.50616799999983
 20
110.9189309999999
 30
0.0
 11
8.50616799999983
 21
89.31893099999999
 31
0.0
  0
LINE
  5
A5
330
39
100
AcDbEntity
  8
AM_VIS
  6
Continuous
 62
     7
100
AcDbLine
 10
-7.69383200000027
 20
113.118931
 30
0.0
 11
-7.69383200000027
 21
111.6689309999999
 31
0.0
  0
LINE
  5
A6
330
39
100
AcDbEntity
  8
AM_VIS
  6
Continuous
 62
     7
100
AcDbLine
 10
68.0650613215079
 20
87.1189187191097
 30
0.0
 11
68.0650613215079
 21
83.6189187191097
 31
0.0
  0
LINE
  5
A7
330
39
100
AcDbEntity
  8
1
  6
Continuous
 62
     7
100
AcDbLine
 10
67.2150613215078
 20
87.1189187191097
 30
0.0
 11
68.0650613215079
 21
87.1189187191097
 31
0.0
  0
LINE
  5
A8
330
39
100
AcDbEntity
  8
1
  6
Continuous
 62
     7
100
AcDbLine
 10
67.2150613215078
 20
77.1189187191097
 30
0.0
 11
67.2150613215078
 21
87.1189187191097
 31
0.0
  0
LINE
  5
A9
330
39
100
AcDbEntity
  8
1
  6
Continuous
 62
     7
100
AcDbLine
 10
-17.50713200000029
 20
83.618931
 30
0.0
 11
-17.50713200000029
 21
83.61893184134621
 31
0.0
  0
LINE
  5
AA
330
39
100
AcDbEntity
  8
1
  6
Continuous
 62
     7
100
AcDbLine
 10
-17.50713200000029
 20
83.61893184134621
 30
0.0
 11
-18.35713200000032
 21
83.61893184134621
 31
0.0
  0
LINE
  5
AB
330
39
100
AcDbEntity
  8
AM_VIS
  6
Continuous
 62
     7
100
AcDbLine
 10
-18.35713200000032
 20
87.618931
 30
0.0
 11
-17.50713200000029
 21
87.618931
 31
0.0
  0
LINE
  5
AC
330
39
100
AcDbEntity
  8
1
  6
Continuous
 62
     7
100
AcDbLine
 10
-17.50713200000029
 20
83.61893184134621
 30
0.0
 11
-17.50713200000029
 21
87.618931
 31
0.0
  0
LINE
  5
AD
330
39
100
AcDbEntity
  8
AM_VIS
  6
Continuous
 62
     2
100
AcDbLine
 10
-7.69383200000027
 20
107.635229
 30
0.0
 11
-18.73987500000022
 21
107.635229
 31
0.0
  0
LINE
  5
AE
330
39
100
AcDbEntity
  8
AM_VIS
  6
Continuous
 62
     2
100
AcDbLine
 10
-7.69383200000027
 20
106.470051
 30
0.0
 11
-18.06248900000025
 21
106.4700510000001
 31
0.0
  0
LINE
  5
AF
330
39
100
AcDbEntity
  8
AM_VIS
  6
Continuous
 62
     2
100
AcDbLine
 10
-7.69383200000027
 20
105.542291
 30
0.0
 11
-17.81234600000039
 21
105.542291
 31
0.0
  0
LINE
  5
B0
330
39
100
AcDbEntity
  8
AM_VIS
  6
Continuous
 62
     2
100
AcDbLine
 10
-7.69383200000027
 20
104.247614
 30
0.0
 11
-17.65076000420447
 21
104.247614
 31
0.0
  0
LINE
  5
B1
330
39
100
AcDbEntity
  8
AM_VIS
  6
Continuous
 62
     2
100
AcDbLine
 10
-7.69383200000027
 20
103.240937
 30
0.0
 11
-17.60250900000028
 21
103.240937
 31
0.0
  0
LINE
  5
B2
330
39
100
AcDbEntity
  8
AM_VIS
  6
Continuous
 62
     2
100
AcDbLine
 10
-7.69383200000027
 20
101.8665149999999
 30
0.0
 11
-17.58455900000035
 21
101.866515
 31
0.0
  0
LINE
  5
B3
330
39
100
AcDbEntity
  8
AM_VIS
  6
Continuous
 62
     2
100
AcDbLine
 10
-7.69383200000027
 20
99.41825700000001
 30
0.0
 11
-17.59028915396754
 21
99.41825700000001
 31
0.0
  0
LINE
  5
B4
330
39
100
AcDbEntity
  8
AM_VIS
  6
Continuous
 62
     2
100
AcDbLine
 10
-7.69383200000027
 20
100.819605
 30
0.0
 11
-17.58797532710707
 21
100.819605
 31
0.0
  0
LINE
  5
B5
330
39
100
AcDbEntity
  8
1
  6
DOT_CENTER
 62
     2
100
AcDbLine
 10
-6.69383200000027
 20
100.118931
 30
0.0
 11
4.60616799999969
 21
100.118931
 31
0.0
  0
LINE
  5
B6
330
39
100
AcDbEntity
  8
AM_VIS
  6
Continuous
 62
     7
100
AcDbLine
 10
-4.69383200000027
 20
111.6689309999999
 30
0.0
 11
-5.29383200000029
 21
111.6689309999999
 31
0.0
  0
LINE
  5
B7
330
39
100
AcDbEntity
  8
AM_VIS
  6
Continuous
 62
     7
100
AcDbLine
 10
-5.29383200000029
 20
110.693931
 30
0.0
 11
-6.89383200000031
 21
110.693931
 31
0.0
  0
LINE
  5
B8
330
39
100
AcDbEntity
  8
AM_VIS
  6
Continuous
 62
     7
100
AcDbLine
 10
-6.89383200000031
 20
111.6689309999999
 30
0.0
 11
-7.69383200000027
 21
111.6689309999999
 31
0.0
  0
LINE
  5
B9
330
39
100
AcDbEntity
  8
AM_VIS
  6
Continuous
 62
     7
100
AcDbLine
 10
2.60616799999969
 20
111.618931
 30
0.0
 11
-4.69383200000027
 21
111.618931
 31
0.0
  0
LINE
  5
BA
330
39
100
AcDbEntity
  8
AM_VIS
  6
Continuous
 62
     7
100
AcDbLine
 10
3.30616799999973
 20
110.9189309999999
 30
0.0
 11
2.60616799999969
 21
111.618931
 31
0.0
  0
LINE
  5
BB
330
39
100
AcDbEntity
  8
AM_VIS
  6
Continuous
 62
     7
100
AcDbLine
 10
3.30616799999973
 20
89.31893099999999
 30
0.0
 11
3.30616799999973
 21
100.118931
 31
0.0
  0
LINE
  5
BC
330
39
100
AcDbEntity
  8
AM_VIS
  6
Continuous
 62
     7
100
AcDbLine
 10
3.30616799999973
 20
89.31893099999999
 30
0.0
 11
8.50616799999983
 21
89.31893099999999
 31
0.0
  0
LINE
  5
BD
330
39
100
AcDbEntity
  8
AM_VIS
  6
Continuous
 62
     7
100
AcDbLine
 10
2.60616799999969
 20
88.618931
 30
0.0
 11
2.60616799999969
 21
96.16798199999991
 31
0.0
  0
LINE
  5
BE
330
39
100
AcDbEntity
  8
AM_VIS
  6
Continuous
 62
     7
100
AcDbLine
 10
-4.69383200000027
 20
104.213134
 30
0.0
 11
-4.69383200000027
 21
104.06988
 31
0.0
  0
LINE
  5
BF
330
39
100
AcDbEntity
  8
AM_VIS
  6
Continuous
 62
     7
100
AcDbLine
 10
-5.29383200000029
 20
104.213134
 30
0.0
 11
-4.69383200000027
 21
104.213134
 31
0.0
  0
LINE
  5
C0
330
39
100
AcDbEntity
  8
AM_VIS
  6
Continuous
 62
     7
100
AcDbLine
 10
-5.29383200000029
 20
96.02472800000001
 30
0.0
 11
-5.29383200000029
 21
104.213134
 31
0.0
  0
LINE
  5
C1
330
39
100
AcDbEntity
  8
AM_VIS
  6
Continuous
 62
     7
100
AcDbLine
 10
-4.69383200000027
 20
96.02472800000001
 30
0.0
 11
-5.29383200000029
 21
96.02472800000001
 31
0.0
  0
LINE
  5
C2
330
39
100
AcDbEntity
  8
AM_VIS
  6
Continuous
 62
     7
100
AcDbLine
 10
-4.69383200000027
 20
96.16798199999991
 30
0.0
 11
-4.69383200000027
 21
96.02472800000001
 31
0.0
  0
LINE
  5
C3
330
39
100
AcDbEntity
  8
AM_VIS
  6
Continuous
 62
     7
100
AcDbLine
 10
-5.29383200000029
 20
88.56893099999999
 30
0.0
 11
-5.29383200000029
 21
89.5439309999999
 31
0.0
  0
LINE
  5
C4
330
39
100
AcDbEntity
  8
AM_VIS
  6
Continuous
 62
     7
100
AcDbLine
 10
-4.69383200000027
 20
88.56893099999999
 30
0.0
 11
-4.69383200000027
 21
88.618931
 31
0.0
  0
LINE
  5
C5
330
39
100
AcDbEntity
  8
AM_VIS
  6
Continuous
 62
     7
100
AcDbLine
 10
-5.29383200000029
 20
88.56893099999999
 30
0.0
 11
-4.69383200000027
 21
88.56893099999999
 31
0.0
  0
LINE
  5
C6
330
39
100
AcDbEntity
  8
AM_VIS
  6
Continuous
 62
     7
100
AcDbLine
 10
-6.89383200000031
 20
89.5439309999999
 30
0.0
 11
-5.29383200000029
 21
89.5439309999999
 31
0.0
  0
LINE
  5
C7
330
39
100
AcDbEntity
  8
AM_VIS
  6
Continuous
 62
     7
100
AcDbLine
 10
-7.69383200000027
 20
88.56893099999999
 30
0.0
 11
-6.89383200000031
 21
88.56893099999999
 31
0.0
  0
LINE
  5
C8
330
39
100
AcDbEntity
  8
AM_VIS
  6
Continuous
 62
     7
100
AcDbLine
 10
-4.69383200000027
 20
104.06988
 30
0.0
 11
2.60616799999969
 21
104.06988
 31
0.0
  0
LINE
  5
C9
330
39
100
AcDbEntity
  8
AM_VIS
  6
Continuous
 62
     7
100
AcDbLine
 10
2.60616799999969
 20
96.16798199999991
 30
0.0
 11
-4.69383200000027
 21
96.16798199999991
 31
0.0
  0
LINE
  5
CA
330
39
100
AcDbEntity
  8
AM_VIS
  6
Continuous
 62
     7
100
AcDbLine
 10
-4.69383200000027
 20
88.618931
 30
0.0
 11
2.60616799999969
 21
88.618931
 31
0.0
  0
LINE
  5
CB
330
39
100
AcDbEntity
  8
AM_VIS
  6
Continuous
 62
     7
100
AcDbLine
 10
3.13256399999966
 20
98.17470900000001
 30
0.0
 11
2.60616799999969
 21
96.16798199999991
 31
0.0
  0
LINE
  5
CC
330
39
100
AcDbEntity
  8
AM_VIS
  6
Continuous
 62
     7
100
AcDbLine
 10
3.30616799999973
 20
100.118931
 30
0.0
 11
3.13256399999966
 21
98.17470900000001
 31
0.0
  0
LINE
  5
CD
330
39
100
AcDbEntity
  8
AM_VIS
  6
Continuous
 62
     7
100
AcDbLine
 10
3.13256399999966
 20
102.0631529999999
 30
0.0
 11
3.30616799999973
 21
100.118931
 31
0.0
  0
LINE
  5
CE
330
39
100
AcDbEntity
  8
AM_VIS
  6
Continuous
 62
     7
100
AcDbLine
 10
2.60616799999969
 20
104.06988
 30
0.0
 11
3.13256399999966
 21
102.0631529999999
 31
0.0
  0
LINE
  5
CF
330
39
100
AcDbEntity
  8
AM_VIS
  6
Continuous
 62
     7
100
AcDbLine
 10
2.60616799999969
 20
88.618931
 30
0.0
 11
3.30616799999973
 21
89.31893099999999
 31
0.0
  0
LINE
  5
D0
330
39
100
AcDbEntity
  8
AM_VIS
  6
Continuous
 62
     7
100
AcDbLine
 10
-5.29383200000029
 20
104.213134
 30
0.0
 11
-5.29383200000029
 21
110.693931
 31
0.0
  0
LINE
  5
D1
330
39
100
AcDbEntity
  8
AM_VIS
  6
Continuous
 62
     7
100
AcDbLine
 10
-4.69383200000027
 20
104.213134
 30
0.0
 11
-4.69383200000027
 21
111.618931
 31
0.0
  0
LINE
  5
D2
330
39
100
AcDbEntity
  8
AM_VIS
  6
Continuous
 62
     7
100
AcDbLine
 10
2.60616799999969
 20
104.06988
 30
0.0
 11
2.60616799999969
 21
111.618931
 31
0.0
  0
LINE
  5
D3
330
39
100
AcDbEntity
  8
AM_VIS
  6
Continuous
 62
     7
100
AcDbLine
 10
3.30616799999973
 20
100.118931
 30
0.0
 11
3.30616799999973
 21
110.9189309999999
 31
0.0
  0
LINE
  5
D4
330
39
100
AcDbEntity
  8
AM_VIS
  6
Continuous
 62
     7
100
AcDbLine
 10
-6.89383200000031
 20
88.56893099999999
 30
0.0
 11
-6.89383200000031
 21
89.5439309999999
 31
0.0
  0
LINE
  5
D5
330
39
100
AcDbEntity
  8
AM_VIS
  6
Continuous
 62
     7
100
AcDbLine
 10
-7.69383200000027
 20
113.118931
 30
0.0
 11
-43.19383200000027
 21
113.118931
 31
0.0
  0
LINE
  5
D6
330
39
100
AcDbEntity
  8
AM_VIS
  6
Continuous
 62
     2
100
AcDbLine
 10
-7.69383200000027
 20
110.331017
 30
0.0
 11
-40.98301200000026
 21
110.331017
 31
0.0
  0
LINE
  5
D7
330
39
100
AcDbEntity
  8
AM_VIS
  6
Continuous
 62
     2
100
AcDbLine
 10
-7.69383200000027
 20
109.438593
 30
0.0
 11
-40.31720700000039
 21
109.438593
 31
0.0
  0
LINE
  5
D8
330
39
100
AcDbEntity
  8
AM_VIS
  6
Continuous
 62
     2
100
AcDbLine
 10
-7.69383200000027
 20
90.798542
 30
0.0
 11
-21.71886500000039
 21
90.798542
 31
0.0
  0
LINE
  5
D9
330
39
100
AcDbEntity
  8
AM_VIS
  6
Continuous
 62
     2
100
AcDbLine
 10
-7.69383200000027
 20
91.789444
 30
0.0
 11
-20.11624600000027
 21
91.789444
 31
0.0
  0
LINE
  5
DA
330
39
100
AcDbEntity
  8
AM_VIS
  6
Continuous
 62
     7
100
AcDbLine
 10
-7.69383200000027
 20
98.90351799999999
 30
0.0
 11
-17.5856130000003
 21
98.90351799999999
 31
0.0
  0
LINE
  5
DB
330
39
100
AcDbEntity
  8
AM_VIS
  6
Continuous
 62
     2
100
AcDbLine
 10
-7.69383200000027
 20
98.37134699999999
 30
0.0
 11
-17.58455900000035
 21
98.37134699999999
 31
0.0
  0
LINE
  5
DC
330
39
100
AcDbEntity
  8
AM_VIS
  6
Continuous
 62
     2
100
AcDbLine
 10
-7.69383200000027
 20
96.996925
 30
0.0
 11
-17.60250900000028
 21
96.996925
 31
0.0
  0
LINE
  5
DD
330
39
100
AcDbEntity
  8
AM_VIS
  6
Continuous
 62
     2
100
AcDbLine
 10
-7.69383200000027
 20
95.99024700000001
 30
0.0
 11
-17.65076000000033
 21
95.99024700000001
 31
0.0
  0
LINE
  5
DE
330
39
100
AcDbEntity
  8
AM_VIS
  6
Continuous
 62
     2
100
AcDbLine
 10
-7.69383200000027
 20
94.695571
 30
0.0
 11
-17.81234600000039
 21
94.695571
 31
0.0
  0
LINE
  5
DF
330
39
100
AcDbEntity
  8
AM_VIS
  6
Continuous
 62
     2
100
AcDbLine
 10
-7.69383200000027
 20
93.76781099999991
 30
0.0
 11
-18.06248900000025
 21
93.76781099999991
 31
0.0
  0
LINE
  5
E0
330
39
100
AcDbEntity
  8
AM_VIS
  6
Continuous
 62
     2
100
AcDbLine
 10
-7.69383200000027
 20
92.602633
 30
0.0
 11
-18.73987500000022
 21
92.602633
 31
0.0
  0
LINE
  5
E1
330
39
100
AcDbEntity
  8
AM_VIS
  6
Continuous
 62
     2
100
AcDbLine
 10
-7.69383200000027
 20
90.13117500000001
 30
0.0
 11
-21.00270700000021
 21
90.13117500000001
 31
0.0
  0
LINE
  5
E2
330
39
100
AcDbEntity
  8
AM_VIS
  6
Continuous
 62
     2
100
AcDbLine
 10
-7.69383200000027
 20
89.35262800000001
 30
0.0
 11
-20.17561500000045
 21
89.35262800000001
 31
0.0
  0
LINE
  5
E3
330
39
100
AcDbEntity
  8
AM_VIS
  6
Continuous
 62
     2
100
AcDbLine
 10
-7.69383200000027
 20
88.85673
 30
0.0
 11
-19.65259200000025
 21
88.85673
 31
0.0
  0
LINE
  5
E4
330
39
100
AcDbEntity
  8
AM_VIS
  6
Continuous
 62
     2
100
AcDbLine
 10
-7.69383200000027
 20
88.01508499999991
 30
0.0
 11
-18.77036800000041
 21
88.01508499999991
 31
0.0
  0
LINE
  5
E5
330
39
100
AcDbEntity
  8
AM_VIS
  6
Continuous
 62
     2
100
AcDbLine
 10
-7.69383200000027
 20
87.63858400000001
 30
0.0
 11
-18.37760500000024
 21
87.63858400000001
 31
0.0
  0
LINE
  5
E6
330
39
100
AcDbEntity
  8
AM_VIS
  6
Continuous
 62
     7
100
AcDbLine
 10
-17.50713200000029
 20
87.618931
 30
0.0
 11
-7.69383200000027
 21
87.618931
 31
0.0
  0
LINE
  5
E7
330
39
100
AcDbEntity
  8
AM_VIS
  6
Continuous
 62
     7
100
AcDbLine
 10
-5.29383200000029
 20
89.5439309999999
 30
0.0
 11
-5.29383200000029
 21
96.02472800000001
 31
0.0
  0
LINE
  5
E8
330
39
100
AcDbEntity
  8
AM_VIS
  6
Continuous
 62
     7
100
AcDbLine
 10
-6.89383200000031
 20
89.5439309999999
 30
0.0
 11
-6.89383200000031
 21
110.693931
 31
0.0
  0
LINE
  5
E9
330
39
100
AcDbEntity
  8
AM_VIS
  6
Continuous
 62
     7
100
AcDbLine
 10
-6.89383200000031
 20
110.693931
 30
0.0
 11
-6.89383200000031
 21
111.6689309999999
 31
0.0
  0
LINE
  5
EA
330
39
100
AcDbEntity
  8
AM_VIS
  6
Continuous
 62
     7
100
AcDbLine
 10
-5.29383200000029
 20
110.693931
 30
0.0
 11
-5.29383200000029
 21
111.6689309999999
 31
0.0
  0
LINE
  5
EB
330
39
100
AcDbEntity
  8
AM_VIS
  6
Continuous
 62
     7
100
AcDbLine
 10
-7.69383200000027
 20
111.6689309999999
 30
0.0
 11
-7.69383200000027
 21
88.56893099999999
 31
0.0
  0
LINE
  5
EC
330
39
100
AcDbEntity
  8
AM_VIS
  6
Continuous
 62
     7
100
AcDbLine
 10
-4.69383200000027
 20
111.618931
 30
0.0
 11
-4.69383200000027
 21
111.6689309999999
 31
0.0
  0
LINE
  5
ED
330
39
100
AcDbEntity
  8
AM_VIS
  6
Continuous
 62
     7
100
AcDbLine
 10
-7.69383200000027
 20
87.618931
 30
0.0
 11
-7.69383200000027
 21
88.56893099999999
 31
0.0
  0
LINE
  5
EE
330
39
100
AcDbEntity
  8
AM_VIS
  6
Continuous
 62
     7
100
AcDbLine
 10
-4.69383200000027
 20
88.618931
 30
0.0
 11
-4.69383200000027
 21
96.02472800000001
 31
0.0
  0
LINE
  5
EF
330
39
100
AcDbEntity
  8
1
  6
DOT_CENTER
 62
     2
100
AcDbLine
 10
80.06482995256599
 20
72.61828323175689
 30
0.0
 11
80.06699131120871
 21
114.667641882972
 31
0.0
  0
LINE
  5
F0
330
39
100
AcDbEntity
  8
AM_VIS
  6
Continuous
 62
     7
100
AcDbLine
 10
67.2150613215078
 20
77.1189187191097
 30
0.0
 11
67.2150613215078
 21
74.6189437191097
 31
0.0
  0
LINE
  5
F1
330
39
100
AcDbEntity
  8
AM_VIS
  6
Continuous
 62
     7
100
AcDbLine
 10
92.91480432150789
 20
74.6189437191097
 30
0.0
 11
92.91506132150789
 21
77.1189187191097
 31
0.0
  0
LINE
  5
F2
330
39
100
AcDbEntity
  8
AM_VIS
  6
Continuous
 62
     7
100
AcDbLine
 10
92.90154232150789
 20
74.6189437191097
 30
0.0
 11
92.91480432150789
 21
74.6189437191097
 31
0.0
  0
LINE
  5
F3
330
39
100
AcDbEntity
  8
AM_VIS
  6
Continuous
 62
     7
100
AcDbLine
 10
89.8746083215079
 20
89.20713371910969
 30
0.0
 11
89.87460569377251
 21
78.61892371910969
 31
0.0
  0
LINE
  5
F4
330
39
100
AcDbEntity
  8
AM_VIS
  6
Continuous
 62
     7
100
AcDbLine
 10
86.9768513215079
 20
77.1189187191097
 30
0.0
 11
86.9768463215079
 21
86.30937171910969
 31
0.0
  0
LINE
  5
F5
330
39
100
AcDbEntity
  8
AM_VIS
  6
Continuous
 62
     7
100
AcDbLine
 10
92.0650613215079
 20
77.1189187191097
 30
0.0
 11
92.0650613215079
 21
83.6189187191097
 31
0.0
  0
LINE
  5
F6
330
39
100
AcDbEntity
  8
AM_VIS
  6
Continuous
 62
     7
100
AcDbLine
 10
68.0650613215079
 20
96.6189310000002
 30
0.0
 11
68.0650613215079
 21
87.1189187191097
 31
0.0
  0
LINE
  5
F7
330
39
100
AcDbEntity
  8
AM_VIS
  6
Continuous
 62
     7
100
AcDbLine
 10
67.2150613215078
 20
74.6189437191097
 30
0.0
 11
92.90154232150789
 21
74.6189437191097
 31
0.0
  0
LINE
  5
F8
330
39
100
AcDbEntity
  8
AM_VIS
  6
Continuous
 62
     7
100
AcDbLine
 10
73.1532713215079
 20
86.30937471910971
 30
0.0
 11
73.1532713215079
 21
77.1189187191097
 31
0.0
  0
LINE
  5
F9
330
39
100
AcDbEntity
  8
1
  6
Continuous
 62
     7
100
AcDbLine
 10
92.91506132150789
 20
77.1189187191097
 30
0.0
 11
92.0650613215079
 21
77.1189187191097
 31
0.0
  0
LINE
  5
FA
330
39
100
AcDbEntity
  8
AM_VIS
  6
Continuous
 62
     7
100
AcDbLine
 10
70.2567303215079
 20
89.69891871910971
 30
0.0
 11
70.2567303215079
 21
92.3995157191097
 31
0.0
  0
LINE
  5
FB
330
39
100
AcDbEntity
  8
AM_VIS
  6
Continuous
 62
     7
100
AcDbLine
 10
70.2555133215079
 20
89.20713371910969
 30
0.0
 11
70.2555133215079
 21
89.69891871910971
 31
0.0
  0
LINE
  5
FC
330
39
100
AcDbEntity
  8
AM_VIS
  6
Continuous
 62
     7
100
AcDbLine
 10
70.2555133215079
 20
89.69891871910971
 30
0.0
 11
70.2567303215079
 21
89.69891871910971
 31
0.0
  0
LINE
  5
FD
330
39
100
AcDbEntity
  8
AM_VIS
  6
Continuous
 62
     7
100
AcDbLine
 10
73.1532173215079
 20
89.6989577191097
 30
0.0
 11
73.1532713215079
 21
86.30937471910971
 31
0.0
  0
LINE
  5
FE
330
39
100
AcDbEntity
  8
AM_VIS
  6
Continuous
 62
     7
100
AcDbLine
 10
86.9768463215079
 20
89.69891871910971
 30
0.0
 11
89.87339132150791
 21
89.69891871910971
 31
0.0
  0
LINE
  5
FF
330
39
100
AcDbEntity
  8
AM_VIS
  6
Continuous
 62
     7
100
AcDbLine
 10
89.87339132150791
 20
92.3995157191097
 30
0.0
 11
89.87339132150791
 21
89.69891871910971
 31
0.0
  0
LINE
  5
100
330
39
100
AcDbEntity
  8
AM_VIS
  6
Continuous
 62
     7
100
AcDbLine
 10
89.87339132150791
 20
89.69891871910971
 30
0.0
 11
89.8746083215079
 21
89.69891871910971
 31
0.0
  0
LINE
  5
101
330
39
100
AcDbEntity
  8
AM_VIS
  6
Continuous
 62
     7
100
AcDbLine
 10
89.8746083215079
 20
89.69891871910971
 30
0.0
 11
89.8746083215079
 21
89.20713371910969
 31
0.0
  0
LINE
  5
102
330
39
100
AcDbEntity
  8
AM_VIS
  6
Continuous
 62
     7
100
AcDbLine
 10
86.9768463215079
 20
86.30937171910969
 30
0.0
 11
86.9768463215079
 21
89.69891871910971
 31
0.0
  0
LINE
  5
103
330
39
100
AcDbEntity
  8
AM_VIS
  6
Continuous
 62
     7
100
AcDbLine
 10
87.85384532150789
 20
88.33013471910971
 30
0.0
 11
89.8746083215079
 21
89.20713371910969
 31
0.0
  0
LINE
  5
104
330
39
100
AcDbEntity
  8
AM_VIS
  6
Continuous
 62
     7
100
AcDbLine
 10
86.9768463215079
 20
86.30937171910969
 30
0.0
 11
87.85384532150789
 21
88.33013471910971
 31
0.0
  0
LINE
  5
105
330
39
100
AcDbEntity
  8
AM_VIS
  6
Continuous
 62
     7
100
AcDbLine
 10
70.2567303215079
 20
89.69891871910971
 30
0.0
 11
73.1532173215079
 21
89.6989577191097
 31
0.0
  0
LINE
  5
106
330
39
100
AcDbEntity
  8
AM_VIS
  6
Continuous
 62
     7
100
AcDbLine
 10
72.2762773215079
 20
88.33013471910971
 30
0.0
 11
73.1532713215079
 21
86.30937471910971
 31
0.0
  0
LINE
  5
107
330
39
100
AcDbEntity
  8
AM_VIS
  6
Continuous
 62
     7
100
AcDbLine
 10
70.2555133215079
 20
89.20713371910969
 30
0.0
 11
72.2762773215079
 21
88.33013471910971
 31
0.0
  0
LINE
  5
108
330
39
100
AcDbEntity
  8
1
  6
DOT_CENTER
 62
     2
100
AcDbLine
 10
93.51291646848031
 20
100.118931
 30
0.0
 11
66.314027969127
 21
100.118931
 31
0.0
  0
LINE
  5
109
330
39
100
AcDbEntity
  8
AM_VIS
  6
Continuous
 62
     2
100
AcDbLine
 10
-43.19383200000027
 20
87.618931
 30
0.0
 11
-43.19351613940819
 21
87.618931
 31
0.0
  0
LINE
  5
10A
330
39
100
AcDbEntity
  8
1
  6
Continuous
 62
     3
100
AcDbLine
 10
-34.49993800000038
 20
94.695571
 30
0.0
 11
-32.5471160000003
 21
95.99024700000001
 31
0.0
  0
LINE
  5
10B
330
39
100
AcDbEntity
  8
AM_VIS
  6
Continuous
 62
     2
100
AcDbLine
 10
-23.96495400000026
 20
96.996925
 30
0.0
 11
-35.67270400000029
 21
96.996925
 31
0.0
  0
LINE
  5
10C
330
39
100
AcDbEntity
  8
1
  6
Continuous
 62
     3
100
AcDbLine
 10
-28.16714800000035
 20
95.99024700000001
 30
0.0
 11
-26.21432600000038
 21
94.695571
 31
0.0
  0
LINE
  5
10D
330
39
100
AcDbEntity
  8
1
  6
Continuous
 62
     3
100
AcDbLine
 10
-43.19383200000027
 20
113.118931
 30
0.0
 11
-42.19399800000031
 21
112.9066079999999
 31
0.0
  0
LINE
  5
10E
330
39
100
AcDbEntity
  8
1
  6
Continuous
 62
     3
100
AcDbLine
 10
-43.19351613940819
 20
87.618931
 30
0.0
 11
-40.90789700000028
 21
90.13117500000001
 31
0.0
  0
LINE
  5
10F
330
39
100
AcDbEntity
  8
1
  6
Continuous
 62
     3
100
AcDbLine
 10
-39.4630595987536
 20
108.4484179999999
 30
0.0
 11
-36.25477900000033
 21
104.247614
 31
0.0
  0
LINE
  5
110
330
39
100
AcDbEntity
  8
1
  6
Continuous
 62
     3
100
AcDbLine
 10
-23.96495400000026
 20
96.996925
 30
0.0
 11
-23.96495400000026
 21
103.240937
 31
0.0
  0
LINE
  5
111
330
39
100
AcDbEntity
  8
1
  6
Continuous
 62
     3
100
AcDbLine
 10
-17.60250900000028
 20
96.996925
 30
0.0
 11
-17.60250900000028
 21
103.240937
 31
0.0
  0
LINE
  5
112
330
39
100
AcDbEntity
  8
AM_VIS
  6
Continuous
 62
     7
100
AcDbLine
 10
-18.35713200000032
 20
77.11893099999989
 30
0.0
 11
-18.35713200000032
 21
83.61893184134621
 31
0.0
  0
LINE
  5
113
330
39
100
AcDbEntity
  8
1
  6
Continuous
 62
     7
100
AcDbLine
 10
-35.26892200000032
 20
83.61894858087251
 30
0.0
 11
-18.35713200000032
 21
83.61893184134621
 31
0.0
  0
LINE
  5
114
330
39
100
AcDbEntity
  8
1
  6
DOT_CENTER
 62
     2
100
AcDbLine
 10
-20.44702800000038
 20
73.74911406090291
 30
0.0
 11
-20.44702800000038
 21
77.69228048094189
 31
0.0
  0
LINE
  5
115
330
39
100
AcDbEntity
  8
AM_VIS
  6
Continuous
 62
     7
100
AcDbLine
 10
-17.50713200000041
 20
77.11893099999989
 30
0.0
 11
-18.35713200000032
 21
77.11893099999989
 31
0.0
  0
LINE
  5
116
330
39
100
AcDbEntity
  8
AM_VIS
  6
Continuous
 62
     7
100
AcDbLine
 10
-43.20713200000023
 20
77.1189310000016
 30
0.0
 11
-43.20713200000023
 21
76.41894300000001
 31
0.0
  0
LINE
  5
117
330
39
100
AcDbEntity
  8
AM_VIS
  6
Continuous
 62
     7
100
AcDbLine
 10
-40.16667900000027
 20
77.11893099999989
 30
0.0
 11
-40.38078700000028
 21
77.11893099999989
 31
0.0
  0
LINE
  5
118
330
39
100
AcDbEntity
  8
AM_VIS
  6
Continuous
 62
     7
100
AcDbLine
 10
-18.35713200000032
 20
77.11893099999989
 30
0.0
 11
-20.33347600000036
 21
77.118931
 31
0.0
  0
LINE
  5
119
330
39
100
AcDbEntity
  8
1
  6
Continuous
 62
     2
100
AcDbLine
 10
-39.4630595987536
 20
108.4484179999999
 30
0.0
 11
-7.69383200000027
 21
108.4484179999999
 31
0.0
  0
LINE
  5
11A
330
39
100
AcDbEntity
  8
1
  6
Continuous
 62
     2
100
AcDbLine
 10
-36.25477900000033
 20
104.247614
 30
0.0
 11
-23.91670400000032
 21
104.247615
 31
0.0
  0
LINE
  5
11B
330
39
100
AcDbEntity
  8
AM_VIS
  6
Continuous
 62
     2
100
AcDbLine
 10
-23.98185000000024
 20
100.819605
 30
0.0
 11
-34.84076700000026
 21
100.819605
 31
0.0
  0
LINE
  5
11C
330
39
100
AcDbEntity
  8
AM_VIS
  6
Continuous
 62
     2
100
AcDbLine
 10
-23.9829040000003
 20
101.866515
 30
0.0
 11
-35.08401300000026
 21
101.866515
 31
0.0
  0
LINE
  5
11D
330
39
100
AcDbEntity
  8
AM_VIS
  6
Continuous
 62
     2
100
AcDbLine
 10
-23.96495400000026
 20
103.240937
 30
0.0
 11
-35.67270400000029
 21
103.240937
 31
0.0
  0
LINE
  5
11E
330
39
100
AcDbEntity
  8
AM_VIS
  6
Continuous
 62
     2
100
AcDbLine
 10
-23.75511700000028
 20
105.542291
 30
0.0
 11
-37.13781200000028
 21
105.542291
 31
0.0
  0
LINE
  5
11F
330
39
100
AcDbEntity
  8
AM_VIS
  6
Continuous
 62
     2
100
AcDbLine
 10
-23.50497500000029
 20
106.470051
 30
0.0
 11
-37.83856800000024
 21
106.470051
 31
0.0
  0
LINE
  5
120
330
39
100
AcDbEntity
  8
AM_VIS
  6
Continuous
 62
     2
100
AcDbLine
 10
-22.82758900000033
 20
107.635229
 30
0.0
 11
-38.7764930000003
 21
107.635229
 31
0.0
  0
LINE
  5
121
330
39
100
AcDbEntity
  8
AM_VIS
  6
Continuous
 62
     2
100
AcDbLine
 10
-23.98185000000024
 20
99.41825700000001
 30
0.0
 11
-34.84076700000026
 21
99.41825700000001
 31
0.0
  0
LINE
  5
122
330
39
100
AcDbEntity
  8
AM_VIS
  6
Continuous
 62
     2
100
AcDbLine
 10
-34.49993800000038
 20
94.695571
 30
0.0
 11
-37.15883753658704
 21
94.695571
 31
0.0
  0
LINE
  5
123
330
39
100
AcDbEntity
  8
AM_VIS
  6
Continuous
 62
     2
100
AcDbLine
 10
-35.68782576026842
 20
93.767811
 30
0.0
 11
-37.8256254242151
 21
93.767811
 31
0.0
  0
LINE
  5
124
330
39
100
AcDbEntity
  8
AM_VIS
  6
Continuous
 62
     2
100
AcDbLine
 10
-37.10427817881759
 20
92.602633
 30
0.0
 11
-38.72716781749853
 21
92.602633
 31
0.0
  0
LINE
  5
125
330
39
100
AcDbEntity
  8
AM_VIS
  6
Continuous
 62
     7
100
AcDbLine
 10
-43.19383200000027
 20
113.118931
 30
0.0
 11
-43.19383200000027
 21
87.618931
 31
0.0
  0
LINE
  5
126
330
39
100
AcDbEntity
  8
AM_VIS
  6
Continuous
 62
     7
100
AcDbLine
 10
-27.57254499999987
 20
98.90351799999999
 30
0.0
 11
-42.35713200000032
 21
84.118931
 31
0.0
  0
LINE
  5
127
330
39
100
AcDbEntity
  8
AM_VIS
  6
Continuous
 62
     7
100
AcDbLine
 10
-37.26892200000032
 20
86.11893099999989
 30
0.0
 11
-37.26892200000043
 21
77.118931
 31
0.0
  0
LINE
  5
128
330
39
100
AcDbEntity
  8
AM_VIS
  6
Continuous
 62
     2
100
AcDbLine
 10
-43.19383200000027
 20
87.618931
 30
0.0
 11
-43.19351613940819
 21
87.618931
 31
0.0
  0
LINE
  5
129
330
39
100
AcDbEntity
  8
AM_VIS
  6
Continuous
 62
     2
100
AcDbLine
 10
-39.14912874030972
 20
90.798542
 30
0.0
 11
-40.27972158667694
 21
90.798542
 31
0.0
  0
LINE
  5
12A
330
39
100
AcDbEntity
  8
AM_VIS
  6
Continuous
 62
     2
100
AcDbLine
 10
-39.86406780583843
 20
90.13117500000001
 30
0.0
 11
-40.90789700000028
 21
90.13117500000001
 31
0.0
  0
LINE
  5
12B
330
39
100
AcDbEntity
  8
AM_VIS
  6
Continuous
 62
     2
100
AcDbLine
 10
-40.67195490745485
 20
89.35262800000001
 30
0.0
 11
-41.61621272256889
 21
89.35262800000001
 31
0.0
  0
LINE
  5
12C
330
39
100
AcDbEntity
  8
AM_VIS
  6
Continuous
 62
     2
100
AcDbLine
 10
-41.17249087991138
 20
88.85673
 30
0.0
 11
-42.06737668593951
 21
88.85673
 31
0.0
  0
LINE
  5
12D
330
39
100
AcDbEntity
  8
AM_VIS
  6
Continuous
 62
     2
100
AcDbLine
 10
-41.70195015968056
 20
88.320458
 30
0.0
 11
-42.55527258583163
 21
88.320458
 31
0.0
  0
LINE
  5
12E
330
39
100
AcDbEntity
  8
AM_VIS
  6
Continuous
 62
     2
100
AcDbLine
 10
-41.99810447565005
 20
88.015085
 30
0.0
 11
-42.83309845523706
 21
88.015085
 31
0.0
  0
LINE
  5
12F
330
39
100
AcDbEntity
  8
AM_VIS
  6
Continuous
 62
     2
100
AcDbLine
 10
-42.26002789492043
 20
87.74169599999999
 30
0.0
 11
-42.35713200000032
 21
87.74169599999999
 31
0.0
  0
LINE
  5
130
330
39
100
AcDbEntity
  8
AM_VIS
  6
Continuous
 62
     2
100
AcDbLine
 10
-38.04711824108847
 20
91.789444
 30
0.0
 11
-39.40203786677682
 21
91.789444
 31
0.0
  0
LINE
  5
131
330
39
100
AcDbEntity
  8
AM_VIS
  6
Continuous
 62
     7
100
AcDbLine
 10
-40.16667900000027
 20
89.69893099999999
 30
0.0
 11
-37.26891700000022
 21
89.69893099999999
 31
0.0
  0
LINE
  5
132
330
39
100
AcDbEntity
  8
AM_VIS
  6
Continuous
 62
     2
100
AcDbLine
 10
-23.50497500000029
 20
93.767811
 30
0.0
 11
-25.02643823973222
 21
93.767811
 31
0.0
  0
LINE
  5
133
330
39
100
AcDbEntity
  8
AM_VIS
  6
Continuous
 62
     2
100
AcDbLine
 10
-23.9829040000003
 20
98.37134699999999
 30
0.0
 11
-35.08401300000026
 21
98.37134699999999
 31
0.0
  0
LINE
  5
134
330
39
100
AcDbEntity
  8
AM_VIS
  6
Continuous
 62
     2
100
AcDbLine
 10
-32.5471150000003
 20
95.99024700000001
 30
0.0
 11
-36.25477900000033
 21
95.99024700000001
 31
0.0
  0
LINE
  5
135
330
39
100
AcDbEntity
  8
AM_VIS
  6
Continuous
 62
     2
100
AcDbLine
 10
-23.91670400000032
 20
95.99024700000001
 30
0.0
 11
-28.16714800000035
 21
95.99024700000001
 31
0.0
  0
LINE
  5
136
330
39
100
AcDbEntity
  8
AM_VIS
  6
Continuous
 62
     2
100
AcDbLine
 10
-23.75511700000028
 20
94.695571
 30
0.0
 11
-26.21432600000038
 21
94.695571
 31
0.0
  0
LINE
  5
137
330
39
100
AcDbEntity
  8
AM_VIS
  6
Continuous
 62
     7
100
AcDbLine
 10
-23.98185000000024
 20
98.90351799999999
 30
0.0
 11
-27.57254499999987
 21
98.90351799999999
 31
0.0
  0
LINE
  5
138
330
39
100
AcDbEntity
  8
AM_VIS
  6
Continuous
 62
     7
100
AcDbLine
 10
-18.35713200000032
 20
83.61893184134621
 30
0.0
 11
-18.35713200000032
 21
87.618931
 31
0.0
  0
LINE
  5
139
330
39
100
AcDbEntity
  8
AM_VIS
  6
Continuous
 62
     7
100
AcDbLine
 10
-23.44534200000021
 20
77.118931
 30
0.0
 11
-23.44534200000032
 21
92.40113099999999
 31
0.0
  0
LINE
  5
13A
330
39
100
AcDbEntity
  8
AM_VIS
  6
Continuous
 62
     2
100
AcDbLine
 10
-22.82758900000033
 20
92.602633
 30
0.0
 11
-23.60998582118305
 21
92.602633
 31
0.0
  0
LINE
  5
13B
330
39
100
AcDbEntity
  8
AM_VIS
  6
Continuous
 62
     2
100
AcDbLine
 10
-21.45121700000027
 20
91.789444
 30
0.0
 11
-22.66714575891217
 21
91.789444
 31
0.0
  0
LINE
  5
13C
330
39
100
AcDbEntity
  8
AM_VIS
  6
Continuous
 62
     7
100
AcDbLine
 10
-20.33347600000036
 20
77.118931
 30
0.0
 11
-20.54758700000036
 21
77.118931
 31
0.0
  0
LINE
  5
13D
330
39
100
AcDbEntity
  8
1
  6
Continuous
 62
     7
100
AcDbLine
 10
-35.26892200000032
 20
86.11893099999989
 30
0.0
 11
-35.26892200000032
 21
77.11893099999989
 31
0.0
  0
LINE
  5
13E
330
39
100
AcDbEntity
  8
AM_VIS
  6
Continuous
 62
     7
100
AcDbLine
 10
-37.26892200000032
 20
92.46285313663549
 30
0.0
 11
-37.26892200000032
 21
86.11893099999989
 31
0.0
  0
LINE
  5
13F
330
39
100
AcDbEntity
  8
1
  6
Continuous
 62
     7
100
AcDbLine
 10
-42.35713200000032
 20
83.6189555968819
 30
0.0
 11
-37.26892200000032
 21
83.61895056050051
 31
0.0
  0
LINE
  5
140
330
39
100
AcDbEntity
  8
1
  6
Continuous
 62
     7
100
AcDbLine
 10
92.0650613215079
 20
83.6189187191097
 30
0.0
 11
68.0650613215079
 21
83.6189187191097
 31
0.0
  0
LINE
  5
141
330
39
100
AcDbEntity
  8
AM_VIS
  6
Continuous
 62
     7
100
AcDbLine
 10
68.0650613215079
 20
83.6189187191097
 30
0.0
 11
68.0650613215079
 21
77.1189187191097
 31
0.0
  0
LINE
  5
142
330
39
100
AcDbEntity
  8
AM_VIS
  6
Continuous
 62
     7
100
AcDbLine
 10
92.0650613215079
 20
83.6189187191097
 30
0.0
 11
92.0650613215079
 21
96.618931
 31
0.0
  0
LINE
  5
143
330
39
100
AcDbEntity
  8
1
  6
Continuous
 62
     7
100
AcDbLine
 10
92.0650613215079
 20
77.1189187191097
 30
0.0
 11
67.2150613215078
 21
77.1189187191097
 31
0.0
  0
LINE
  5
144
330
39
100
AcDbEntity
  8
AM_VIS
  6
Continuous
 62
     7
100
AcDbLine
 10
8.50616799999983
 20
110.9189309999999
 30
0.0
 11
3.30616799999973
 21
110.9189309999999
 31
0.0
  0
LINE
  5
145
330
39
100
AcDbEntity
  8
AM_VIS
  6
Continuous
 62
     2
100
AcDbLine
 10
-7.69383200000027
 20
88.320458
 30
0.0
 11
-19.0431434533699
 21
88.320458
 31
0.0
  0
LINE
  5
146
330
39
100
AcDbEntity
  8
AM_VIS
  6
Continuous
 62
     7
100
AcDbLine
 10
70.2555159492433
 20
78.61892371910969
 30
0.0
 11
70.2555133215079
 21
89.20713371910969
 31
0.0
  0
LINE
  5
147
330
39
100
AcDbEntity
  8
AM_VIS
  6
Continuous
 62
     7
100
AcDbLine
 10
-20.54758700000036
 20
77.118931
 30
0.0
 11
-40.16667900000027
 21
77.11893099999989
 31
0.0
  0
LINE
  5
148
330
39
100
AcDbEntity
  8
AM_VIS
  6
Continuous
 62
     7
100
AcDbLine
 10
-20.33347600000036
 20
77.118931
 30
0.0
 11
-20.54758700000036
 21
77.118931
 31
0.0
  0
LINE
  5
149
330
39
100
AcDbEntity
  8
AM_VIS
  6
Continuous
 62
     7
100
AcDbLine
 10
-40.38078700000028
 20
77.11893099999989
 30
0.0
 11
-42.35713200000032
 21
77.11893100000111
 31
0.0
  0
LINE
  5
14A
330
39
100
AcDbEntity
  8
AM_VIS
  6
Continuous
 62
     7
100
AcDbLine
 10
-40.16667900000027
 20
77.11893099999989
 30
0.0
 11
-40.38078700000028
 21
77.11893099999989
 31
0.0
  0
LINE
  5
14B
330
39
100
AcDbEntity
  8
AM_VIS
  6
Continuous
 62
     2
100
AcDbLine
 10
-43.19351613940819
 20
87.618931
 30
0.0
 11
-42.35713200000032
 21
87.618931
 31
0.0
  0
LINE
  5
14C
330
39
100
AcDbEntity
  8
AM_VIS
  6
Continuous
 62
     7
100
AcDbLine
 10
-40.16667900000027
 20
78.6189360000001
 30
0.0
 11
-40.16667900000027
 21
89.69893099999999
 31
0.0
  0
LINE
  5
14D
330
39
100
AcDbEntity
  8
AM_VIS
  6
Continuous
 62
     7
100
AcDbLine
 10
-20.54758700000036
 20
89.84265196995489
 30
0.0
 11
-20.54758700000036
 21
78.6189360000001
 31
0.0
  0
LINE
  5
14E
330
39
100
AcDbEntity
  8
AM_VIS
  6
Continuous
 62
     7
100
AcDbLine
 10
-17.50713200000032
 20
76.41875203190699
 30
0.0
 11
-17.50713200000041
 21
77.11893099999989
 31
0.0
  0
LINE
  5
14F
330
39
100
AcDbEntity
  8
AM_VIS
  6
Continuous
 62
     7
100
AcDbLine
 10
-21.15713018600084
 20
74.6189355894721
 30
0.0
 11
-39.55713540746532
 21
74.61895380205459
 31
0.0
  0
LINE
  5
150
330
39
100
AcDbEntity
  8
AM_VIS
  6
Continuous
 62
     7
100
AcDbLine
 10
-42.35713200000032
 20
87.74169599999999
 30
0.0
 11
-42.35713200000032
 21
77.11893100000111
 31
0.0
  0
LINE
  5
151
330
39
100
AcDbEntity
  8
AM_VIS
  6
Continuous
 62
     2
100
AcDbLine
 10
-42.35713200000032
 20
87.74169599999999
 30
0.0
 11
-43.08024100000023
 21
87.74169599999999
 31
0.0
  0
LINE
  5
152
330
39
100
AcDbEntity
  8
1
  6
DOT_CENTER
 62
     2
100
AcDbLine
 10
-30.35713199999999
 20
74.4187520319054
 30
0.0
 11
-30.35713200000056
 21
79.11893100000319
 31
0.0
  0
LINE
  5
153
330
39
100
AcDbEntity
  8
AM_VIS
  6
Continuous
 62
     7
100
AcDbLine
 10
-42.35713200000032
 20
77.11893100000111
 30
0.0
 11
-43.20713200000023
 21
77.1189310000016
 31
0.0
  0
ARC
  5
154
330
39
100
AcDbEntity
  8
1
  6
Continuous
 62
     7
100
AcDbCircle
 10
68.2504659475318
 20
115.5098107661562
 30
0.0
 40
6.999999999999909
100
AcDbArc
 50
-60.14832404975333
 51
-29.66860429911036
  0
ARC
  5
155
330
39
100
AcDbEntity
  8
1
  6
Continuous
 62
     7
100
AcDbCircle
 10
80.0650613215079
 20
100.118931
 30
0.0
 40
12.5
100
AcDbArc
 50
-16.26020470831196
 51
48.2083331585983
  0
ARC
  5
156
330
39
100
AcDbEntity
  8
1
  6
Continuous
 62
     7
100
AcDbCircle
 10
80.0650608215079
 20
43.11895980435219
 30
0.0
 40
69.99997119564784
100
AcDbArc
 50
86.36555075479049
 51
93.63444836870288
  0
ARC
  5
157
330
39
100
AcDbEntity
  8
1
  6
Continuous
 62
     7
100
AcDbCircle
 10
91.87965669548399
 20
115.5098107661562
 30
0.0
 40
6.999999999999885
100
AcDbArc
 50
-153.0067442793674
 51
-119.8516759502465
  0
ARC
  5
158
330
39
100
AcDbEntity
  8
1
  6
Continuous
 62
     7
100
AcDbCircle
 10
80.0650613215079
 20
100.118931
 30
0.0
 40
12.49999999999994
100
AcDbArc
 50
-163.7397952916889
 51
-16.26020470831196
  0
ARC
  5
159
330
39
100
AcDbEntity
  8
1
  6
Continuous
 62
     7
100
AcDbCircle
 10
80.06506128284599
 20
97.65087050443259
 30
0.0
 40
13.28165528532308
100
AcDbArc
 50
-121.3591701441284
 51
-58.64085472459588
  0
ARC
  5
15A
330
39
100
AcDbEntity
  8
1
  6
Continuous
 62
     7
100
AcDbCircle
 10
76.0801430498058
 20
97.31347246528881
 30
0.0
 40
16.00000000000001
100
AcDbArc
 50
-30.44068999899292
 51
-2.48792517799264
  0
ARC
  5
15B
330
39
100
AcDbEntity
  8
1
  6
Continuous
 62
     7
100
AcDbCircle
 10
85.03643894948539
 20
97.60500473384911
 30
0.0
 40
17.00000000000005
100
AcDbArc
 50
-176.6747298525219
 51
-150.3966691892988
  0
ARC
  5
15C
330
39
100
AcDbEntity
  8
1
  6
Continuous
 62
     3
100
AcDbCircle
 10
5.52843533860903
 20
42.21958289243881
 30
0.0
 40
66.0
100
AcDbArc
 50
130.4244494423627
 51
133.4534643289624
  0
ARC
  5
15D
330
39
100
AcDbEntity
  8
1
  6
Continuous
 62
     3
100
AcDbCircle
 10
-66.24269933860973
 20
42.21958289243881
 30
0.0
 40
66.00000000000003
100
AcDbArc
 50
51.35532310571562
 51
52.66382605808663
  0
ARC
  5
15E
330
39
100
AcDbEntity
  8
1
  6
Continuous
 62
     3
100
AcDbCircle
 10
5.52843533860903
 20
42.21958289243881
 30
0.0
 40
65.99999999999996
100
AcDbArc
 50
133.4534643289624
 51
136.5383494675059
  0
ARC
  5
15F
330
39
100
AcDbEntity
  8
1
  6
Continuous
 62
     3
100
AcDbCircle
 10
5.52843533860903
 20
42.21958289243881
 30
0.0
 40
66.0
100
AcDbArc
 50
127.3361739419134
 51
130.4244494423627
  0
ARC
  5
160
330
39
100
AcDbEntity
  8
1
  6
Continuous
 62
     3
100
AcDbCircle
 10
-30.35713150000026
 20
93.9398879412671
 30
0.0
 40
2.999999999999993
100
AcDbArc
 50
43.11406702827633
 51
136.8859329717253
  0
ARC
  5
161
330
39
100
AcDbEntity
  8
1
  6
Continuous
 62
     3
100
AcDbCircle
 10
-66.39251627609269
 20
42.2092787391652
 30
0.0
 40
66.10169938058931
100
AcDbArc
 50
43.39045719333745
 51
51.25947665728774
  0
ARC
  5
162
330
39
100
AcDbEntity
  8
1
  6
Continuous
 62
     3
100
AcDbCircle
 10
-26.2173695469288
 20
120.6397915496015
 30
0.0
 40
17.99999999999997
100
AcDbArc
 50
-147.9950310843463
 51
-137.3670960076018
  0
ARC
  5
163
330
39
100
AcDbEntity
  8
1
  6
Continuous
 62
     3
100
AcDbCircle
 10
-37.27498477634219
 20
113.8028830166532
 30
0.0
 40
5.000000000000037
100
AcDbArc
 50
-169.6736311270699
 51
-147.2760245827842
  0
ARC
  5
164
330
39
100
AcDbEntity
  8
1
  6
Continuous
 62
     3
100
AcDbCircle
 10
-67.53382693830065
 20
115.8228050557344
 30
0.0
 40
36.99999999999993
100
AcDbArc
 50
-43.9769065975073
 51
-32.29418010190274
  0
ARC
  5
165
330
39
100
AcDbEntity
  8
1
  6
Continuous
 62
     3
100
AcDbCircle
 10
-41.93222486899094
 20
100.1529090772149
 30
0.0
 40
6.999999999999924
100
AcDbArc
 50
-35.83290971214011
 51
35.80001208873797
  0
ARC
  5
166
330
39
100
AcDbEntity
  8
1
  6
Continuous
 62
     3
100
AcDbCircle
 10
-27.10308760515272
 20
96.70294241967
 30
0.0
 40
9.505125963932265
100
AcDbArc
 50
-17.98660155213841
 51
1.77237501055577
  0
ARC
  5
167
330
39
100
AcDbEntity
  8
1
  6
Continuous
 62
     3
100
AcDbCircle
 10
-27.10308760515272
 20
103.5349195803301
 30
0.0
 40
9.50512596393219
100
AcDbArc
 50
-1.77237501055628
 51
17.98660155213792
  0
ARC
  5
168
330
39
100
AcDbEntity
  8
1
  6
Continuous
 62
     3
100
AcDbCircle
 10
-14.4643207850512
 20
96.7029473989802
 30
0.0
 40
9.505180393600886
100
AcDbArc
 50
178.2276651707517
 51
-162.0134734104103
  0
ARC
  5
169
330
39
100
AcDbEntity
  8
1
  6
Continuous
 62
     3
100
AcDbCircle
 10
-14.46432078505142
 20
103.5349146010198
 30
0.0
 40
9.5051803936007
100
AcDbArc
 50
162.01347341041
 51
-178.2276651707516
  0
ARC
  5
16A
330
39
100
AcDbEntity
  8
1
  6
Continuous
 62
     3
100
AcDbCircle
 10
-20.78373200000021
 20
94.5376173857828
 30
0.0
 40
2.828032060752036
100
AcDbArc
 50
-164.2044401773416
 51
-15.7955598226607
  0
ARC
  5
16B
330
39
100
AcDbEntity
  8
1
  6
Continuous
 62
     3
100
AcDbCircle
 10
-20.78373200000021
 20
105.6978254791567
 30
0.0
 40
2.828691520843272
100
AcDbArc
 50
15.84270966064573
 51
164.1572903393569
  0
ARC
  5
16C
330
39
100
AcDbEntity
  8
1
  6
Continuous
 62
     7
100
AcDbCircle
 10
80.0650613215079
 20
100.118931
 30
0.0
 40
12.5
100
AcDbArc
 50
180.0
 51
-163.7397952916889
  0
ARC
  5
16D
330
39
100
AcDbEntity
  8
1
  6
Continuous
 62
     7
100
AcDbCircle
 10
80.0650613215079
 20
100.118931
 30
0.0
 40
12.49999999999999
100
AcDbArc
 50
131.7916668414016
 51
180.0
  0
XLINE
  5
16E
330
39
100
AcDbEntity
  8
1
  6
DOT_CENTER
 62
     3
 60
     1
100
AcDbXline
 10
-17.50713200000029
 20
83.61893184134621
 30
0.0
 11
0.0
 21
1.0
 31
0.0
  0
ARC
  5
16F
330
39
100
AcDbEntity
  8
1
  6
Continuous
 62
     7
100
AcDbCircle
 10
75.7228093425589
 20
111.4811635861067
 30
0.0
 40
1.500000000000068
100
AcDbArc
 50
93.63444836870491
 51
157.9233961932082
  0
ARC
  5
170
330
39
100
AcDbEntity
  8
1
  6
Continuous
 62
     7
100
AcDbCircle
 10
84.40731334625701
 20
111.4811635196793
 30
0.0
 40
1.499999999999962
100
AcDbArc
 50
34.58525929494408
 51
86.36555075479409
  0
ARC
  5
171
330
39
100
AcDbEntity
  8
1
  6
Continuous
 62
     7
100
AcDbCircle
 10
-36.26892200000032
 20
86.11893099999989
 30
0.0
 40
1.0
100
AcDbArc
 50
0.0
 51
90.0
  0
ARC
  5
172
330
39
100
AcDbEntity
  8
1
  6
Continuous
 62
     7
100
AcDbCircle
 10
-36.26892200000032
 20
86.11893099999989
 30
0.0
 40
1.0
100
AcDbArc
 50
90.0
 51
180.0
  0
ENDBLK
  5
3C
330
39
100
AcDbEntity
  8
0
100
AcDbBlockEnd
  0
BLOCK
  5
3E
330
3D
100
AcDbEntity
  8
0
100
AcDbBlockBegin
  2
M2_5x6_DIN_7985
 70
     0
 71
     0
 10
-24.756608
 20
74.8689187191097
 30
0.0
  3
M2_5x6_DIN_7985
  1

  0
LINE
  5
173
330
3D
100
AcDbEntity
  8
1
  6
DOT_CENTER
 62
     2
100
AcDbLine
 10
117.9657465
 20
75.41893300000001
 30
0.0
 11
117.9657465
 21
79.96894800000001
 31
0.0
  0
LINE
  5
174
330
3D
100
AcDbEntity
  8
1
  6
DOT_CENTER
 62
     2
100
AcDbLine
 10
98.16674950000001
 20
75.41893300000001
 30
0.0
 11
98.16674950000001
 21
79.96894800000001
 31
0.0
  0
LINE
  5
175
330
3D
100
AcDbEntity
  8
1
  6
DOT_CENTER
 62
     2
100
AcDbLine
 10
89.96573599999999
 20
75.41890871910971
 30
0.0
 11
89.96573599999999
 21
79.96892371910971
 31
0.0
  0
LINE
  5
176
330
3D
100
AcDbEntity
  8
1
  6
DOT_CENTER
 62
     2
100
AcDbLine
 10
70.161022
 20
79.96892371910971
 30
0.0
 11
70.161022
 21
74.8689187191097
 31
0.0
  0
LINE
  5
177
330
3D
100
AcDbEntity
  8
1
  6
DOT_CENTER
 62
     2
100
AcDbLine
 10
-20.44702800000038
 20
74.86893100000009
 30
0.0
 11
-20.44702800000038
 21
79.9689360000001
 31
0.0
  0
LINE
  5
178
330
3D
100
AcDbEntity
  8
1
  6
DOT_CENTER
 62
     2
100
AcDbLine
 10
-40.24600100000042
 20
79.9689360000001
 30
0.0
 11
-40.24600100000042
 21
74.86893100000009
 31
0.0
  0
LINE
  5
179
330
3D
100
AcDbEntity
  8
1
  6
Continuous
 62
     7
100
AcDbLine
 10
116.215732
 20
77.41893300000001
 30
0.0
 11
116.215732
 21
76.868943
 31
0.0
  0
LINE
  5
17A
330
3D
100
AcDbEntity
  8
1
  6
Continuous
 62
     7
100
AcDbLine
 10
116.227214
 20
76.868943
 30
0.0
 11
119.681606
 21
76.868943
 31
0.0
  0
LINE
  5
17B
330
3D
100
AcDbEntity
  8
1
  6
Continuous
 62
     7
100
AcDbLine
 10
119.519116
 20
77.96894800000001
 30
0.0
 11
119.130331
 21
77.96894800000001
 31
0.0
  0
LINE
  5
17C
330
3D
100
AcDbEntity
  8
1
  6
Continuous
 62
     7
100
AcDbLine
 10
117.965746
 20
77.96894800000001
 30
0.0
 11
117.342601
 21
77.96894800000001
 31
0.0
  0
LINE
  5
17D
330
3D
100
AcDbEntity
  8
1
  6
Continuous
 62
     7
100
AcDbLine
 10
116.412377
 20
77.96894800000001
 30
0.0
 11
116.227214
 21
77.96894800000001
 31
0.0
  0
LINE
  5
17E
330
3D
100
AcDbEntity
  8
1
  6
Continuous
 62
     7
100
AcDbLine
 10
116.218615
 20
77.41893300000001
 30
0.0
 11
116.227214
 21
77.41893300000001
 31
0.0
  0
LINE
  5
17F
330
3D
100
AcDbEntity
  8
1
  6
Continuous
 62
     7
100
AcDbLine
 10
116.630629
 20
78.36894799999999
 30
0.0
 11
116.818384
 21
78.36894799999999
 31
0.0
  0
LINE
  5
180
330
3D
100
AcDbEntity
  8
1
  6
Continuous
 62
     7
100
AcDbLine
 10
117.693355
 20
78.36894799999999
 30
0.0
 11
118.238114
 21
78.36894799999999
 31
0.0
  0
LINE
  5
181
330
3D
100
AcDbEntity
  8
1
  6
Continuous
 62
     7
100
AcDbLine
 10
119.113109
 20
78.36894799999999
 30
0.0
 11
119.300839
 21
78.36894799999999
 31
0.0
  0
LINE
  5
182
330
3D
100
AcDbEntity
  8
1
  6
Continuous
 62
     7
100
AcDbLine
 10
119.704279
 20
77.96894800000001
 30
0.0
 11
119.519116
 21
77.96894800000001
 31
0.0
  0
LINE
  5
183
330
3D
100
AcDbEntity
  8
1
  6
Continuous
 62
     7
100
AcDbLine
 10
118.588867
 20
77.96894800000001
 30
0.0
 11
117.965746
 21
77.96894800000001
 31
0.0
  0
LINE
  5
184
330
3D
100
AcDbEntity
  8
1
  6
Continuous
 62
     7
100
AcDbLine
 10
116.801162
 20
77.96894800000001
 30
0.0
 11
116.412377
 21
77.96894800000001
 31
0.0
  0
LINE
  5
185
330
3D
100
AcDbEntity
  8
1
  6
Continuous
 62
     7
100
AcDbLine
 10
116.215732
 20
77.41893300000001
 30
0.0
 11
116.218615
 21
77.41893300000001
 31
0.0
  0
LINE
  5
186
330
3D
100
AcDbEntity
  8
1
  6
Continuous
 62
     7
100
AcDbLine
 10
119.712878
 20
77.41893300000001
 30
0.0
 11
119.715736
 21
77.41893300000001
 31
0.0
  0
LINE
  5
187
330
3D
100
AcDbEntity
  8
1
  6
Continuous
 62
     7
100
AcDbLine
 10
117.19295
 20
78.36894799999999
 30
0.0
 11
117.693355
 21
78.36894799999999
 31
0.0
  0
LINE
  5
188
330
3D
100
AcDbEntity
  8
1
  6
Continuous
 62
     7
100
AcDbLine
 10
118.738519
 20
78.36894799999999
 30
0.0
 11
119.113109
 21
78.36894799999999
 31
0.0
  0
LINE
  5
189
330
3D
100
AcDbEntity
  8
1
  6
Continuous
 62
     7
100
AcDbLine
 10
119.300839
 20
78.36894799999999
 30
0.0
 11
119.704279
 21
77.96894800000001
 31
0.0
  0
LINE
  5
18A
330
3D
100
AcDbEntity
  8
1
  6
Continuous
 62
     7
100
AcDbLine
 10
119.715736
 20
76.868943
 30
0.0
 11
119.715736
 21
77.41893300000001
 31
0.0
  0
LINE
  5
18B
330
3D
100
AcDbEntity
  8
1
  6
Continuous
 62
     7
100
AcDbLine
 10
119.704279
 20
77.96894800000001
 30
0.0
 11
119.704279
 21
77.41893300000001
 31
0.0
  0
LINE
  5
18C
330
3D
100
AcDbEntity
  8
1
  6
Continuous
 62
     7
100
AcDbLine
 10
119.130331
 20
77.96894800000001
 30
0.0
 11
118.588867
 21
77.96894800000001
 31
0.0
  0
LINE
  5
18D
330
3D
100
AcDbEntity
  8
1
  6
Continuous
 62
     7
100
AcDbLine
 10
117.342601
 20
77.96894800000001
 30
0.0
 11
116.801162
 21
77.96894800000001
 31
0.0
  0
LINE
  5
18E
330
3D
100
AcDbEntity
  8
1
  6
Continuous
 62
     7
100
AcDbLine
 10
116.227214
 20
77.41893300000001
 30
0.0
 11
116.227214
 21
77.96894800000001
 31
0.0
  0
LINE
  5
18F
330
3D
100
AcDbEntity
  8
1
  6
Continuous
 62
     7
100
AcDbLine
 10
119.704279
 20
77.41893300000001
 30
0.0
 11
119.712878
 21
77.41893300000001
 31
0.0
  0
LINE
  5
190
330
3D
100
AcDbEntity
  8
1
  6
Continuous
 62
     7
100
AcDbLine
 10
116.818384
 20
78.36894799999999
 30
0.0
 11
117.19295
 21
78.36894799999999
 31
0.0
  0
LINE
  5
191
330
3D
100
AcDbEntity
  8
1
  6
Continuous
 62
     7
100
AcDbLine
 10
118.238114
 20
78.36894799999999
 30
0.0
 11
118.738519
 21
78.36894799999999
 31
0.0
  0
LINE
  5
192
330
3D
100
AcDbEntity
  8
1
  6
Continuous
 62
     7
100
AcDbLine
 10
116.227214
 20
77.96894800000001
 30
0.0
 11
116.630629
 21
78.36894799999999
 31
0.0
  0
LINE
  5
193
330
3D
100
AcDbEntity
  8
1
  6
Continuous
 62
     7
100
AcDbLine
 10
99.905294
 20
77.96894800000001
 30
0.0
 11
99.72013100000001
 21
77.96894800000001
 31
0.0
  0
LINE
  5
194
330
3D
100
AcDbEntity
  8
1
  6
Continuous
 62
     7
100
AcDbLine
 10
98.789882
 20
77.96894800000001
 30
0.0
 11
98.16676100000001
 21
77.96894800000001
 31
0.0
  0
LINE
  5
195
330
3D
100
AcDbEntity
  8
1
  6
Continuous
 62
     7
100
AcDbLine
 10
97.00217699999999
 20
77.96894800000001
 30
0.0
 11
96.613392
 21
77.96894800000001
 31
0.0
  0
LINE
  5
196
330
3D
100
AcDbEntity
  8
1
  6
Continuous
 62
     7
100
AcDbLine
 10
96.41674699999999
 20
77.41893300000001
 30
0.0
 11
96.41963000000001
 21
77.41893300000001
 31
0.0
  0
LINE
  5
197
330
3D
100
AcDbEntity
  8
1
  6
Continuous
 62
     7
100
AcDbLine
 10
99.913893
 20
77.41893300000001
 30
0.0
 11
99.916751
 21
77.41893300000001
 31
0.0
  0
LINE
  5
198
330
3D
100
AcDbEntity
  8
1
  6
Continuous
 62
     7
100
AcDbLine
 10
97.39396500000001
 20
78.36894799999999
 30
0.0
 11
97.89437000000001
 21
78.36894799999999
 31
0.0
  0
LINE
  5
199
330
3D
100
AcDbEntity
  8
1
  6
Continuous
 62
     7
100
AcDbLine
 10
98.93953400000001
 20
78.36894799999999
 30
0.0
 11
99.314099
 21
78.36894799999999
 31
0.0
  0
LINE
  5
19A
330
3D
100
AcDbEntity
  8
1
  6
Continuous
 62
     7
100
AcDbLine
 10
99.50185400000001
 20
78.36894799999999
 30
0.0
 11
99.905294
 21
77.96894800000001
 31
0.0
  0
LINE
  5
19B
330
3D
100
AcDbEntity
  8
1
  6
Continuous
 62
     7
100
AcDbLine
 10
99.916751
 20
76.868943
 30
0.0
 11
99.916751
 21
77.41893300000001
 31
0.0
  0
LINE
  5
19C
330
3D
100
AcDbEntity
  8
1
  6
Continuous
 62
     7
100
AcDbLine
 10
96.45087799999999
 20
76.868943
 30
0.0
 11
99.916751
 21
76.868943
 31
0.0
  0
LINE
  5
19D
330
3D
100
AcDbEntity
  8
1
  6
Continuous
 62
     7
100
AcDbLine
 10
99.905294
 20
77.96894800000001
 30
0.0
 11
99.905294
 21
77.41893300000001
 31
0.0
  0
LINE
  5
19E
330
3D
100
AcDbEntity
  8
1
  6
Continuous
 62
     7
100
AcDbLine
 10
99.331322
 20
77.96894800000001
 30
0.0
 11
98.789882
 21
77.96894800000001
 31
0.0
  0
LINE
  5
19F
330
3D
100
AcDbEntity
  8
1
  6
Continuous
 62
     7
100
AcDbLine
 10
97.54361599999999
 20
77.96894800000001
 30
0.0
 11
97.00217699999999
 21
77.96894800000001
 31
0.0
  0
LINE
  5
1A0
330
3D
100
AcDbEntity
  8
1
  6
Continuous
 62
     7
100
AcDbLine
 10
96.42820499999999
 20
77.41893300000001
 30
0.0
 11
96.42820499999999
 21
77.96894800000001
 31
0.0
  0
LINE
  5
1A1
330
3D
100
AcDbEntity
  8
1
  6
Continuous
 62
     7
100
AcDbLine
 10
99.905294
 20
77.41893300000001
 30
0.0
 11
99.913893
 21
77.41893300000001
 31
0.0
  0
LINE
  5
1A2
330
3D
100
AcDbEntity
  8
1
  6
Continuous
 62
     7
100
AcDbLine
 10
97.01939899999999
 20
78.36894799999999
 30
0.0
 11
97.39396500000001
 21
78.36894799999999
 31
0.0
  0
LINE
  5
1A3
330
3D
100
AcDbEntity
  8
1
  6
Continuous
 62
     7
100
AcDbLine
 10
98.43912900000001
 20
78.36894799999999
 30
0.0
 11
98.93953400000001
 21
78.36894799999999
 31
0.0
  0
LINE
  5
1A4
330
3D
100
AcDbEntity
  8
1
  6
Continuous
 62
     7
100
AcDbLine
 10
96.42820499999999
 20
77.96894800000001
 30
0.0
 11
96.83164400000001
 21
78.36894799999999
 31
0.0
  0
LINE
  5
1A5
330
3D
100
AcDbEntity
  8
1
  6
Continuous
 62
     7
100
AcDbLine
 10
96.41674699999999
 20
77.41893300000001
 30
0.0
 11
96.41674699999999
 21
76.868943
 31
0.0
  0
LINE
  5
1A6
330
3D
100
AcDbEntity
  8
1
  6
Continuous
 62
     7
100
AcDbLine
 10
99.72013100000001
 20
77.96894800000001
 30
0.0
 11
99.331322
 21
77.96894800000001
 31
0.0
  0
LINE
  5
1A7
330
3D
100
AcDbEntity
  8
1
  6
Continuous
 62
     7
100
AcDbLine
 10
98.16676100000001
 20
77.96894800000001
 30
0.0
 11
97.54361599999999
 21
77.96894800000001
 31
0.0
  0
LINE
  5
1A8
330
3D
100
AcDbEntity
  8
1
  6
Continuous
 62
     7
100
AcDbLine
 10
96.613392
 20
77.96894800000001
 30
0.0
 11
96.42820499999999
 21
77.96894800000001
 31
0.0
  0
LINE
  5
1A9
330
3D
100
AcDbEntity
  8
1
  6
Continuous
 62
     7
100
AcDbLine
 10
96.41963000000001
 20
77.41893300000001
 30
0.0
 11
96.42820499999999
 21
77.41893300000001
 31
0.0
  0
LINE
  5
1AA
330
3D
100
AcDbEntity
  8
1
  6
Continuous
 62
     7
100
AcDbLine
 10
96.83164400000001
 20
78.36894799999999
 30
0.0
 11
97.01939899999999
 21
78.36894799999999
 31
0.0
  0
LINE
  5
1AB
330
3D
100
AcDbEntity
  8
1
  6
Continuous
 62
     7
100
AcDbLine
 10
97.89437000000001
 20
78.36894799999999
 30
0.0
 11
98.43912900000001
 21
78.36894799999999
 31
0.0
  0
LINE
  5
1AC
330
3D
100
AcDbEntity
  8
1
  6
Continuous
 62
     7
100
AcDbLine
 10
99.314099
 20
78.36894799999999
 30
0.0
 11
99.50185400000001
 21
78.36894799999999
 31
0.0
  0
LINE
  5
1AD
330
3D
100
AcDbEntity
  8
1
  6
Continuous
 62
     7
100
AcDbLine
 10
91.70426800000001
 20
77.96892371910971
 30
0.0
 11
91.70426800000001
 21
77.41890871910971
 31
0.0
  0
LINE
  5
1AE
330
3D
100
AcDbEntity
  8
1
  6
Continuous
 62
     7
100
AcDbLine
 10
91.13032100000001
 20
77.96892371910971
 30
0.0
 11
90.58888099999999
 21
77.96892371910971
 31
0.0
  0
LINE
  5
1AF
330
3D
100
AcDbEntity
  8
1
  6
Continuous
 62
     7
100
AcDbLine
 10
89.342615
 20
77.96892371910971
 30
0.0
 11
88.801151
 21
77.96892371910971
 31
0.0
  0
LINE
  5
1B0
330
3D
100
AcDbEntity
  8
1
  6
Continuous
 62
     7
100
AcDbLine
 10
88.227204
 20
77.41890871910971
 30
0.0
 11
88.227204
 21
77.96892371910971
 31
0.0
  0
LINE
  5
1B1
330
3D
100
AcDbEntity
  8
1
  6
Continuous
 62
     7
100
AcDbLine
 10
91.70426800000001
 20
77.41890871910971
 30
0.0
 11
91.71286799999999
 21
77.41890871910971
 31
0.0
  0
LINE
  5
1B2
330
3D
100
AcDbEntity
  8
1
  6
Continuous
 62
     7
100
AcDbLine
 10
88.818374
 20
78.36892371910969
 30
0.0
 11
89.19296299999999
 21
78.36892371910969
 31
0.0
  0
LINE
  5
1B3
330
3D
100
AcDbEntity
  8
1
  6
Continuous
 62
     7
100
AcDbLine
 10
90.23812699999999
 20
78.36892371910969
 30
0.0
 11
90.73853299999999
 21
78.36892371910969
 31
0.0
  0
LINE
  5
1B4
330
3D
100
AcDbEntity
  8
1
  6
Continuous
 62
     7
100
AcDbLine
 10
88.227204
 20
77.96892371910971
 30
0.0
 11
88.63064299999999
 21
78.36892371910969
 31
0.0
  0
LINE
  5
1B5
330
3D
100
AcDbEntity
  8
1
  6
Continuous
 62
     7
100
AcDbLine
 10
91.71575000000001
 20
76.8689187191097
 30
0.0
 11
91.71575000000001
 21
77.41890871910971
 31
0.0
  0
LINE
  5
1B6
330
3D
100
AcDbEntity
  8
1
  6
Continuous
 62
     7
100
AcDbLine
 10
88.215746
 20
77.41890871910971
 30
0.0
 11
88.215746
 21
76.8689187191097
 31
0.0
  0
LINE
  5
1B7
330
3D
100
AcDbEntity
  8
1
  6
Continuous
 62
     7
100
AcDbLine
 10
91.519105
 20
77.96892371910971
 30
0.0
 11
91.13032100000001
 21
77.96892371910971
 31
0.0
  0
LINE
  5
1B8
330
3D
100
AcDbEntity
  8
1
  6
Continuous
 62
     7
100
AcDbLine
 10
89.96573599999999
 20
77.96892371910971
 30
0.0
 11
89.342615
 21
77.96892371910971
 31
0.0
  0
LINE
  5
1B9
330
3D
100
AcDbEntity
  8
1
  6
Continuous
 62
     7
100
AcDbLine
 10
88.41236699999999
 20
77.96892371910971
 30
0.0
 11
88.227204
 21
77.96892371910971
 31
0.0
  0
LINE
  5
1BA
330
3D
100
AcDbEntity
  8
1
  6
Continuous
 62
     7
100
AcDbLine
 10
88.218604
 20
77.41890871910971
 30
0.0
 11
88.227204
 21
77.41890871910971
 31
0.0
  0
LINE
  5
1BB
330
3D
100
AcDbEntity
  8
1
  6
Continuous
 62
     7
100
AcDbLine
 10
88.63064299999999
 20
78.36892371910969
 30
0.0
 11
88.818374
 21
78.36892371910969
 31
0.0
  0
LINE
  5
1BC
330
3D
100
AcDbEntity
  8
1
  6
Continuous
 62
     7
100
AcDbLine
 10
89.69336899999999
 20
78.36892371910969
 30
0.0
 11
90.23812699999999
 21
78.36892371910969
 31
0.0
  0
LINE
  5
1BD
330
3D
100
AcDbEntity
  8
1
  6
Continuous
 62
     7
100
AcDbLine
 10
91.11309800000001
 20
78.36892371910969
 30
0.0
 11
91.30085299999999
 21
78.36892371910969
 31
0.0
  0
LINE
  5
1BE
330
3D
100
AcDbEntity
  8
1
  6
Continuous
 62
     7
100
AcDbLine
 10
88.215746
 20
76.8689187191097
 30
0.0
 11
91.68162000000001
 21
76.8689187191097
 31
0.0
  0
LINE
  5
1BF
330
3D
100
AcDbEntity
  8
1
  6
Continuous
 62
     7
100
AcDbLine
 10
91.70426800000001
 20
77.96892371910971
 30
0.0
 11
91.519105
 21
77.96892371910971
 31
0.0
  0
LINE
  5
1C0
330
3D
100
AcDbEntity
  8
1
  6
Continuous
 62
     7
100
AcDbLine
 10
90.58888099999999
 20
77.96892371910971
 30
0.0
 11
89.96573599999999
 21
77.96892371910971
 31
0.0
  0
LINE
  5
1C1
330
3D
100
AcDbEntity
  8
1
  6
Continuous
 62
     7
100
AcDbLine
 10
88.801151
 20
77.96892371910971
 30
0.0
 11
88.41236699999999
 21
77.96892371910971
 31
0.0
  0
LINE
  5
1C2
330
3D
100
AcDbEntity
  8
1
  6
Continuous
 62
     7
100
AcDbLine
 10
88.215746
 20
77.41890871910971
 30
0.0
 11
88.218604
 21
77.41890871910971
 31
0.0
  0
LINE
  5
1C3
330
3D
100
AcDbEntity
  8
1
  6
Continuous
 62
     7
100
AcDbLine
 10
91.71286799999999
 20
77.41890871910971
 30
0.0
 11
91.71575000000001
 21
77.41890871910971
 31
0.0
  0
LINE
  5
1C4
330
3D
100
AcDbEntity
  8
1
  6
Continuous
 62
     7
100
AcDbLine
 10
89.19296299999999
 20
78.36892371910969
 30
0.0
 11
89.69336899999999
 21
78.36892371910969
 31
0.0
  0
LINE
  5
1C5
330
3D
100
AcDbEntity
  8
1
  6
Continuous
 62
     7
100
AcDbLine
 10
90.73853299999999
 20
78.36892371910969
 30
0.0
 11
91.11309800000001
 21
78.36892371910969
 31
0.0
  0
LINE
  5
1C6
330
3D
100
AcDbEntity
  8
1
  6
Continuous
 62
     7
100
AcDbLine
 10
91.30085299999999
 20
78.36892371910969
 30
0.0
 11
91.70426800000001
 21
77.96892371910971
 31
0.0
  0
LINE
  5
1C7
330
3D
100
AcDbEntity
  8
1
  6
Continuous
 62
     7
100
AcDbLine
 10
71.905283
 20
77.96892371910971
 30
0.0
 11
71.72012
 21
77.96892371910971
 31
0.0
  0
LINE
  5
1C8
330
3D
100
AcDbEntity
  8
1
  6
Continuous
 62
     7
100
AcDbLine
 10
65.607291
 20
76.16894300000001
 30
0.0
 11
65.83952
 21
76.16894300000001
 31
0.0
  0
LINE
  5
1C9
330
3D
100
AcDbEntity
  8
1
  6
Continuous
 62
     7
100
AcDbLine
 10
70.789872
 20
77.96892371910971
 30
0.0
 11
70.166751
 21
77.96892371910971
 31
0.0
  0
LINE
  5
1CA
330
3D
100
AcDbEntity
  8
1
  6
Continuous
 62
     7
100
AcDbLine
 10
65.83952
 20
76.16894300000001
 30
0.0
 11
65.963834
 21
76.160708
 31
0.0
  0
LINE
  5
1CB
330
3D
100
AcDbEntity
  8
1
  6
Continuous
 62
     7
100
AcDbLine
 10
69.002166
 20
77.96892371910971
 30
0.0
 11
68.613382
 21
77.96892371910971
 31
0.0
  0
LINE
  5
1CC
330
3D
100
AcDbEntity
  8
1
  6
Continuous
 62
     7
100
AcDbLine
 10
68.416761
 20
77.41890871910971
 30
0.0
 11
68.419619
 21
77.41890871910971
 31
0.0
  0
LINE
  5
1CD
330
3D
100
AcDbEntity
  8
1
  6
Continuous
 62
     7
100
AcDbLine
 10
71.913883
 20
77.41890871910971
 30
0.0
 11
71.916741
 21
77.41890871910971
 31
0.0
  0
LINE
  5
1CE
330
3D
100
AcDbEntity
  8
1
  6
Continuous
 62
     7
100
AcDbLine
 10
69.393954
 20
78.36892371910969
 30
0.0
 11
69.89436
 21
78.36892371910969
 31
0.0
  0
LINE
  5
1CF
330
3D
100
AcDbEntity
  8
1
  6
Continuous
 62
     7
100
AcDbLine
 10
70.939548
 20
78.36892371910969
 30
0.0
 11
71.314113
 21
78.36892371910969
 31
0.0
  0
LINE
  5
1D0
330
3D
100
AcDbEntity
  8
1
  6
Continuous
 62
     7
100
AcDbLine
 10
68.450867
 20
76.8689187191097
 30
0.0
 11
71.916741
 21
76.8689187191097
 31
0.0
  0
LINE
  5
1D1
330
3D
100
AcDbEntity
  8
1
  6
Continuous
 62
     7
100
AcDbLine
 10
71.501844
 20
78.36892371910969
 30
0.0
 11
71.905283
 21
77.96892371910971
 31
0.0
  0
LINE
  5
1D2
330
3D
100
AcDbEntity
  8
1
  6
Continuous
 62
     7
100
AcDbLine
 10
68.416761
 20
77.41890871910971
 30
0.0
 11
68.416761
 21
76.8689187191097
 31
0.0
  0
LINE
  5
1D3
330
3D
100
AcDbEntity
  8
1
  6
Continuous
 62
     7
100
AcDbLine
 10
71.905283
 20
77.96892371910971
 30
0.0
 11
71.905283
 21
77.41890871910971
 31
0.0
  0
LINE
  5
1D4
330
3D
100
AcDbEntity
  8
1
  6
Continuous
 62
     7
100
AcDbLine
 10
65.201453
 20
76.16894300000001
 30
0.0
 11
65.607291
 21
76.16894300000001
 31
0.0
  0
LINE
  5
1D5
330
3D
100
AcDbEntity
  8
1
  6
Continuous
 62
     7
100
AcDbLine
 10
71.331336
 20
77.96892371910971
 30
0.0
 11
70.789872
 21
77.96892371910971
 31
0.0
  0
LINE
  5
1D6
330
3D
100
AcDbEntity
  8
1
  6
Continuous
 62
     7
100
AcDbLine
 10
69.54363
 20
77.96892371910971
 30
0.0
 11
69.002166
 21
77.96892371910971
 31
0.0
  0
LINE
  5
1D7
330
3D
100
AcDbEntity
  8
1
  6
Continuous
 62
     7
100
AcDbLine
 10
68.428219
 20
77.41890871910971
 30
0.0
 11
68.428219
 21
77.96892371910971
 31
0.0
  0
LINE
  5
1D8
330
3D
100
AcDbEntity
  8
1
  6
Continuous
 62
     7
100
AcDbLine
 10
71.905283
 20
77.41890871910971
 30
0.0
 11
71.913883
 21
77.41890871910971
 31
0.0
  0
LINE
  5
1D9
330
3D
100
AcDbEntity
  8
1
  6
Continuous
 62
     7
100
AcDbLine
 10
69.019389
 20
78.36892371910969
 30
0.0
 11
69.393954
 21
78.36892371910969
 31
0.0
  0
LINE
  5
1DA
330
3D
100
AcDbEntity
  8
1
  6
Continuous
 62
     7
100
AcDbLine
 10
70.439142
 20
78.36892371910969
 30
0.0
 11
70.939548
 21
78.36892371910969
 31
0.0
  0
LINE
  5
1DB
330
3D
100
AcDbEntity
  8
1
  6
Continuous
 62
     7
100
AcDbLine
 10
68.428219
 20
77.96892371910971
 30
0.0
 11
68.831658
 21
78.36892371910969
 31
0.0
  0
LINE
  5
1DC
330
3D
100
AcDbEntity
  8
1
  6
Continuous
 62
     7
100
AcDbLine
 10
64.667717
 20
76.16894300000001
 30
0.0
 11
65.201453
 21
76.16894300000001
 31
0.0
  0
LINE
  5
1DD
330
3D
100
AcDbEntity
  8
1
  6
Continuous
 62
     7
100
AcDbLine
 10
71.72012
 20
77.96892371910971
 30
0.0
 11
71.331336
 21
77.96892371910971
 31
0.0
  0
LINE
  5
1DE
330
3D
100
AcDbEntity
  8
1
  6
Continuous
 62
     7
100
AcDbLine
 10
70.166751
 20
77.96892371910971
 30
0.0
 11
69.54363
 21
77.96892371910971
 31
0.0
  0
LINE
  5
1DF
330
3D
100
AcDbEntity
  8
1
  6
Continuous
 62
     7
100
AcDbLine
 10
68.613382
 20
77.96892371910971
 30
0.0
 11
68.428219
 21
77.96892371910971
 31
0.0
  0
LINE
  5
1E0
330
3D
100
AcDbEntity
  8
1
  6
Continuous
 62
     7
100
AcDbLine
 10
68.419619
 20
77.41890871910971
 30
0.0
 11
68.428219
 21
77.41890871910971
 31
0.0
  0
LINE
  5
1E1
330
3D
100
AcDbEntity
  8
1
  6
Continuous
 62
     7
100
AcDbLine
 10
68.831658
 20
78.36892371910969
 30
0.0
 11
69.019389
 21
78.36892371910969
 31
0.0
  0
LINE
  5
1E2
330
3D
100
AcDbEntity
  8
1
  6
Continuous
 62
     7
100
AcDbLine
 10
69.89436
 20
78.36892371910969
 30
0.0
 11
70.439142
 21
78.36892371910969
 31
0.0
  0
LINE
  5
1E3
330
3D
100
AcDbEntity
  8
1
  6
Continuous
 62
     7
100
AcDbLine
 10
71.314113
 20
78.36892371910969
 30
0.0
 11
71.501844
 21
78.36892371910969
 31
0.0
  0
LINE
  5
1E4
330
3D
100
AcDbEntity
  8
1
  6
Continuous
 62
     7
100
AcDbLine
 10
71.916741
 20
76.8689187191097
 30
0.0
 11
71.916741
 21
77.41890871910971
 31
0.0
  0
LINE
  5
1E5
330
3D
100
AcDbEntity
  8
1
  6
Continuous
 62
     7
100
AcDbLine
 10
-21.79701800000037
 20
78.3689360000001
 30
0.0
 11
-22.19701800000037
 21
77.9689360000001
 31
0.0
  0
LINE
  5
1E6
330
3D
100
AcDbEntity
  8
1
  6
Continuous
 62
     7
100
AcDbLine
 10
-20.64704000000039
 20
78.3689360000001
 30
0.0
 11
-20.64704000000039
 21
77.4189210000001
 31
0.0
  0
LINE
  5
1E7
330
3D
100
AcDbEntity
  8
1
  6
Continuous
 62
     7
100
AcDbLine
 10
-22.19701800000037
 20
76.86893100000009
 30
0.0
 11
-18.73114400000039
 21
76.86893100000009
 31
0.0
  0
LINE
  5
1E8
330
3D
100
AcDbEntity
  8
1
  6
Continuous
 62
     7
100
AcDbLine
 10
-22.19701800000037
 20
77.9689360000001
 30
0.0
 11
-22.19701800000037
 21
76.86893100000009
 31
0.0
  0
LINE
  5
1E9
330
3D
100
AcDbEntity
  8
1
  6
Continuous
 62
     7
100
AcDbLine
 10
-18.69703800000038
 20
76.86893100000009
 30
0.0
 11
-18.69703800000038
 21
77.9689360000001
 31
0.0
  0
LINE
  5
1EA
330
3D
100
AcDbEntity
  8
1
  6
Continuous
 62
     7
100
AcDbLine
 10
-18.69703800000038
 20
77.9689360000001
 30
0.0
 11
-19.09703800000039
 21
78.3689360000001
 31
0.0
  0
LINE
  5
1EB
330
3D
100
AcDbEntity
  8
1
  6
Continuous
 62
     7
100
AcDbLine
 10
-21.79701800000037
 20
78.3689360000001
 30
0.0
 11
-20.64704000000039
 21
78.3689360000001
 31
0.0
  0
LINE
  5
1EC
330
3D
100
AcDbEntity
  8
1
  6
Continuous
 62
     7
100
AcDbLine
 10
-18.69703800000038
 20
77.9689360000001
 30
0.0
 11
-20.24701600000039
 21
77.9689360000001
 31
0.0
  0
LINE
  5
1ED
330
3D
100
AcDbEntity
  8
1
  6
Continuous
 62
     7
100
AcDbLine
 10
-20.64704000000039
 20
77.9689360000001
 30
0.0
 11
-22.19701800000037
 21
77.9689360000001
 31
0.0
  0
LINE
  5
1EE
330
3D
100
AcDbEntity
  8
1
  6
Continuous
 62
     7
100
AcDbLine
 10
-20.64704000000039
 20
77.4189210000001
 30
0.0
 11
-20.24701600000039
 21
77.4189210000001
 31
0.0
  0
LINE
  5
1EF
330
3D
100
AcDbEntity
  8
1
  6
Continuous
 62
     7
100
AcDbLine
 10
-20.24701600000039
 20
78.3689360000001
 30
0.0
 11
-19.09703800000039
 21
78.3689360000001
 31
0.0
  0
LINE
  5
1F0
330
3D
100
AcDbEntity
  8
1
  6
Continuous
 62
     7
100
AcDbLine
 10
-20.24701600000039
 20
77.4189210000001
 30
0.0
 11
-20.24701600000039
 21
78.3689360000001
 31
0.0
  0
LINE
  5
1F1
330
3D
100
AcDbEntity
  8
1
  6
Continuous
 62
     7
100
AcDbLine
 10
-38.49601100000044
 20
77.9689360000001
 30
0.0
 11
-38.89601100000043
 21
78.3689360000001
 31
0.0
  0
LINE
  5
1F2
330
3D
100
AcDbEntity
  8
1
  6
Continuous
 62
     7
100
AcDbLine
 10
-40.04598900000042
 20
77.4189210000001
 30
0.0
 11
-40.04598900000042
 21
78.3689360000001
 31
0.0
  0
LINE
  5
1F3
330
3D
100
AcDbEntity
  8
1
  6
Continuous
 62
     7
100
AcDbLine
 10
-41.96188500000041
 20
76.86893100000009
 30
0.0
 11
-38.49601100000044
 21
76.86893100000009
 31
0.0
  0
LINE
  5
1F4
330
3D
100
AcDbEntity
  8
1
  6
Continuous
 62
     7
100
AcDbLine
 10
-38.49601100000044
 20
76.86893100000009
 30
0.0
 11
-38.49601100000044
 21
77.9689360000001
 31
0.0
  0
LINE
  5
1F5
330
3D
100
AcDbEntity
  8
1
  6
Continuous
 62
     7
100
AcDbLine
 10
-41.99599100000042
 20
77.9689360000001
 30
0.0
 11
-41.99599100000042
 21
76.86893100000009
 31
0.0
  0
LINE
  5
1F6
330
3D
100
AcDbEntity
  8
1
  6
Continuous
 62
     7
100
AcDbLine
 10
-41.59599100000041
 20
78.3689360000001
 30
0.0
 11
-41.99599100000042
 21
77.9689360000001
 31
0.0
  0
LINE
  5
1F7
330
3D
100
AcDbEntity
  8
1
  6
Continuous
 62
     7
100
AcDbLine
 10
-40.04598900000042
 20
78.3689360000001
 30
0.0
 11
-38.89601100000043
 21
78.3689360000001
 31
0.0
  0
LINE
  5
1F8
330
3D
100
AcDbEntity
  8
1
  6
Continuous
 62
     7
100
AcDbLine
 10
-40.44601300000041
 20
77.9689360000001
 30
0.0
 11
-41.99599100000042
 21
77.9689360000001
 31
0.0
  0
LINE
  5
1F9
330
3D
100
AcDbEntity
  8
1
  6
Continuous
 62
     7
100
AcDbLine
 10
-38.49601100000044
 20
77.9689360000001
 30
0.0
 11
-40.04598900000042
 21
77.9689360000001
 31
0.0
  0
LINE
  5
1FA
330
3D
100
AcDbEntity
  8
1
  6
Continuous
 62
     7
100
AcDbLine
 10
-40.44601300000041
 20
77.4189210000001
 30
0.0
 11
-40.04598900000042
 21
77.4189210000001
 31
0.0
  0
LINE
  5
1FB
330
3D
100
AcDbEntity
  8
1
  6
Continuous
 62
     7
100
AcDbLine
 10
-41.59599100000041
 20
78.3689360000001
 30
0.0
 11
-40.44601300000041
 21
78.3689360000001
 31
0.0
  0
LINE
  5
1FC
330
3D
100
AcDbEntity
  8
1
  6
Continuous
 62
     7
100
AcDbLine
 10
-40.44601300000041
 20
78.3689360000001
 30
0.0
 11
-40.44601300000041
 21
77.4189210000001
 31
0.0
  0
ENDBLK
  5
3F
330
3D
100
AcDbEntity
  8
0
100
AcDbBlockEnd
  0
BLOCK
  5
41
330
40
100
AcDbEntity
  8
0
100
AcDbBlockBegin
  2
Steckerplatte
 70
     0
 71
     0
 10
-28.10713000000001
 20
69.63118800000001
 30
0.0
  3
Steckerplatte
  1

  0
LINE
  5
1FD
330
40
100
AcDbEntity
  8
1
  6
Continuous
 62
     7
100
AcDbLine
 10
61.06624100000001
 20
71.86894000000001
 30
0.0
 11
61.06624100000001
 21
74.368932
 31
0.0
  0
LINE
  5
1FE
330
40
100
AcDbEntity
  8
1
  6
Continuous
 62
     7
100
AcDbLine
 10
127.066257
 20
74.368932
 30
0.0
 11
127.066257
 21
71.86894000000001
 31
0.0
  0
LINE
  5
1FF
330
40
100
AcDbEntity
  8
1
  6
Continuous
 62
     7
100
AcDbLine
 10
127.066257
 20
74.368932
 30
0.0
 11
61.06624100000001
 21
74.368932
 31
0.0
  0
LINE
  5
200
330
40
100
AcDbEntity
  8
1
  6
DOT_CENTER
 62
     2
100
AcDbLine
 10
-30.357132
 20
69.63118800000001
 30
0.0
 11
-30.35713199999991
 21
116.4174250884362
 31
0.0
  0
LINE
  5
201
330
40
100
AcDbEntity
  8
1
  6
Continuous
 62
     7
100
AcDbLine
 10
-45.3571305
 20
71.63118800000001
 30
0.0
 11
-45.3571305
 21
74.368932
 31
0.0
  0
LINE
  5
202
330
40
100
AcDbEntity
  8
1
  6
Continuous
 62
     7
100
AcDbLine
 10
-15.35713349999999
 20
74.368932
 30
0.0
 11
-15.35713349999999
 21
71.84500700000001
 31
0.0
  0
LINE
  5
203
330
40
100
AcDbEntity
  8
1
  6
Continuous
 62
     7
100
AcDbLine
 10
-45.3571305
 20
74.368932
 30
0.0
 11
-15.35713349999999
 21
74.368932
 31
0.0
  0
ENDBLK
  5
42
330
40
100
AcDbEntity
  8
0
100
AcDbBlockEnd
  0
BLOCK
  5
44
330
43
100
AcDbEntity
  8
0
100
AcDbBlockBegin
  2
Lagerschild_B-Seite
 70
     0
 71
     0
 10
-39.357133
 20
1.11894699999999
 30
0.0
  3
Lagerschild_B-Seite
  1

  0
POINT
  5
204
330
43
100
AcDbEntity
  8
1
 62
     3
 60
     1
100
AcDbPoint
 10
129.066237
 20
8.20967334352841
 30
0.0
  0
POINT
  5
205
330
43
100
AcDbEntity
  8
1
 62
     3
 60
     1
100
AcDbPoint
 10
123.1385285571529
 20
2.14570034312021
 30
0.0
  0
LINE
  5
206
330
43
100
AcDbEntity
  8
1
  6
Continuous
 62
     7
100
AcDbLine
 10
129.441233
 20
71.86894000000001
 30
0.0
 11
61.06624100000001
 21
71.86894000000001
 31
0.0
  0
LINE
  5
207
330
43
100
AcDbEntity
  8
1
  6
Continuous
 62
     7
100
AcDbLine
 10
61.06624100000001
 20
71.86894000000001
 30
0.0
 11
58.69123999999999
 21
71.86894000000001
 31
0.0
  0
LINE
  5
208
330
43
100
AcDbEntity
  8
1
  6
Continuous
 62
     7
100
AcDbLine
 10
66.2523992928444
 20
1.11894699999999
 30
0.0
 11
121.8800747071555
 21
1.11894699999999
 31
0.0
  0
LINE
  5
209
330
43
100
AcDbEntity
  8
1
  6
Continuous
 62
     7
100
AcDbLine
 10
58.69123999999999
 20
71.86894000000001
 30
0.0
 11
58.69123999999999
 21
8.68010656469329
 31
0.0
  0
LINE
  5
20A
330
43
100
AcDbEntity
  8
1
  6
Continuous
 62
     7
100
AcDbLine
 10
129.441233
 20
8.6801052928445
 30
0.0
 11
129.441233
 21
71.86894000000001
 31
0.0
  0
ARC
  5
20B
330
43
100
AcDbEntity
  8
1
  6
Continuous
 62
     7
100
AcDbCircle
 10
94.06623700000031
 20
36.49394299999969
 30
0.0
 40
44.99999900000009
100
AcDbArc
 50
-141.8235549865078
 51
-135.0000000000006
  0
ARC
  5
20C
330
43
100
AcDbEntity
  8
1
  6
Continuous
 62
     7
100
AcDbCircle
 10
94.06623700000031
 20
36.49394299999969
 30
0.0
 40
44.99999900000006
100
AcDbArc
 50
-135.0000000000006
 51
-128.1764470734673
  0
ARC
  5
20D
330
43
100
AcDbEntity
  8
1
  6
Continuous
 62
     7
100
AcDbCircle
 10
94.06623700000031
 20
36.49394299999969
 30
0.0
 40
44.99999899999957
100
AcDbArc
 50
-51.82355292653338
 51
-38.17644707346662
  0
ENDBLK
  5
45
330
43
100
AcDbEntity
  8
0
100
AcDbBlockEnd
  0
BLOCK
  5
47
330
46
100
AcDbEntity
  8
0
100
AcDbBlockBegin
  2
Winkelflanschdose_12-polig_drehbar
 70
     0
 71
     0
 10
328.8757286191631
 20
180.008929317636
 30
0.0
  3
Winkelflanschdose_12-polig_drehbar
  1

  0
POINT
  5
20E
330
46
100
AcDbEntity
  8
1
 62
     3
 60
     1
100
AcDbPoint
 10
101.154452
 20
86.30937471910971
 30
0.0
  0
POINT
  5
20F
330
46
100
AcDbEntity
  8
1
 62
     3
 60
     1
100
AcDbPoint
 10
114.978027
 20
86.30937171910969
 30
0.0
  0
POINT
  5
210
330
46
100
AcDbEntity
  8
1
 62
     3
 60
     1
100
AcDbPoint
 10
117.8757890000001
 20
89.20713371910969
 30
0.0
  0
POINT
  5
211
330
46
100
AcDbEntity
  8
1
 62
     3
 60
     1
100
AcDbPoint
 10
120.066242
 20
96.618931
 30
0.0
  0
POINT
  5
212
330
46
100
AcDbEntity
  8
1
 62
     3
 60
     1
100
AcDbPoint
 10
98.25669400000001
 20
89.20713371910969
 30
0.0
  0
POINT
  5
213
330
46
100
AcDbEntity
  8
1
 62
     3
 60
     1
100
AcDbPoint
 10
96.06624199999999
 20
96.61893100000009
 30
0.0
  0
POINT
  5
214
330
46
100
AcDbEntity
  8
1
 62
     3
 60
     1
100
AcDbPoint
 10
95.216242
 20
77.1189187191097
 30
0.0
  0
POINT
  5
215
330
46
100
AcDbEntity
  8
1
 62
     3
 60
     1
100
AcDbPoint
 10
95.216242
 20
87.1189187191097
 30
0.0
  0
LINE
  5
216
330
46
100
AcDbEntity
  8
AM_VIS
  6
Continuous
 62
     7
100
AcDbLine
 10
114.9780440797501
 20
77.1189187191097
 30
0.0
 11
114.978032
 21
77.1189187191097
 31
0.0
  0
LINE
  5
217
330
46
100
AcDbEntity
  8
1
  6
Continuous
 62
     7
100
AcDbLine
 10
120.066242
 20
83.6189187191097
 30
0.0
 11
96.06624199999999
 21
83.6189187191097
 31
0.0
  0
LINE
  5
218
330
46
100
AcDbEntity
  8
1
  6
DOT_CENTER
 62
     2
100
AcDbLine
 10
108.066242
 20
72.61891871910959
 30
0.0
 11
108.066242
 21
115.3889374519707
 31
0.0
  0
LINE
  5
219
330
46
100
AcDbEntity
  8
AM_VIS
  6
Continuous
 62
     7
100
AcDbLine
 10
98.256697
 20
77.1189187191097
 30
0.0
 11
96.06624199999999
 21
77.1189187191097
 31
0.0
  0
LINE
  5
21A
330
46
100
AcDbEntity
  8
AM_VIS
  6
Continuous
 62
     7
100
AcDbLine
 10
95.216242
 20
77.1189187191097
 30
0.0
 11
95.216242
 21
74.6189437191097
 31
0.0
  0
LINE
  5
21B
330
46
100
AcDbEntity
  8
AM_VIS
  6
Continuous
 62
     7
100
AcDbLine
 10
98.25791100000001
 20
89.69891871910971
 30
0.0
 11
98.25791100000001
 21
92.39951571910959
 31
0.0
  0
LINE
  5
21C
330
46
100
AcDbEntity
  8
AM_VIS
  6
Continuous
 62
     7
100
AcDbLine
 10
98.25669400000001
 20
89.20713371910969
 30
0.0
 11
98.25669400000001
 21
89.69891871910971
 31
0.0
  0
LINE
  5
21D
330
46
100
AcDbEntity
  8
AM_VIS
  6
Continuous
 62
     7
100
AcDbLine
 10
98.25669400000001
 20
89.69891871910971
 30
0.0
 11
98.25791100000001
 21
89.69891871910971
 31
0.0
  0
LINE
  5
21E
330
46
100
AcDbEntity
  8
AM_VIS
  6
Continuous
 62
     7
100
AcDbLine
 10
101.154398
 20
89.6989577191097
 30
0.0
 11
101.154452
 21
86.30937471910971
 31
0.0
  0
LINE
  5
21F
330
46
100
AcDbEntity
  8
AM_VIS
  6
Continuous
 62
     7
100
AcDbLine
 10
101.154452
 20
86.30937471910971
 30
0.0
 11
101.154452
 21
77.1189187191097
 31
0.0
  0
LINE
  5
220
330
46
100
AcDbEntity
  8
AM_VIS
  6
Continuous
 62
     7
100
AcDbLine
 10
120.916242
 20
77.1189187191097
 30
0.0
 11
120.9029800000001
 21
77.1189187191097
 31
0.0
  0
LINE
  5
221
330
46
100
AcDbEntity
  8
AM_VIS
  6
Continuous
 62
     7
100
AcDbLine
 10
120.9029800000001
 20
77.1189187191097
 30
0.0
 11
120.066242
 21
77.1189187191097
 31
0.0
  0
LINE
  5
222
330
46
100
AcDbEntity
  8
AM_VIS
  6
Continuous
 62
     7
100
AcDbLine
 10
120.915985
 20
74.6189437191097
 30
0.0
 11
120.916242
 21
77.1189187191097
 31
0.0
  0
LINE
  5
223
330
46
100
AcDbEntity
  8
AM_VIS
  6
Continuous
 62
     7
100
AcDbLine
 10
120.902723
 20
74.6189437191097
 30
0.0
 11
120.915985
 21
74.6189437191097
 31
0.0
  0
LINE
  5
224
330
46
100
AcDbEntity
  8
AM_VIS
  6
Continuous
 62
     7
100
AcDbLine
 10
114.978027
 20
89.69891871910971
 30
0.0
 11
117.8745720000001
 21
89.69891871910971
 31
0.0
  0
LINE
  5
225
330
46
100
AcDbEntity
  8
AM_VIS
  6
Continuous
 62
     7
100
AcDbLine
 10
117.8745720000001
 20
92.39951571910959
 30
0.0
 11
117.8745720000001
 21
89.69891871910971
 31
0.0
  0
LINE
  5
226
330
46
100
AcDbEntity
  8
AM_VIS
  6
Continuous
 62
     7
100
AcDbLine
 10
117.8745720000001
 20
89.69891871910971
 30
0.0
 11
117.8757890000001
 21
89.69891871910971
 31
0.0
  0
LINE
  5
227
330
46
100
AcDbEntity
  8
AM_VIS
  6
Continuous
 62
     7
100
AcDbLine
 10
117.8757890000001
 20
89.69891871910971
 30
0.0
 11
117.8757890000001
 21
89.20713371910969
 31
0.0
  0
LINE
  5
228
330
46
100
AcDbEntity
  8
AM_VIS
  6
Continuous
 62
     7
100
AcDbLine
 10
114.978027
 20
86.30937171910969
 30
0.0
 11
114.978027
 21
89.69891871910971
 31
0.0
  0
LINE
  5
229
330
46
100
AcDbEntity
  8
AM_VIS
  6
Continuous
 62
     7
100
AcDbLine
 10
115.8550260000001
 20
88.33013471910971
 30
0.0
 11
117.8757890000001
 21
89.20713371910969
 31
0.0
  0
LINE
  5
22A
330
46
100
AcDbEntity
  8
AM_VIS
  6
Continuous
 62
     7
100
AcDbLine
 10
114.978027
 20
86.30937171910969
 30
0.0
 11
115.8550260000001
 21
88.33013471910971
 31
0.0
  0
LINE
  5
22B
330
46
100
AcDbEntity
  8
AM_VIS
  6
Continuous
 62
     7
100
AcDbLine
 10
117.8757890000001
 20
89.20713371910969
 30
0.0
 11
117.8757833157954
 21
78.61894799999999
 31
0.0
  0
LINE
  5
22C
330
46
100
AcDbEntity
  8
AM_VIS
  6
Continuous
 62
     7
100
AcDbLine
 10
114.9780440797501
 20
77.1189187191097
 30
0.0
 11
114.978027
 21
86.30937171910969
 31
0.0
  0
LINE
  5
22D
330
46
100
AcDbEntity
  8
AM_VIS
  6
Continuous
 62
     7
100
AcDbLine
 10
120.066242
 20
77.1189187191097
 30
0.0
 11
120.066242
 21
96.618931
 31
0.0
  0
LINE
  5
22E
330
46
100
AcDbEntity
  8
AM_VIS
  6
Continuous
 62
     7
100
AcDbLine
 10
120.066242
 20
77.1189187191097
 30
0.0
 11
117.8757860000001
 21
77.1189187191097
 31
0.0
  0
LINE
  5
22F
330
46
100
AcDbEntity
  8
AM_VIS
  6
Continuous
 62
     7
100
AcDbLine
 10
98.25791100000001
 20
89.69891871910971
 30
0.0
 11
101.154398
 21
89.6989577191097
 31
0.0
  0
LINE
  5
230
330
46
100
AcDbEntity
  8
AM_VIS
  6
Continuous
 62
     7
100
AcDbLine
 10
100.277458
 20
88.33013471910971
 30
0.0
 11
101.154452
 21
86.30937471910971
 31
0.0
  0
LINE
  5
231
330
46
100
AcDbEntity
  8
AM_VIS
  6
Continuous
 62
     7
100
AcDbLine
 10
98.25669400000001
 20
89.20713371910969
 30
0.0
 11
100.277458
 21
88.33013471910971
 31
0.0
  0
LINE
  5
232
330
46
100
AcDbEntity
  8
1
  6
DOT_CENTER
 62
     2
100
AcDbLine
 10
121.5140971469724
 20
100.118931
 30
0.0
 11
94.31520864761899
 21
100.118931
 31
0.0
  0
LINE
  5
233
330
46
100
AcDbEntity
  8
AM_VIS
  6
Continuous
 62
     7
100
AcDbLine
 10
96.06624199999999
 20
96.61893100000009
 30
0.0
 11
96.06624199999999
 21
87.1189187191097
 31
0.0
  0
LINE
  5
234
330
46
100
AcDbEntity
  8
AM_VIS
  6
Continuous
 62
     7
100
AcDbLine
 10
96.06624199999999
 20
77.1189187191097
 30
0.0
 11
95.216242
 21
77.1189187191097
 31
0.0
  0
LINE
  5
235
330
46
100
AcDbEntity
  8
AM_VIS
  6
Continuous
 62
     7
100
AcDbLine
 10
101.154452
 20
77.1189187191097
 30
0.0
 11
98.256697
 21
77.1189187191097
 31
0.0
  0
LINE
  5
236
330
46
100
AcDbEntity
  8
AM_VIS
  6
Continuous
 62
     7
100
AcDbLine
 10
117.8757860000001
 20
77.1189187191097
 30
0.0
 11
114.9780440797501
 21
77.1189187191097
 31
0.0
  0
LINE
  5
237
330
46
100
AcDbEntity
  8
AM_VIS
  6
Continuous
 62
     7
100
AcDbLine
 10
114.978032
 20
77.1189187191097
 30
0.0
 11
101.154452
 21
77.1189187191097
 31
0.0
  0
LINE
  5
238
330
46
100
AcDbEntity
  8
AM_VIS
  6
Continuous
 62
     7
100
AcDbLine
 10
95.216242
 20
74.6189437191097
 30
0.0
 11
120.902723
 21
74.6189437191097
 31
0.0
  0
LINE
  5
239
330
46
100
AcDbEntity
  8
1
  6
Continuous
 62
     7
100
AcDbLine
 10
95.216242
 20
77.1189187191097
 30
0.0
 11
95.216242
 21
87.1189187191097
 31
0.0
  0
LINE
  5
23A
330
46
100
AcDbEntity
  8
1
  6
Continuous
 62
     7
100
AcDbLine
 10
95.216242
 20
87.1189187191097
 30
0.0
 11
96.06624199999999
 21
87.1189187191097
 31
0.0
  0
LINE
  5
23B
330
46
100
AcDbEntity
  8
AM_VIS
  6
Continuous
 62
     7
100
AcDbLine
 10
96.06624199999999
 20
87.1189187191097
 30
0.0
 11
96.06624199999999
 21
77.1189187191097
 31
0.0
  0
LINE
  5
23C
330
46
100
AcDbEntity
  8
AM_VIS
  6
Continuous
 62
     7
100
AcDbLine
 10
98.25669968420459
 20
78.61894799999999
 30
0.0
 11
98.25669400000001
 21
89.20713371910969
 31
0.0
  0
ARC
  5
23D
330
46
100
AcDbEntity
  8
1
  6
Continuous
 62
     7
100
AcDbCircle
 10
96.25164662602401
 20
115.5098107661561
 30
0.0
 40
6.999999999999884
100
AcDbArc
 50
-60.14832404975347
 51
-29.66860429911001
  0
ARC
  5
23E
330
46
100
AcDbEntity
  8
1
  6
Continuous
 62
     7
100
AcDbCircle
 10
108.066242
 20
100.118931
 30
0.0
 40
12.5
100
AcDbArc
 50
0.0
 51
48.20833315859804
  0
ARC
  5
23F
330
46
100
AcDbEntity
  8
1
  6
Continuous
 62
     7
100
AcDbCircle
 10
108.0662415
 20
43.11895980435219
 30
0.0
 40
69.99997119564772
100
AcDbArc
 50
89.99999959074427
 51
93.63444836870289
  0
ARC
  5
240
330
46
100
AcDbEntity
  8
1
  6
Continuous
 62
     7
100
AcDbCircle
 10
119.8808373739761
 20
115.5098107661561
 30
0.0
 40
6.999999999999892
100
AcDbArc
 50
-153.0067442793676
 51
-119.8516759502467
  0
ARC
  5
241
330
46
100
AcDbEntity
  8
1
  6
Continuous
 62
     7
100
AcDbCircle
 10
108.066242
 20
100.118931
 30
0.0
 40
12.49999999999999
100
AcDbArc
 50
-163.7397952916884
 51
-16.26020470831196
  0
ARC
  5
242
330
46
100
AcDbEntity
  8
1
  6
Continuous
 62
     7
100
AcDbCircle
 10
108.066242
 20
100.118931
 30
0.0
 40
12.49999999999986
100
AcDbArc
 50
131.7916668414016
 51
-163.7397952916884
  0
ARC
  5
243
330
46
100
AcDbEntity
  8
1
  6
Continuous
 62
     7
100
AcDbCircle
 10
108.0662419613382
 20
97.6508705044325
 30
0.0
 40
13.28165528532307
100
AcDbArc
 50
-121.3591701441291
 51
-58.64085472459615
  0
ARC
  5
244
330
46
100
AcDbEntity
  8
1
  6
Continuous
 62
     7
100
AcDbCircle
 10
104.0813237282979
 20
97.31347246528881
 30
0.0
 40
16.00000000000009
100
AcDbArc
 50
-30.44068999899276
 51
-2.48792517799264
  0
ARC
  5
245
330
46
100
AcDbEntity
  8
1
  6
Continuous
 62
     7
100
AcDbCircle
 10
113.0376196279775
 20
97.60500473384911
 30
0.0
 40
17.00000000000008
100
AcDbArc
 50
-176.6747298525215
 51
-150.3966691892988
  0
ARC
  5
246
330
46
100
AcDbEntity
  8
1
  6
Continuous
 62
     7
100
AcDbCircle
 10
108.0662415
 20
43.11895980435219
 30
0.0
 40
69.99997119564775
100
AcDbArc
 50
86.3655507547905
 51
89.99999959074427
  0
ARC
  5
247
330
46
100
AcDbEntity
  8
1
  6
Continuous
 62
     7
100
AcDbCircle
 10
108.066242
 20
100.118931
 30
0.0
 40
12.5
100
AcDbArc
 50
-16.26020470831196
 51
0.0
  0
ARC
  5
248
330
46
100
AcDbEntity
  8
1
  6
Continuous
 62
     7
100
AcDbCircle
 10
103.723990021051
 20
111.4811635861067
 30
0.0
 40
1.500000000000068
100
AcDbArc
 50
93.63444836870491
 51
157.923396193208
  0
ARC
  5
249
330
46
100
AcDbEntity
  8
1
  6
Continuous
 62
     7
100
AcDbCircle
 10
112.4084940247491
 20
111.4811635196792
 30
0.0
 40
1.499999999999974
100
AcDbArc
 50
34.58525929494377
 51
86.36555075479409
  0
ENDBLK
  5
48
330
46
100
AcDbEntity
  8
0
100
AcDbBlockEnd
  0
BLOCK
  5
4A
330
49
100
AcDbEntity
  8
0
100
AcDbBlockBegin
  2
Rotor
 70
     0
 71
     0
 10
-93.9699995878999
 20
-139.8445518022832
 30
0.0
  3
Rotor
  1

  0
LINE
  5
24A
330
49
100
AcDbEntity
  8
1
  6
Continuous
 62
     7
100
AcDbLine
 10
-109.8099476170202
 20
-38.506057
 30
0.0
 11
-107.933423
 21
-38.506057
 31
0.0
  0
LINE
  5
24B
330
49
100
AcDbEntity
  8
1
  6
Continuous
 62
     7
100
AcDbLine
 10
-107.933423
 20
-38.506057
 30
0.0
 11
-107.933423
 21
-42.506057
 31
0.0
  0
LINE
  5
24C
330
49
100
AcDbEntity
  8
1
  6
Continuous
 62
     7
100
AcDbLine
 10
-107.933423
 20
-42.506057
 30
0.0
 11
-109.8099476170202
 21
-42.506057
 31
0.0
  0
LINE
  5
24D
330
49
100
AcDbEntity
  8
1
  6
Continuous
 62
     2
100
AcDbLine
 10
-136.357133
 20
-40.5060565
 30
0.0
 11
-136.357133
 21
-46.00605649999997
 31
0.0
  0
LINE
  5
24E
330
49
100
AcDbEntity
  8
1
  6
Continuous
 62
     7
100
AcDbLine
 10
-135.357133
 20
-46.25605649999997
 30
0.0
 11
-135.357133
 21
-40.50605649999997
 31
0.0
  0
LINE
  5
24F
330
49
100
AcDbEntity
  8
1
  6
Continuous
 62
     7
100
AcDbLine
 10
-131.9855962687745
 20
-46.50605649999997
 30
0.0
 11
-133.857133
 21
-46.50605649999997
 31
0.0
  0
LINE
  5
250
330
49
100
AcDbEntity
  8
1
  6
Continuous
 62
     7
100
AcDbLine
 10
-133.857133
 20
-46.50605649999997
 30
0.0
 11
-135.357133
 21
-46.50605649999997
 31
0.0
  0
LINE
  5
251
330
49
100
AcDbEntity
  8
1
  6
Continuous
 62
     7
100
AcDbLine
 10
-135.357133
 20
-46.50605649999997
 30
0.0
 11
-135.357133
 21
-46.25605649999997
 31
0.0
  0
LINE
  5
252
330
49
100
AcDbEntity
  8
1
  6
Continuous
 62
     7
100
AcDbLine
 10
-136.1158264015628
 20
-45.89353338518526
 30
0.0
 11
-136.357133
 21
-46.00605649999997
 31
0.0
  0
LINE
  5
253
330
49
100
AcDbEntity
  8
1
  6
Continuous
 62
     7
100
AcDbLine
 10
-135.9467790968664
 20
-45.85605649999997
 30
0.0
 11
-135.757133
 21
-45.85605649999997
 31
0.0
  0
LINE
  5
254
330
49
100
AcDbEntity
  8
1
  6
Continuous
 62
     2
100
AcDbLine
 10
-136.357133
 20
-46.00605649999997
 30
0.0
 11
-136.357133
 21
-46.00605999999996
 31
0.0
  0
LINE
  5
255
330
49
100
AcDbEntity
  8
1
  6
DOT_CENTER
 62
     2
100
AcDbLine
 10
-127.487758942275
 20
-40.5060565
 30
0.0
 11
-160.0887864335176
 21
-40.5060565
 31
0.0
  0
LINE
  5
256
330
49
100
AcDbEntity
  8
1
  6
DOT_CENTER
 62
     2
100
AcDbLine
 10
-114.933763
 20
-32.73511180941759
 30
0.0
 11
-114.933763
 21
-48.49508108576731
 31
0.0
  0
LINE
  5
257
330
49
100
AcDbEntity
  8
1
  6
DOT_CENTER
 62
     2
100
AcDbLine
 10
-106.8137178990459
 20
-40.506057
 30
0.0
 11
-122.9298446731662
 21
-40.506057
 31
0.0
  0
LINE
  5
258
330
49
100
AcDbEntity
  8
1
  6
Continuous
 62
     2
100
AcDbLine
 10
-136.357133
 20
-35.0060565
 30
0.0
 11
-136.357133
 21
-40.5060565
 31
0.0
  0
LINE
  5
259
330
49
100
AcDbEntity
  8
1
  6
Continuous
 62
     7
100
AcDbLine
 10
-158.357133
 20
-45.50605400000001
 30
0.0
 11
-158.357133
 21
-38.00605200000001
 31
0.0
  0
LINE
  5
25A
330
49
100
AcDbEntity
  8
1
  6
Continuous
 62
     7
100
AcDbLine
 10
-158.357133
 20
-38.00605200000001
 30
0.0
 11
-158.357133
 21
-35.50605899999999
 31
0.0
  0
LINE
  5
25B
330
49
100
AcDbEntity
  8
1
  6
Continuous
 62
     7
100
AcDbLine
 10
-158.088793
 20
-46.00605999999999
 30
0.0
 11
-158.088793
 21
-35.00605300000001
 31
0.0
  0
LINE
  5
25C
330
49
100
AcDbEntity
  8
1
  6
Continuous
 62
     7
100
AcDbLine
 10
-158.0887864335175
 20
-46.00605999999999
 30
0.0
 11
-136.357133
 21
-46.00605999999996
 31
0.0
  0
LINE
  5
25D
330
49
100
AcDbEntity
  8
1
  6
Continuous
 62
     7
100
AcDbLine
 10
-136.3571405057742
 20
-35.00605300000001
 30
0.0
 11
-158.0887864335176
 21
-35.00605300000001
 31
0.0
  0
LINE
  5
25E
330
49
100
AcDbEntity
  8
1
  6
Continuous
 62
     7
100
AcDbLine
 10
-135.357133
 20
-40.50605649999997
 30
0.0
 11
-135.357133
 21
-34.7560565
 31
0.0
  0
LINE
  5
25F
330
49
100
AcDbEntity
  8
1
  6
Continuous
 62
     7
100
AcDbLine
 10
-133.857133
 20
-34.5060565
 30
0.0
 11
-131.9855962687745
 21
-34.50605649999997
 31
0.0
  0
LINE
  5
260
330
49
100
AcDbEntity
  8
1
  6
Continuous
 62
     7
100
AcDbLine
 10
-135.357133
 20
-34.5060565
 30
0.0
 11
-133.857133
 21
-34.5060565
 31
0.0
  0
LINE
  5
261
330
49
100
AcDbEntity
  8
1
  6
Continuous
 62
     7
100
AcDbLine
 10
-135.357133
 20
-34.7560565
 30
0.0
 11
-135.357133
 21
-34.5060565
 31
0.0
  0
LINE
  5
262
330
49
100
AcDbEntity
  8
1
  6
Continuous
 62
     7
100
AcDbLine
 10
-136.357133
 20
-35.0060565
 30
0.0
 11
-136.1158264015628
 21
-35.11857961481471
 31
0.0
  0
LINE
  5
263
330
49
100
AcDbEntity
  8
1
  6
Continuous
 62
     7
100
AcDbLine
 10
-135.757133
 20
-35.15605650000001
 30
0.0
 11
-135.9467790968664
 21
-35.15605650000001
 31
0.0
  0
LINE
  5
264
330
49
100
AcDbEntity
  8
1
  6
Continuous
 62
     2
100
AcDbLine
 10
-136.357133
 20
-35.00605300000001
 30
0.0
 11
-136.357133
 21
-35.0060565
 31
0.0
  0
LINE
  5
265
330
49
100
AcDbEntity
  8
1
  6
Continuous
 62
     7
100
AcDbLine
 10
-152.357133
 20
-38.506056
 30
0.0
 11
-140.357133
 21
-38.506056
 31
0.0
  0
LINE
  5
266
330
49
100
AcDbEntity
  8
1
  6
Continuous
 62
     7
100
AcDbLine
 10
-152.357133
 20
-42.506056
 30
0.0
 11
-140.357133
 21
-42.506056
 31
0.0
  0
LINE
  5
267
330
49
100
AcDbEntity
  8
1
  6
Continuous
 62
     2
100
AcDbLine
 10
-117.357133
 20
41.9939435
 30
0.0
 11
-117.357133
 21
36.4939435
 31
0.0
  0
LINE
  5
268
330
49
100
AcDbEntity
  8
1
  6
DOT_CENTER
 62
     2
100
AcDbLine
 10
19.52326568439346
 20
36.4939435
 30
0.0
 11
-141.0887864335176
 21
36.4939435
 31
0.0
  0
LINE
  5
269
330
49
100
AcDbEntity
  8
1
  6
Continuous
 62
     7
100
AcDbLine
 10
-139.357133
 20
31.49394599999999
 30
0.0
 11
-139.357133
 21
38.99394799999999
 31
0.0
  0
LINE
  5
26A
330
49
100
AcDbEntity
  8
1
  6
Continuous
 62
     7
100
AcDbLine
 10
-139.357133
 20
38.99394799999999
 30
0.0
 11
-139.357133
 21
41.49394100000001
 31
0.0
  0
LINE
  5
26B
330
49
100
AcDbEntity
  8
1
  6
Continuous
 62
     7
100
AcDbLine
 10
-139.088793
 20
30.99394000000001
 30
0.0
 11
-139.088793
 21
41.99394699999999
 31
0.0
  0
LINE
  5
26C
330
49
100
AcDbEntity
  8
1
  6
Continuous
 62
     7
100
AcDbLine
 10
-139.0887864335175
 20
30.99394000000001
 30
0.0
 11
-119.357391
 21
30.99394000000001
 31
0.0
  0
LINE
  5
26D
330
49
100
AcDbEntity
  8
1
  6
Continuous
 62
     7
100
AcDbLine
 10
-117.3571405057742
 20
41.99394699999999
 30
0.0
 11
-139.0887864335176
 21
41.99394699999999
 31
0.0
  0
LINE
  5
26E
330
49
100
AcDbEntity
  8
1
  6
Continuous
 62
     7
100
AcDbLine
 10
-116.357133
 20
36.4939435
 30
0.0
 11
-116.357133
 21
42.2439435
 31
0.0
  0
LINE
  5
26F
330
49
100
AcDbEntity
  8
1
  6
Continuous
 62
     7
100
AcDbLine
 10
-114.857133
 20
42.4939435
 30
0.0
 11
-112.9855962687745
 21
42.4939435
 31
0.0
  0
LINE
  5
270
330
49
100
AcDbEntity
  8
1
  6
Continuous
 62
     7
100
AcDbLine
 10
-116.357133
 20
42.4939435
 30
0.0
 11
-114.857133
 21
42.4939435
 31
0.0
  0
LINE
  5
271
330
49
100
AcDbEntity
  8
1
  6
Continuous
 62
     7
100
AcDbLine
 10
-116.357133
 20
42.2439435
 30
0.0
 11
-116.357133
 21
42.4939435
 31
0.0
  0
LINE
  5
272
330
49
100
AcDbEntity
  8
1
  6
Continuous
 62
     7
100
AcDbLine
 10
-117.357133
 20
41.9939435
 30
0.0
 11
-117.1158264015628
 21
41.88142038518529
 31
0.0
  0
LINE
  5
273
330
49
100
AcDbEntity
  8
1
  6
Continuous
 62
     7
100
AcDbLine
 10
-116.757133
 20
41.84394349999999
 30
0.0
 11
-116.9467790968664
 21
41.84394349999999
 31
0.0
  0
LINE
  5
274
330
49
100
AcDbEntity
  8
1
  6
Continuous
 62
     2
100
AcDbLine
 10
-117.357133
 20
41.99394699999999
 30
0.0
 11
-117.357133
 21
41.9939435
 31
0.0
  0
ARC
  5
275
330
49
100
AcDbEntity
  8
1
  6
Continuous
 62
     7
100
AcDbCircle
 10
94.066237
 20
36.493943
 30
0.0
 40
6.0
100
AcDbArc
 50
0.0
 51
90.0
  0
ARC
  5
276
102
{ACAD_REACTORS
330
28D
330
28D
102
}
330
49
100
AcDbEntity
  8
1
  6
Continuous
 62
     2
100
AcDbCircle
 10
-134.2355962687745
 20
-37.50605649999997
 30
0.0
 40
3.75
100
AcDbArc
 50
-53.13010235415598
 51
53.13010235415598
  0
ARC
  5
277
102
{ACAD_REACTORS
330
28D
330
28D
102
}
330
49
100
AcDbEntity
  8
1
  6
Continuous
 62
     2
100
AcDbCircle
 10
-129.7355962687745
 20
-37.5060565
 30
0.0
 40
3.750000000000023
100
AcDbArc
 50
126.8698976458438
 51
-126.8698976458443
  0
ARC
  5
278
330
49
100
AcDbEntity
  8
1
  6
Continuous
 62
     2
100
AcDbCircle
 10
-134.2355962687745
 20
-43.50605649999997
 30
0.0
 40
3.75
100
AcDbArc
 50
-53.13010235415598
 51
53.13010235415598
  0
ARC
  5
279
330
49
100
AcDbEntity
  8
1
  6
Continuous
 62
     7
100
AcDbCircle
 10
-135.757133
 20
-46.25605649999997
 30
0.0
 40
0.4000000000000057
100
AcDbArc
 50
0.0
 51
90.0
  0
ARC
  5
27A
330
49
100
AcDbEntity
  8
1
  6
Continuous
 62
     7
100
AcDbCircle
 10
-157.757133
 20
-35.50605899999999
 30
0.0
 40
0.5999999999999992
100
AcDbArc
 50
123.5562732281372
 51
180.0
  0
ARC
  5
27B
330
49
100
AcDbEntity
  8
1
  6
Continuous
 62
     7
100
AcDbCircle
 10
-157.757133
 20
-45.50605400000001
 30
0.0
 40
0.5999999999999943
100
AcDbArc
 50
180.0
 51
-123.5562732281286
  0
ARC
  5
27C
330
49
100
AcDbEntity
  8
1
  6
Continuous
 62
     7
100
AcDbCircle
 10
-135.757133
 20
-34.7560565
 30
0.0
 40
0.4000000000000128
100
AcDbArc
 50
-90.0
 51
0.0
  0
ARC
  5
27D
330
49
100
AcDbEntity
  8
1
  6
Continuous
 62
     7
100
AcDbCircle
 10
-152.357133
 20
-40.506056
 30
0.0
 40
2.0
100
AcDbArc
 50
180.0
 51
-90.0
  0
ARC
  5
27E
330
49
100
AcDbEntity
  8
1
  6
Continuous
 62
     7
100
AcDbCircle
 10
-140.357133
 20
-40.506056
 30
0.0
 40
2.0
100
AcDbArc
 50
0.0
 51
90.0
  0
ARC
  5
27F
330
49
100
AcDbEntity
  8
1
  6
Continuous
 62
     7
100
AcDbCircle
 10
-114.933763
 20
-40.506057
 30
0.0
 40
6.000000000000016
100
AcDbArc
 50
19.47122063449064
 51
-19.47122063449064
  0
ARC
  5
280
330
49
100
AcDbEntity
  8
1
  6
Continuous
 62
     7
100
AcDbCircle
 10
-152.357133
 20
-40.506056
 30
0.0
 40
2.0
100
AcDbArc
 50
90.0
 51
180.0
  0
ARC
  5
281
330
49
100
AcDbEntity
  8
1
  6
Continuous
 62
     7
100
AcDbCircle
 10
-140.357133
 20
-40.506056
 30
0.0
 40
2.0
100
AcDbArc
 50
-90.0
 51
0.0
  0
ARC
  5
282
330
49
100
AcDbEntity
  8
1
  6
Continuous
 62
     7
100
AcDbCircle
 10
-114.933763
 20
-40.506057
 30
0.0
 40
5.5
100
AcDbArc
 50
0.0
 51
180.0
  0
ARC
  5
283
330
49
100
AcDbEntity
  8
1
  6
Continuous
 62
     7
100
AcDbCircle
 10
-114.933763
 20
-40.506057
 30
0.0
 40
5.5
100
AcDbArc
 50
180.0
 51
0.0
  0
ARC
  5
284
330
49
100
AcDbEntity
  8
1
  6
Continuous
 62
     7
100
AcDbCircle
 10
-138.757133
 20
41.49394100000001
 30
0.0
 40
0.5999999999999992
100
AcDbArc
 50
123.5562732281372
 51
180.0
  0
ARC
  5
285
330
49
100
AcDbEntity
  8
1
  6
Continuous
 62
     7
100
AcDbCircle
 10
-138.757133
 20
31.49394599999999
 30
0.0
 40
0.5999999999999943
100
AcDbArc
 50
180.0
 51
-123.5562732281284
  0
ARC
  5
286
330
49
100
AcDbEntity
  8
1
  6
Continuous
 62
     7
100
AcDbCircle
 10
-116.757133
 20
42.2439435
 30
0.0
 40
0.4000000000000128
100
AcDbArc
 50
-90.0
 51
0.0
  0
ARC
  5
287
330
49
100
AcDbEntity
  8
1
  6
Continuous
 62
     7
100
AcDbCircle
 10
94.066237
 20
36.493943
 30
0.0
 40
6.000000000000028
100
AcDbArc
 50
90.0
 51
0.0
  0
ARC
  5
288
330
49
100
AcDbEntity
  8
1
  6
Continuous
 62
     7
100
AcDbCircle
 10
94.066237
 20
36.493943
 30
0.0
 40
5.5
100
AcDbArc
 50
0.0
 51
180.0
  0
ARC
  5
289
330
49
100
AcDbEntity
  8
1
  6
Continuous
 62
     7
100
AcDbCircle
 10
94.066237
 20
36.493943
 30
0.0
 40
5.5
100
AcDbArc
 50
180.0
 51
0.0
  0
ARC
  5
28A
330
49
100
AcDbEntity
  8
1
  6
Continuous
 62
     7
100
AcDbCircle
 10
-135.9467790968664
 20
-46.25605649999997
 30
0.0
 40
0.3999999999999986
100
AcDbArc
 50
90.0
 51
115.0000000000113
  0
ARC
  5
28B
330
49
100
AcDbEntity
  8
1
  6
Continuous
 62
     7
100
AcDbCircle
 10
-135.9467790968664
 20
-34.7560565
 30
0.0
 40
0.4000000000000959
100
AcDbArc
 50
-115.0000000000113
 51
-90.0
  0
ARC
  5
28C
330
49
100
AcDbEntity
  8
1
  6
Continuous
 62
     7
100
AcDbCircle
 10
-116.9467790968664
 20
42.2439435
 30
0.0
 40
0.4000000000001019
100
AcDbArc
 50
-115.0000000000131
 51
-90.0
  0
HATCH
  5
28D
330
49
100
AcDbEntity
  8
1
  6
Continuous
 62
     2
100
AcDbHatch
 10
0.0
 20
0.0
 30
0.0
210
0.0
220
0.0
230
1.0
  2
_USER
 70
     0
 71
     1
 91
        1
 92
        1
 93
        2
 72
     2
 10
-129.7355962687745
 20
-37.5060565
 40
3.750000000000023
 50
126.8698976458438
 51
233.1301023541557
 73
     1
 72
     2
 10
-134.2355962687745
 20
-37.50605649999997
 40
3.75
 50
306.869897645844
 51
413.130102354156
 73
     1
 97
        2
330
277
330
276
 75
     1
 76
     0
 52
45.0
 41
0.75
 77
     0
 78
     1
 53
45.0
 43
0.0
 44
0.0
 45
-0.5303300858899094
 46
0.5303300858899094
 79
     0
 98
        1
 10
0.0
 20
0.0
  0
ENDBLK
  5
4B
330
49
100
AcDbEntity
  8
0
100
AcDbBlockEnd
  0
BLOCK
  5
4D
330
4C
100
AcDbEntity
  8
0
100
AcDbBlockBegin
  2
Flachlagerschild_B5_A90
 70
     0
 71
     0
 10
-77.8409087114539
 20
-205.1936780950078
 30
0.0
  3
Flachlagerschild_B5_A90
  1

  0
POINT
  5
28E
330
4C
100
AcDbEntity
  8
1
 62
     3
 60
     1
100
AcDbPoint
 10
67.54973270550447
 20
9.97743870550446
 30
0.0
  0
POINT
  5
28F
330
4C
100
AcDbEntity
  8
1
 62
     3
 60
     1
100
AcDbPoint
 10
120.5827412944955
 20
9.97743870550447
 30
0.0
  0
POINT
  5
290
330
4C
100
AcDbEntity
  8
1
 62
     3
 60
     1
100
AcDbPoint
 10
120.5827412944955
 20
63.01044729449554
 30
0.0
  0
POINT
  5
291
330
4C
100
AcDbEntity
  8
1
 62
     3
 60
     1
100
AcDbPoint
 10
67.54973270550447
 20
63.01044729449553
 30
0.0
  0
POINT
  5
292
330
4C
100
AcDbEntity
  8
1
 62
     3
 60
     1
100
AcDbPoint
 10
-41.85713199999999
 20
58.2439435
 30
0.0
  0
POINT
  5
293
330
4C
100
AcDbEntity
  8
1
 62
     3
 60
     1
100
AcDbPoint
 10
-105.357132
 20
1.49394799999999
 30
0.0
  0
POINT
  5
294
330
4C
100
AcDbEntity
  8
1
 62
     3
 60
     1
100
AcDbPoint
 10
-105.357132
 20
1.49394349999999
 30
0.0
  0
POINT
  5
295
330
4C
100
AcDbEntity
  8
1
 62
     3
 60
     1
100
AcDbPoint
 10
-105.357132
 20
71.49393800000001
 30
0.0
  0
POINT
  5
296
330
4C
100
AcDbEntity
  8
1
 62
     3
 60
     1
100
AcDbPoint
 10
-105.357132
 20
71.4939435
 30
0.0
  0
LINE
  5
297
330
4C
100
AcDbEntity
  8
1
  6
Continuous
 62
     7
100
AcDbLine
 10
-45.35713199999999
 20
63.9939435
 30
0.0
 11
-45.35713199999999
 21
71.4939435
 31
0.0
  0
LINE
  5
298
330
4C
100
AcDbEntity
  8
1
  6
Continuous
 62
     7
100
AcDbLine
 10
-105.357132
 20
63.9939435
 30
0.0
 11
-105.357132
 21
58.2439435
 31
0.0
  0
LINE
  5
299
330
4C
100
AcDbEntity
  8
1
  6
Continuous
 62
     7
100
AcDbLine
 10
-105.357132
 20
63.9939435
 30
0.0
 11
-45.35713199999999
 21
63.9939435
 31
0.0
  0
LINE
  5
29A
330
4C
100
AcDbEntity
  8
1
  6
Continuous
 62
     7
100
AcDbLine
 10
-45.35713199999999
 20
1.49394349999999
 30
0.0
 11
-41.85713199999999
 21
1.49394349999999
 31
0.0
  0
LINE
  5
29B
330
4C
100
AcDbEntity
  8
1
  6
Continuous
 62
     7
100
AcDbLine
 10
-45.35713199999999
 20
14.7439435
 30
0.0
 11
-45.35713199999999
 21
1.49394349999999
 31
0.0
  0
LINE
  5
29C
330
4C
100
AcDbEntity
  8
1
  6
Continuous
 62
     7
100
AcDbLine
 10
-105.357132
 20
8.9939435
 30
0.0
 11
-105.357132
 21
8.20967200000001
 31
0.0
  0
LINE
  5
29D
330
4C
100
AcDbEntity
  8
1
  6
Continuous
 62
     7
100
AcDbLine
 10
-105.357132
 20
8.9939435
 30
0.0
 11
-45.35713199999999
 21
8.9939435
 31
0.0
  0
LINE
  5
29E
330
4C
100
AcDbEntity
  8
1
  6
Continuous
 62
     7
100
AcDbLine
 10
-45.35713199999999
 20
71.4939435
 30
0.0
 11
-36.85713199999999
 21
71.4939435
 31
0.0
  0
LINE
  5
29F
330
4C
100
AcDbEntity
  8
1
  6
Continuous
 62
     7
100
AcDbLine
 10
-45.35713199999999
 20
58.2439435
 30
0.0
 11
-45.35713199999999
 21
63.9939435
 31
0.0
  0
LINE
  5
2A0
330
4C
100
AcDbEntity
  8
1
  6
Continuous
 62
     7
100
AcDbLine
 10
-41.85713199999999
 20
1.49394349999999
 30
0.0
 11
-8.85713199999999
 21
1.49394349999999
 31
0.0
  0
LINE
  5
2A1
330
4C
100
AcDbEntity
  8
1
  6
Continuous
 62
     7
100
AcDbLine
 10
-41.85713199999999
 20
8.1939435
 30
0.0
 11
-41.85713199999999
 21
1.49394349999999
 31
0.0
  0
LINE
  5
2A2
330
4C
100
AcDbEntity
  8
1
  6
Continuous
 62
     7
100
AcDbLine
 10
-45.35713199999999
 20
58.2439435
 30
0.0
 11
-41.85713199999999
 21
58.2439435
 31
0.0
  0
LINE
  5
2A3
330
4C
100
AcDbEntity
  8
1
  6
Continuous
 62
     7
100
AcDbLine
 10
-36.85713199999999
 20
71.4939435
 30
0.0
 11
-8.85713199999999
 21
71.4939435
 31
0.0
  0
LINE
  5
2A4
330
4C
100
AcDbEntity
  8
1
  6
Continuous
 62
     7
100
AcDbLine
 10
-45.35713199999999
 20
58.2439435
 30
0.0
 11
-36.85713199999999
 21
71.4939435
 31
0.0
  0
LINE
  5
2A5
330
4C
100
AcDbEntity
  8
1
  6
Continuous
 62
     7
100
AcDbLine
 10
-88.357132
 20
14.7439435
 30
0.0
 11
-45.35713199999999
 21
14.7439435
 31
0.0
  0
LINE
  5
2A6
330
4C
100
AcDbEntity
  8
1
  6
Continuous
 62
     7
100
AcDbLine
 10
-88.357132
 20
1.49394349999999
 30
0.0
 11
-45.35713199999999
 21
1.49394349999999
 31
0.0
  0
LINE
  5
2A7
330
4C
100
AcDbEntity
  8
1
  6
Continuous
 62
     7
100
AcDbLine
 10
-88.357132
 20
1.49394349999999
 30
0.0
 11
-88.357132
 21
14.7439435
 31
0.0
  0
LINE
  5
2A8
330
4C
100
AcDbEntity
  8
1
  6
Continuous
 62
     7
100
AcDbLine
 10
-88.357132
 20
58.2439435
 30
0.0
 11
-45.35713199999999
 21
58.2439435
 31
0.0
  0
LINE
  5
2A9
330
4C
100
AcDbEntity
  8
1
  6
Continuous
 62
     7
100
AcDbLine
 10
-88.357132
 20
71.4939435
 30
0.0
 11
-45.35713199999999
 21
71.4939435
 31
0.0
  0
LINE
  5
2AA
330
4C
100
AcDbEntity
  8
1
  6
Continuous
 62
     7
100
AcDbLine
 10
-88.357132
 20
58.2439435
 30
0.0
 11
-88.357132
 21
71.4939435
 31
0.0
  0
LINE
  5
2AB
330
4C
100
AcDbEntity
  8
1
  6
Continuous
 62
     7
100
AcDbLine
 10
-91.357132
 20
14.7439435
 30
0.0
 11
-88.357132
 21
14.7439435
 31
0.0
  0
LINE
  5
2AC
330
4C
100
AcDbEntity
  8
1
  6
Continuous
 62
     7
100
AcDbLine
 10
-91.357132
 20
58.2439435
 30
0.0
 11
-88.357132
 21
58.2439435
 31
0.0
  0
LINE
  5
2AD
330
4C
100
AcDbEntity
  8
1
  6
Continuous
 62
     7
100
AcDbLine
 10
-91.357132
 20
58.2439435
 30
0.0
 11
-91.357132
 21
14.7439435
 31
0.0
  0
LINE
  5
2AE
330
4C
100
AcDbEntity
  8
1
  6
Continuous
 62
     7
100
AcDbLine
 10
-45.35713199999999
 20
14.7439435
 30
0.0
 11
-41.85713199999999
 21
14.7439435
 31
0.0
  0
LINE
  5
2AF
330
4C
100
AcDbEntity
  8
1
  6
Continuous
 62
     7
100
AcDbLine
 10
-41.85713199999999
 20
8.1939435
 30
0.0
 11
-45.35713199999999
 21
14.7439435
 31
0.0
  0
LINE
  5
2B0
330
4C
100
AcDbEntity
  8
1
  6
Continuous
 62
     7
100
AcDbLine
 10
-6.35713199999999
 20
71.4939435
 30
0.0
 11
-6.35713199999999
 21
8.1939435
 31
0.0
  0
LINE
  5
2B1
330
4C
100
AcDbEntity
  8
1
  6
Continuous
 62
     7
100
AcDbLine
 10
-6.35713199999999
 20
8.1939435
 30
0.0
 11
-6.35713199999999
 21
1.49394349999999
 31
0.0
  0
LINE
  5
2B2
330
4C
100
AcDbEntity
  8
1
  6
Continuous
 62
     7
100
AcDbLine
 10
-41.85713199999999
 20
8.1939435
 30
0.0
 11
-6.35713199999999
 21
8.1939435
 31
0.0
  0
LINE
  5
2B3
330
4C
100
AcDbEntity
  8
1
  6
Continuous
 62
     7
100
AcDbLine
 10
-41.85713199999999
 20
58.2439435
 30
0.0
 11
-41.85713199999999
 21
14.7439435
 31
0.0
  0
LINE
  5
2B4
330
4C
100
AcDbEntity
  8
1
  6
Continuous
 62
     7
100
AcDbLine
 10
-105.357132
 20
1.49394349999999
 30
0.0
 11
-88.357132
 21
1.49394349999999
 31
0.0
  0
LINE
  5
2B5
330
4C
100
AcDbEntity
  8
1
  6
Continuous
 62
     7
100
AcDbLine
 10
-105.357132
 20
71.4939435
 30
0.0
 11
-88.357132
 21
71.4939435
 31
0.0
  0
LINE
  5
2B6
330
4C
100
AcDbEntity
  8
1
  6
Continuous
 62
     7
100
AcDbLine
 10
-105.357132
 20
14.7439435
 30
0.0
 11
-105.357132
 21
8.9939435
 31
0.0
  0
LINE
  5
2B7
330
4C
100
AcDbEntity
  8
1
  6
Continuous
 62
     7
100
AcDbLine
 10
-105.357132
 20
14.7439435
 30
0.0
 11
-91.357132
 21
14.7439435
 31
0.0
  0
LINE
  5
2B8
330
4C
100
AcDbEntity
  8
1
  6
Continuous
 62
     7
100
AcDbLine
 10
-105.357132
 20
58.2439435
 30
0.0
 11
-105.357132
 21
14.7439435
 31
0.0
  0
LINE
  5
2B9
330
4C
100
AcDbEntity
  8
1
  6
Continuous
 62
     7
100
AcDbLine
 10
-105.357132
 20
58.2439435
 30
0.0
 11
-91.357132
 21
58.2439435
 31
0.0
  0
LINE
  5
2BA
330
4C
100
AcDbEntity
  8
1
  6
Continuous
 62
     7
100
AcDbLine
 10
-105.357132
 20
1.49394799999999
 30
0.0
 11
-105.357132
 21
1.49394349999999
 31
0.0
  0
LINE
  5
2BB
330
4C
100
AcDbEntity
  8
1
  6
Continuous
 62
     7
100
AcDbLine
 10
-108.357136
 20
1.49394799999999
 30
0.0
 11
-105.357132
 21
1.49394799999999
 31
0.0
  0
LINE
  5
2BC
330
4C
100
AcDbEntity
  8
1
  6
Continuous
 62
     7
100
AcDbLine
 10
-105.357132
 20
8.20967200000001
 30
0.0
 11
-105.357132
 21
1.49394799999999
 31
0.0
  0
LINE
  5
2BD
330
4C
100
AcDbEntity
  8
1
  6
Continuous
 62
     7
100
AcDbLine
 10
-108.357136
 20
8.20967200000001
 30
0.0
 11
-105.357132
 21
8.20967200000001
 31
0.0
  0
LINE
  5
2BE
330
4C
100
AcDbEntity
  8
1
  6
Continuous
 62
     7
100
AcDbLine
 10
-105.357132
 20
64.77821399999999
 30
0.0
 11
-105.357132
 21
63.9939435
 31
0.0
  0
LINE
  5
2BF
330
4C
100
AcDbEntity
  8
1
  6
Continuous
 62
     7
100
AcDbLine
 10
-108.357136
 20
64.77821399999999
 30
0.0
 11
-105.357132
 21
64.77821399999999
 31
0.0
  0
LINE
  5
2C0
330
4C
100
AcDbEntity
  8
1
  6
Continuous
 62
     7
100
AcDbLine
 10
-105.357132
 20
71.49393800000001
 30
0.0
 11
-105.357132
 21
64.77821399999999
 31
0.0
  0
LINE
  5
2C1
330
4C
100
AcDbEntity
  8
1
  6
Continuous
 62
     7
100
AcDbLine
 10
-108.357136
 20
71.49393800000001
 30
0.0
 11
-105.357132
 21
71.49393800000001
 31
0.0
  0
LINE
  5
2C2
330
4C
100
AcDbEntity
  8
1
  6
Continuous
 62
     7
100
AcDbLine
 10
-105.357132
 20
71.4939435
 30
0.0
 11
-105.357132
 21
71.49393800000001
 31
0.0
  0
LINE
  5
2C3
330
4C
100
AcDbEntity
  8
1
  6
Continuous
 62
     7
100
AcDbLine
 10
-118.357131
 20
36.4939435
 30
0.0
 11
-118.357131
 21
6.49394599999999
 31
0.0
  0
LINE
  5
2C4
330
4C
100
AcDbEntity
  8
1
  6
Continuous
 62
     7
100
AcDbLine
 10
-118.85713
 20
41.99394699999999
 30
0.0
 11
-118.85713
 21
66.359974
 31
0.0
  0
LINE
  5
2C5
330
4C
100
AcDbEntity
  8
1
  6
Continuous
 62
     7
100
AcDbLine
 10
-116.357132
 20
8.20967200000001
 30
0.0
 11
-116.357132
 21
36.4939435
 31
0.0
  0
LINE
  5
2C6
330
4C
100
AcDbEntity
  8
1
  6
DOT_CENTER
 62
     2
100
AcDbLine
 10
94.066237
 20
91.93590415500199
 30
0.0
 11
94.066237
 21
-5.17817555702101
 31
0.0
  0
LINE
  5
2C7
330
4C
100
AcDbEntity
  8
1
  6
DOT_CENTER
 62
     2
100
AcDbLine
 10
135.320845342251
 20
36.493943
 30
0.0
 11
52.69817618859101
 21
36.493943
 31
0.0
  0
LINE
  5
2C8
330
4C
100
AcDbEntity
  8
1
  6
DOT_CENTER
 62
     2
100
AcDbLine
 10
71.192452304341
 20
13.620158304341
 30
0.0
 11
64.1922398214855
 21
6.61994582148549
 31
0.0
  0
LINE
  5
2C9
330
4C
100
AcDbEntity
  8
1
  6
DOT_CENTER
 62
     2
100
AcDbLine
 10
116.597285904412
 20
13.96289409558801
 30
0.0
 11
123.828274622966
 21
6.731905377034
 31
0.0
  0
LINE
  5
2CA
330
4C
100
AcDbEntity
  8
1
  6
DOT_CENTER
 62
     2
100
AcDbLine
 10
123.8863594555045
 20
66.3140654555045
 30
0.0
 11
116.578445325051
 21
59.00615132505101
 31
0.0
  0
LINE
  5
2CB
330
4C
100
AcDbEntity
  8
1
  6
DOT_CENTER
 62
     2
100
AcDbLine
 10
63.7495279294495
 20
66.8106520705505
 30
0.0
 11
71.672845355099
 21
58.88733464490099
 31
0.0
  0
LINE
  5
2CC
330
4C
100
AcDbEntity
  8
1
  6
Continuous
 62
     7
100
AcDbLine
 10
59.0662371513405
 20
64.77821284374599
 30
0.0
 11
59.066237
 21
8.20967334352829
 31
0.0
  0
LINE
  5
2CD
330
4C
100
AcDbEntity
  8
1
  6
Continuous
 62
     7
100
AcDbLine
 10
65.7819611563447
 20
1.49394799999999
 30
0.0
 11
122.3505128436551
 21
1.49394799999999
 31
0.0
  0
LINE
  5
2CE
330
4C
100
AcDbEntity
  8
1
  6
Continuous
 62
     7
100
AcDbLine
 10
129.0662368486595
 20
64.7782128437459
 30
0.0
 11
129.066237
 21
8.20967334352841
 31
0.0
  0
LINE
  5
2CF
330
4C
100
AcDbEntity
  8
1
  6
Continuous
 62
     7
100
AcDbLine
 10
122.3021548621422
 20
71.532962
 30
0.0
 11
65.8303191378578
 21
71.532962
 31
0.0
  0
LINE
  5
2D0
330
4C
100
AcDbEntity
  8
1
  6
Continuous
 62
     7
100
AcDbLine
 10
-116.357132
 20
5.99394599999999
 30
0.0
 11
-116.357132
 21
8.20967200000001
 31
0.0
  0
LINE
  5
2D1
330
4C
100
AcDbEntity
  8
1
  6
Continuous
 62
     7
100
AcDbLine
 10
-116.357132
 20
1.49394799999999
 30
0.0
 11
-116.357132
 21
5.99394599999999
 31
0.0
  0
LINE
  5
2D2
330
4C
100
AcDbEntity
  8
1
  6
Continuous
 62
     7
100
AcDbLine
 10
-118.357131
 20
66.493953
 30
0.0
 11
-118.357131
 21
41.99394699999999
 31
0.0
  0
LINE
  5
2D3
330
4C
100
AcDbEntity
  8
1
  6
Continuous
 62
     7
100
AcDbLine
 10
-116.8544862579471
 20
66.493953
 30
0.0
 11
-116.859777742053
 21
66.493953
 31
0.0
  0
LINE
  5
2D4
330
4C
100
AcDbEntity
  8
1
  6
Continuous
 62
     7
100
AcDbLine
 10
-116.357132
 20
64.77821399999999
 30
0.0
 11
-108.357136
 21
64.77821399999999
 31
0.0
  0
LINE
  5
2D5
330
4C
100
AcDbEntity
  8
1
  6
Continuous
 62
     7
100
AcDbLine
 10
-118.357131
 20
66.493953
 30
0.0
 11
-118.85713
 21
66.359974
 31
0.0
  0
LINE
  5
2D6
330
4C
100
AcDbEntity
  8
1
  6
Continuous
 62
     7
100
AcDbLine
 10
-116.357132
 20
1.49394799999999
 30
0.0
 11
-108.357136
 21
1.49394799999999
 31
0.0
  0
LINE
  5
2D7
330
4C
100
AcDbEntity
  8
1
  6
Continuous
 62
     7
100
AcDbLine
 10
-118.85713
 20
6.627925
 30
0.0
 11
-118.357131
 21
6.49394599999999
 31
0.0
  0
LINE
  5
2D8
330
4C
100
AcDbEntity
  8
1
  6
Continuous
 62
     7
100
AcDbLine
 10
-108.357136
 20
8.20967200000001
 30
0.0
 11
-116.357132
 21
8.20967200000001
 31
0.0
  0
LINE
  5
2D9
330
4C
100
AcDbEntity
  8
1
  6
Continuous
 62
     7
100
AcDbLine
 10
-116.357132
 20
47.98973931141589
 30
0.0
 11
-116.357132
 21
66.993946
 31
0.0
  0
LINE
  5
2DA
330
4C
100
AcDbEntity
  8
1
  6
Continuous
 62
     7
100
AcDbLine
 10
-116.357132
 20
66.993946
 30
0.0
 11
-116.357132
 21
71.49393800000001
 31
0.0
  0
LINE
  5
2DB
330
4C
100
AcDbEntity
  8
1
  6
Continuous
 62
     7
100
AcDbLine
 10
-116.859777742053
 20
66.493953
 30
0.0
 11
-118.857131
 21
66.493953
 31
0.0
  0
LINE
  5
2DC
330
4C
100
AcDbEntity
  8
1
  6
Continuous
 62
     7
100
AcDbLine
 10
-108.357136
 20
71.49393800000001
 30
0.0
 11
-116.357132
 21
71.49393800000001
 31
0.0
  0
LINE
  5
2DD
330
4C
100
AcDbEntity
  8
1
  6
Continuous
 62
     7
100
AcDbLine
 10
-118.857131
 20
6.49394599999999
 30
0.0
 11
-116.857132
 21
6.49394599999999
 31
0.0
  0
LINE
  5
2DE
330
4C
100
AcDbEntity
  8
1
  6
Continuous
 62
     7
100
AcDbLine
 10
-118.85713
 20
6.627925
 30
0.0
 11
-118.85713
 21
36.4939435
 31
0.0
  0
LINE
  5
2DF
330
4C
100
AcDbEntity
  8
1
  6
Continuous
 62
     7
100
AcDbLine
 10
-114.857133
 20
46.90202154593899
 30
0.0
 11
-114.857133
 21
42.4939435
 31
0.0
  0
LINE
  5
2E0
330
4C
100
AcDbEntity
  8
1
  6
Continuous
 62
     7
100
AcDbLine
 10
-8.85713199999999
 20
71.4939435
 30
0.0
 11
-8.85713199999999
 21
1.49394349999999
 31
0.0
  0
LINE
  5
2E1
330
4C
100
AcDbEntity
  8
1
  6
Continuous
 62
     7
100
AcDbLine
 10
-8.85713199999999
 20
1.49394349999999
 30
0.0
 11
-6.35713199999999
 21
1.49394349999999
 31
0.0
  0
LINE
  5
2E2
330
4C
100
AcDbEntity
  8
1
  6
Continuous
 62
     7
100
AcDbLine
 10
-8.85713199999999
 20
71.4939435
 30
0.0
 11
-6.35713199999999
 21
71.4939435
 31
0.0
  0
ARC
  5
2E3
330
4C
100
AcDbEntity
  8
1
  6
Continuous
 62
     7
100
AcDbCircle
 10
94.066237
 20
36.493943
 30
0.0
 40
44.99999900000006
100
AcDbArc
 50
-141.0575603065721
 51
-135.0
  0
ARC
  5
2E4
330
4C
100
AcDbEntity
  8
1
  6
Continuous
 62
     7
100
AcDbCircle
 10
94.066237
 20
36.493943
 30
0.0
 40
44.99999899999999
100
AcDbArc
 50
38.94243999999996
 51
44.99999999999991
  0
ARC
  5
2E5
330
4C
100
AcDbEntity
  8
1
  6
Continuous
 62
     7
100
AcDbCircle
 10
94.066237
 20
36.493943
 30
0.0
 40
44.99999900000006
100
AcDbArc
 50
-135.0
 51
-128.9424498219859
  0
ARC
  5
2E6
330
4C
100
AcDbEntity
  8
1
  6
Continuous
 62
     7
100
AcDbCircle
 10
94.066237
 20
36.493943
 30
0.0
 40
44.99999899999995
100
AcDbArc
 50
-51.05755017801431
 51
-38.94243969342774
  0
ARC
  5
2E7
330
4C
100
AcDbEntity
  8
1
  6
Continuous
 62
     7
100
AcDbCircle
 10
94.066237
 20
36.493943
 30
0.0
 40
44.999999
100
AcDbArc
 50
44.99999999999991
 51
51.13666916179057
  0
ARC
  5
2E8
330
4C
100
AcDbEntity
  8
1
  6
Continuous
 62
     7
100
AcDbCircle
 10
94.066237
 20
36.493943
 30
0.0
 40
44.99999900000001
100
AcDbArc
 50
128.8633308382094
 51
141.0575599999999
  0
ARC
  5
2E9
330
4C
100
AcDbEntity
  8
1
  6
Continuous
 62
     7
100
AcDbCircle
 10
-116.857132
 20
66.993946
 30
0.0
 40
0.4999999999999997
100
AcDbArc
 50
-89.69681887853153
 51
0.0
  0
ARC
  5
2EA
330
4C
100
AcDbEntity
  8
1
  6
Continuous
 62
     7
100
AcDbCircle
 10
-116.857132
 20
66.993946
 30
0.0
 40
0.5000000000000002
100
AcDbArc
 50
-90.30318112148149
 51
-89.69681887853153
  0
CIRCLE
  5
2EB
330
4C
100
AcDbEntity
  8
1
  6
Continuous
 62
     7
100
AcDbCircle
 10
67.54973270550447
 20
9.97743870550446
 30
0.0
 40
2.75
  0
CIRCLE
  5
2EC
330
4C
100
AcDbEntity
  8
1
  6
Continuous
 62
     7
100
AcDbCircle
 10
120.5827412944955
 20
9.97743870550447
 30
0.0
 40
2.75
  0
CIRCLE
  5
2ED
330
4C
100
AcDbEntity
  8
1
  6
Continuous
 62
     7
100
AcDbCircle
 10
120.5827412944955
 20
63.01044729449554
 30
0.0
 40
2.75
  0
CIRCLE
  5
2EE
330
4C
100
AcDbEntity
  8
1
  6
Continuous
 62
     7
100
AcDbCircle
 10
67.54973270550447
 20
63.01044729449553
 30
0.0
 40
2.75
  0
CIRCLE
  5
2EF
330
4C
100
AcDbEntity
  8
1
  6
Continuous
 62
     7
100
AcDbCircle
 10
94.066237
 20
36.493943
 30
0.0
 40
10.5
  0
CIRCLE
  5
2F0
330
4C
100
AcDbEntity
  8
1
  6
Continuous
 62
     7
100
AcDbCircle
 10
94.066237
 20
36.493943
 30
0.0
 40
12.211592
  0
CIRCLE
  5
2F1
330
4C
100
AcDbEntity
  8
1
  6
Continuous
 62
     7
100
AcDbCircle
 10
94.066237
 20
36.493943
 30
0.0
 40
29.866024
  0
CIRCLE
  5
2F2
330
4C
100
AcDbEntity
  8
1
  6
Continuous
 62
     7
100
AcDbCircle
 10
94.066237
 20
36.493943
 30
0.0
 40
27.99999800000001
  0
CIRCLE
  5
2F3
330
4C
100
AcDbEntity
  8
1
  6
DOT_CENTER
 62
     2
100
AcDbCircle
 10
94.066237
 20
36.493943
 30
0.0
 40
37.5
  0
SPLINE
  5
2F4
330
4C
100
AcDbEntity
  8
1
  6
Continuous
 62
     2
100
AcDbSpline
210
0.0
220
0.0
230
1.0
 70
     8
 71
     3
 72
    11
 73
     7
 74
     5
 42
0.0000000001
 43
0.0000000001
 44
0.00000001
 40
0.0
 40
0.0
 40
0.0
 40
0.0
 40
0.5660826257091944
 40
1.1415479964413
 40
1.501566786609831
 40
1.860002953250371
 40
1.860002953250371
 40
1.860002953250371
 40
1.860002953250371
 10
-116.357132
 20
47.98973931141589
 30
0.0
 10
-116.1903697754933
 20
47.90091202064531
 30
0.0
 10
-115.854081264555
 20
47.72178513844958
 30
0.0
 10
-115.4510899111702
 20
47.42276374937545
 30
0.0
 10
-115.1158526650865
 20
47.15113231001396
 30
0.0
 10
-114.9432461482749
 20
46.98493643436264
 30
0.0
 10
-114.8571330000019
 20
46.90202154594081
 30
0.0
 11
-116.357132
 21
47.98973931141589
 31
0.0
 11
-115.864202675686
 21
47.71140458422374
 31
0.0
 11
-115.3965583379484
 21
47.37604035492393
 31
0.0
 11
-115.118841413094
 21
47.14694029179903
 31
0.0
 11
-114.8571330000019
 21
46.90202154594081
 31
0.0
  0
SPLINE
  5
2F5
330
4C
100
AcDbEntity
  8
1
  6
Continuous
 62
     2
100
AcDbSpline
210
0.0
220
0.0
230
1.0
 70
     8
 71
     3
 72
     9
 73
     5
 74
     3
 42
0.0000000001
 43
0.0000000001
 44
0.00000001
 40
0.0
 40
0.0
 40
0.0
 40
0.0
 40
3.087314551601346
 40
6.011377124327788
 40
6.011377124327788
 40
6.011377124327788
 40
6.011377124327788
 10
-112.9855962687745
 20
42.4939435
 30
0.0
 10
-113.0960376570776
 20
41.46857595449463
 30
0.0
 10
-113.3110804796109
 20
39.47206056739807
 30
0.0
 10
-113.180581021787
 20
37.46851229003362
 30
0.0
 10
-113.1171032907294
 20
36.4939435
 30
0.0
 11
-112.9855962687745
 21
42.4939435
 31
0.0
 11
-113.2257791783284
 21
39.41598584751554
 31
0.0
 11
-113.1171032907294
 21
36.4939435
 31
0.0
  0
SPLINE
  5
2F6
330
4C
100
AcDbEntity
  8
1
  6
Continuous
 62
     2
100
AcDbSpline
210
0.0
220
0.0
230
1.0
 70
     8
 71
     3
 72
    15
 73
    11
 74
     9
 42
0.0000000001
 43
0.0000000001
 44
0.00000001
 40
0.0
 40
0.0
 40
0.0
 40
0.0
 40
0.3744230958765738
 40
0.7453219642472036
 40
1.668109090993612
 40
2.610543271546294
 40
3.205543282380582
 40
3.79250647975014
 40
4.322067584990486
 40
4.84623374876962
 40
4.84623374876962
 40
4.84623374876962
 40
4.84623374876962
 10
-114.8571330000019
 20
46.90202154594081
 30
0.0
 10
-114.7713900541277
 20
46.81120558589937
 30
0.0
 10
-114.6007112110139
 20
46.63042846379204
 30
0.0
 10
-114.2732009371105
 20
46.17874552359302
 30
0.0
 10
-113.9767701674745
 20
45.48495700371826
 30
0.0
 10
-113.793566208896
 20
44.68458438094306
 30
0.0
 10
-113.6609065139642
 20
43.98979394471918
 30
0.0
 10
-113.4964244271001
 20
43.43873939019827
 30
0.0
 10
-113.2158227953025
 20
42.96670258959408
 30
0.0
 10
-113.0620760567639
 20
42.65099106305672
 30
0.0
 10
-112.9855962687745
 20
42.4939435
 30
0.0
 11
-114.8571330000019
 21
46.90202154594081
 31
0.0
 11
-114.6060481379562
 21
46.62426437361702
 31
0.0
 11
-114.3883378362939
 21
46.32398417928393
 31
0.0
 11
-114.0058985069179
 21
45.48417691530287
 31
0.0
 11
-113.7746384005041
 21
44.57055721988498
 31
0.0
 11
-113.6503236411196
 21
43.98868880392483
 31
0.0
 11
-113.4677886826093
 21
43.43082969627496
 31
0.0
 11
-113.2215851988683
 21
42.96198131057102
 31
0.0
 11
-112.9855962687745
 21
42.4939435
 31
0.0
  0
SPLINE
  5
2F7
330
4C
100
AcDbEntity
  8
1
  6
Continuous
 62
     2
100
AcDbSpline
210
0.0
220
0.0
230
1.0
 70
     8
 71
     3
 72
     9
 73
     5
 74
     3
 42
0.0000000001
 43
0.0000000001
 44
0.00000001
 40
0.0
 40
0.0
 40
0.0
 40
0.0
 40
1.357293849015648
 40
2.573223940348726
 40
2.573223940348726
 40
2.573223940348726
 40
2.573223940348726
 10
-118.857133
 20
47.989739790713
 30
0.0
 10
-118.415456100171
 20
48.14776355374643
 30
0.0
 10
-117.5781034713623
 20
48.44735271822726
 30
0.0
 10
-116.7489387041549
 20
48.13658631390958
 30
0.0
 10
-116.357132
 20
47.98973931141589
 30
0.0
 11
-118.857133
 21
47.989739790713
 31
0.0
 11
-117.5343803496558
 21
48.29399629201272
 31
0.0
 11
-116.357132
 21
47.98973931141589
 31
0.0
  0
XLINE
  5
2F8
330
4C
100
AcDbEntity
  8
1
  6
DOT_CENTER
 62
     3
 60
     1
100
AcDbXline
 10
-105.357132
 20
1.49394799999999
 30
0.0
 11
0.0
 21
1.0
 31
0.0
  0
XLINE
  5
2F9
330
4C
100
AcDbEntity
  8
1
  6
DOT_CENTER
 62
     3
 60
     1
100
AcDbXline
 10
-105.357132
 20
71.49393800000001
 30
0.0
 11
0.0
 21
1.0
 31
0.0
  0
ARC
  5
2FA
330
4C
100
AcDbEntity
  8
1
  6
Continuous
 62
     7
100
AcDbCircle
 10
-116.857132
 20
5.99394599999999
 30
0.0
 40
0.5
100
AcDbArc
 50
0.0
 51
90.0
  0
ENDBLK
  5
4E
330
4C
100
AcDbEntity
  8
0
100
AcDbBlockEnd
  0
BLOCK
  5
50
330
4F
100
AcDbEntity
  8
0
100
AcDbBlockBegin
  2
tb_frame_A3
 70
     0
 71
     0
 10
0.0
 20
0.0
 30
0.0
  3
tb_frame_A3
  1

  0
POINT
  5
2FB
330
4F
100
AcDbEntity
  8
1
 62
   250
100
AcDbPoint
 10
205.0
 20
-142.5
 30
0.0
  0
LINE
  5
2FC
102
{ACAD_REACTORS
330
3FE
330
3FE
102
}
330
4F
100
AcDbEntity
  8
1
  6
Continuous
 62
     2
100
AcDbLine
 10
145.8516542509982
 20
-115.0199999999999
 30
0.0
 11
145.8516542509982
 21
-118.30758746051
 31
0.0
  0
LINE
  5
2FD
102
{ACAD_REACTORS
330
3FE
330
3FE
102
}
330
4F
100
AcDbEntity
  8
1
  6
Continuous
 62
     2
100
AcDbLine
 10
145.8516542509982
 20
-115.0199999999999
 30
0.0
 11
147.1516542509982
 21
-115.0199999999999
 31
0.0
  0
LINE
  5
2FE
102
{ACAD_REACTORS
330
3FE
330
3FE
102
}
330
4F
100
AcDbEntity
  8
1
  6
Continuous
 62
     2
100
AcDbLine
 10
147.1516542509982
 20
-113.9199999999999
 30
0.0
 11
147.1516542509982
 21
-115.0199999999999
 31
0.0
  0
LINE
  5
2FF
102
{ACAD_REACTORS
330
3FE
330
3FE
102
}
330
4F
100
AcDbEntity
  8
1
  6
Continuous
 62
     2
100
AcDbLine
 10
145.8516542509982
 20
-113.9199999999999
 30
0.0
 11
147.1516542509982
 21
-113.9199999999999
 31
0.0
  0
LINE
  5
300
102
{ACAD_REACTORS
330
3FE
330
3FE
102
}
330
4F
100
AcDbEntity
  8
1
  6
Continuous
 62
     2
100
AcDbLine
 10
145.8516542509982
 20
-118.30758746051
 30
0.0
 11
147.1516542509982
 21
-118.30758746051
 31
0.0
  0
LINE
  5
301
102
{ACAD_REACTORS
330
3FE
330
3FE
102
}
330
4F
100
AcDbEntity
  8
1
  6
Continuous
 62
     2
100
AcDbLine
 10
145.8516542509982
 20
-111.3199999999999
 30
0.0
 11
145.8516542509982
 21
-113.9199999999999
 31
0.0
  0
LINE
  5
302
102
{ACAD_REACTORS
330
408
330
408
102
}
330
4F
100
AcDbEntity
  8
1
  6
Continuous
 62
     2
100
AcDbLine
 10
141.9927287849846
 20
-115.9199999999999
 30
0.0
 11
142.5516542509982
 21
-115.9199999999999
 31
0.0
  0
LINE
  5
303
330
4F
100
AcDbEntity
  8
1
  6
Continuous
 62
     2
100
AcDbLine
 10
141.9927287849846
 20
-115.9199999999999
 30
0.0
 11
142.2516542509982
 21
-115.9199999999999
 31
0.0
  0
LINE
  5
304
102
{ACAD_REACTORS
330
408
330
408
102
}
330
4F
100
AcDbEntity
  8
1
  6
Continuous
 62
     2
100
AcDbLine
 10
141.9927287849846
 20
-114.7199999999999
 30
0.0
 11
143.7516542509982
 21
-114.7199999999999
 31
0.0
  0
LINE
  5
305
102
{ACAD_REACTORS
330
408
330
408
102
}
330
4F
100
AcDbEntity
  8
1
  6
Continuous
 62
     2
100
AcDbLine
 10
141.9927287849846
 20
-114.7199999999999
 30
0.0
 11
141.9927287849846
 21
-115.9199999999999
 31
0.0
  0
LINE
  5
306
102
{ACAD_REACTORS
330
408
330
408
102
}
330
4F
100
AcDbEntity
  8
1
  6
Continuous
 62
     2
100
AcDbLine
 10
143.7516542509982
 20
-119.4199999999999
 30
0.0
 11
143.2516542509982
 21
-119.4199999999999
 31
0.0
  0
LINE
  5
307
102
{ACAD_REACTORS
330
408
330
408
102
}
330
4F
100
AcDbEntity
  8
1
  6
Continuous
 62
     2
100
AcDbLine
 10
143.7516542509982
 20
-111.2199999999999
 30
0.0
 11
143.7516542509982
 21
-113.3199999999999
 31
0.0
  0
LINE
  5
308
102
{ACAD_REACTORS
330
3FE
330
3FE
102
}
330
4F
100
AcDbEntity
  8
1
  6
Continuous
 62
     2
100
AcDbLine
 10
147.1516542509982
 20
-110.2199999999999
 30
0.0
 11
144.5516542509982
 21
-110.2199999999999
 31
0.0
  0
LINE
  5
309
102
{ACAD_REACTORS
330
3FE
330
3FE
102
}
330
4F
100
AcDbEntity
  8
1
  6
Continuous
 62
     2
100
AcDbLine
 10
144.5516542509982
 20
-110.2199999999999
 30
0.0
 11
144.5516542509982
 21
-119.4199999999999
 31
0.0
  0
LINE
  5
30A
102
{ACAD_REACTORS
330
3FE
330
3FE
102
}
330
4F
100
AcDbEntity
  8
1
  6
Continuous
 62
     2
100
AcDbLine
 10
144.5516542509982
 20
-119.4199999999999
 30
0.0
 11
147.1516542509982
 21
-119.4199999999999
 31
0.0
  0
LINE
  5
30B
102
{ACAD_REACTORS
330
3FE
330
3FE
102
}
330
4F
100
AcDbEntity
  8
1
  6
Continuous
 62
     2
100
AcDbLine
 10
147.1516542509982
 20
-119.4199999999999
 30
0.0
 11
147.1516542509982
 21
-118.30758746051
 31
0.0
  0
LINE
  5
30C
102
{ACAD_REACTORS
330
408
330
408
102
}
330
4F
100
AcDbEntity
  8
1
  6
Continuous
 62
     2
100
AcDbLine
 10
143.7516542509982
 20
-114.7199999999999
 30
0.0
 11
143.7516542509982
 21
-119.4199999999999
 31
0.0
  0
LINE
  5
30D
102
{ACAD_REACTORS
330
408
330
408
102
}
330
4F
100
AcDbEntity
  8
1
  6
Continuous
 62
     2
100
AcDbLine
 10
143.2516542509982
 20
-119.4199999999999
 30
0.0
 11
142.9048783308657
 21
-118.8199999999999
 31
0.0
  0
LINE
  5
30E
102
{ACAD_REACTORS
330
408
330
408
102
}
330
4F
100
AcDbEntity
  8
1
  6
Continuous
 62
     2
100
AcDbLine
 10
141.0516542509982
 20
-119.4199999999999
 30
0.0
 11
141.9016542509982
 21
-119.4199999999999
 31
0.0
  0
LINE
  5
30F
102
{ACAD_REACTORS
330
401
330
401
102
}
330
4F
100
AcDbEntity
  8
1
  6
Continuous
 62
     2
100
AcDbLine
 10
148.9516542509982
 20
-110.2199999999999
 30
0.0
 11
150.6516542509982
 21
-110.2199999999999
 31
0.0
  0
LINE
  5
310
102
{ACAD_REACTORS
330
401
330
401
102
}
330
4F
100
AcDbEntity
  8
1
  6
Continuous
 62
     2
100
AcDbLine
 10
150.6516542509982
 20
-119.4199999999999
 30
0.0
 11
148.9516542509982
 21
-119.4199999999999
 31
0.0
  0
LINE
  5
311
102
{ACAD_REACTORS
330
401
330
401
102
}
330
4F
100
AcDbEntity
  8
1
  6
Continuous
 62
     2
100
AcDbLine
 10
147.9516542509982
 20
-111.2199999999999
 30
0.0
 11
147.9516542509982
 21
-118.4199999999999
 31
0.0
  0
LINE
  5
312
102
{ACAD_REACTORS
330
401
330
401
102
}
330
4F
100
AcDbEntity
  8
1
  6
Continuous
 62
     2
100
AcDbLine
 10
151.6516542509982
 20
-111.2199999999999
 30
0.0
 11
151.6516542509982
 21
-118.4199999999999
 31
0.0
  0
LINE
  5
313
102
{ACAD_REACTORS
330
406
330
406
102
}
330
4F
100
AcDbEntity
  8
1
  6
Continuous
 62
     2
100
AcDbLine
 10
152.4516542509982
 20
-110.2199999999999
 30
0.0
 11
152.4516542509982
 21
-119.4199999999999
 31
0.0
  0
LINE
  5
314
102
{ACAD_REACTORS
330
406
330
406
102
}
330
4F
100
AcDbEntity
  8
1
  6
Continuous
 62
     2
100
AcDbLine
 10
152.4516542509982
 20
-110.2199999999999
 30
0.0
 11
155.1516542509982
 21
-110.2199999999999
 31
0.0
  0
LINE
  5
315
102
{ACAD_REACTORS
330
406
330
406
102
}
330
4F
100
AcDbEntity
  8
1
  6
Continuous
 62
     2
100
AcDbLine
 10
156.1516542509982
 20
-114.0043621302671
 30
0.0
 11
156.1516542509982
 21
-111.2199999999999
 31
0.0
  0
LINE
  5
316
102
{ACAD_REACTORS
330
406
330
406
102
}
330
4F
100
AcDbEntity
  8
1
  6
Continuous
 62
     2
100
AcDbLine
 10
156.1516542509982
 20
-115.6603414185126
 30
0.0
 11
156.1516542509982
 21
-119.4199999999999
 31
0.0
  0
LINE
  5
317
102
{ACAD_REACTORS
330
407
330
407
102
}
330
4F
100
AcDbEntity
  8
1
  6
Continuous
 62
     2
100
AcDbLine
 10
157.9516542509982
 20
-110.2199999999999
 30
0.0
 11
159.6516542509982
 21
-110.2199999999999
 31
0.0
  0
LINE
  5
318
102
{ACAD_REACTORS
330
407
330
407
102
}
330
4F
100
AcDbEntity
  8
1
  6
Continuous
 62
     2
100
AcDbLine
 10
160.6516542509982
 20
-119.4199999999999
 30
0.0
 11
160.6516542509982
 21
-114.7199999999999
 31
0.0
  0
LINE
  5
319
102
{ACAD_REACTORS
330
407
330
407
102
}
330
4F
100
AcDbEntity
  8
1
  6
Continuous
 62
     2
100
AcDbLine
 10
160.6516542509982
 20
-113.3199999999999
 30
0.0
 11
159.4516542509982
 21
-113.3199999999999
 31
0.0
  0
LINE
  5
31A
102
{ACAD_REACTORS
330
407
330
407
102
}
330
4F
100
AcDbEntity
  8
1
  6
Continuous
 62
     2
100
AcDbLine
 10
160.6516542509982
 20
-113.3199999999999
 30
0.0
 11
160.6516542509983
 21
-111.2199999999999
 31
0.0
  0
LINE
  5
31B
102
{ACAD_REACTORS
330
400
330
400
102
}
330
4F
100
AcDbEntity
  8
1
  6
Continuous
 62
     2
100
AcDbLine
 10
168.6516542509982
 20
-110.2199999999999
 30
0.0
 11
169.8516542509982
 21
-110.2199999999999
 31
0.0
  0
LINE
  5
31C
102
{ACAD_REACTORS
330
400
330
400
102
}
330
4F
100
AcDbEntity
  8
1
  6
Continuous
 62
     2
100
AcDbLine
 10
168.6516542509982
 20
-119.4199999999999
 30
0.0
 11
169.8516542509982
 21
-119.4199999999999
 31
0.0
  0
LINE
  5
31D
102
{ACAD_REACTORS
330
400
330
400
102
}
330
4F
100
AcDbEntity
  8
1
  6
Continuous
 62
     2
100
AcDbLine
 10
168.6516542509982
 20
-119.4199999999999
 30
0.0
 11
168.6516542509982
 21
-110.2199999999999
 31
0.0
  0
LINE
  5
31E
330
4F
100
AcDbEntity
  8
1
  6
Continuous
 62
     2
100
AcDbLine
 10
168.6516542509982
 20
-119.4199999999999
 30
0.0
 11
169.8516542509982
 21
-119.4199999999999
 31
0.0
  0
LINE
  5
31F
102
{ACAD_REACTORS
330
404
330
404
102
}
330
4F
100
AcDbEntity
  8
1
  6
Continuous
 62
     2
100
AcDbLine
 10
174.1516542509982
 20
-110.2199999999999
 30
0.0
 11
175.8516542509982
 21
-110.2199999999999
 31
0.0
  0
LINE
  5
320
102
{ACAD_REACTORS
330
404
330
404
102
}
330
4F
100
AcDbEntity
  8
1
  6
Continuous
 62
     2
100
AcDbLine
 10
174.1516542509982
 20
-119.4199999999999
 30
0.0
 11
175.8516542509982
 21
-119.4199999999999
 31
0.0
  0
LINE
  5
321
102
{ACAD_REACTORS
330
403
330
403
102
}
330
4F
100
AcDbEntity
  8
1
  6
Continuous
 62
     2
100
AcDbLine
 10
177.6516542509982
 20
-110.2199999999999
 30
0.0
 11
177.6516542509982
 21
-119.4199999999999
 31
0.0
  0
LINE
  5
322
102
{ACAD_REACTORS
330
403
330
403
102
}
330
4F
100
AcDbEntity
  8
1
  6
Continuous
 62
     2
100
AcDbLine
 10
180.3516542509982
 20
-110.2199999999999
 30
0.0
 11
177.6516542509982
 21
-110.2199999999999
 31
0.0
  0
LINE
  5
323
102
{ACAD_REACTORS
330
403
330
403
102
}
330
4F
100
AcDbEntity
  8
1
  6
Continuous
 62
     2
100
AcDbLine
 10
177.6516542509982
 20
-119.4199999999999
 30
0.0
 11
180.3516542509982
 21
-119.4199999999999
 31
0.0
  0
LINE
  5
324
102
{ACAD_REACTORS
330
402
330
402
102
}
330
4F
100
AcDbEntity
  8
1
  6
Continuous
 62
     2
100
AcDbLine
 10
182.1516542509982
 20
-111.2199999999999
 30
0.0
 11
182.1516542509982
 21
-118.4199999999999
 31
0.0
  0
LINE
  5
325
102
{ACAD_REACTORS
330
402
330
402
102
}
330
4F
100
AcDbEntity
  8
1
  6
Continuous
 62
     2
100
AcDbLine
 10
183.1516542509982
 20
-119.4199999999999
 30
0.0
 11
184.8516542509982
 21
-119.4199999999999
 31
0.0
  0
LINE
  5
326
102
{ACAD_REACTORS
330
402
330
402
102
}
330
4F
100
AcDbEntity
  8
1
  6
Continuous
 62
     2
100
AcDbLine
 10
185.8516542509982
 20
-111.2199999999999
 30
0.0
 11
185.8516542509982
 21
-118.4199999999999
 31
0.0
  0
LINE
  5
327
102
{ACAD_REACTORS
330
402
330
402
102
}
330
4F
100
AcDbEntity
  8
1
  6
Continuous
 62
     2
100
AcDbLine
 10
183.1516542509982
 20
-110.2199999999999
 30
0.0
 11
184.8516542509982
 21
-110.2199999999999
 31
0.0
  0
LINE
  5
328
102
{ACAD_REACTORS
330
3FF
330
3FF
102
}
330
4F
100
AcDbEntity
  8
1
  6
Continuous
 62
     2
100
AcDbLine
 10
186.6516542509982
 20
-110.2199999999999
 30
0.0
 11
186.6516542509982
 21
-119.4199999999999
 31
0.0
  0
LINE
  5
329
102
{ACAD_REACTORS
330
3FF
330
3FF
102
}
330
4F
100
AcDbEntity
  8
1
  6
Continuous
 62
     2
100
AcDbLine
 10
186.6516542509982
 20
-119.4199999999999
 30
0.0
 11
189.2516542509982
 21
-119.4199999999999
 31
0.0
  0
LINE
  5
32A
102
{ACAD_REACTORS
330
3FF
330
3FF
102
}
330
4F
100
AcDbEntity
  8
1
  6
Continuous
 62
     2
100
AcDbLine
 10
189.2516542509982
 20
-119.4199999999999
 30
0.0
 11
189.2516542509982
 21
-118.30758746051
 31
0.0
  0
LINE
  5
32B
102
{ACAD_REACTORS
330
3FF
330
3FF
102
}
330
4F
100
AcDbEntity
  8
1
  6
Continuous
 62
     2
100
AcDbLine
 10
186.6516542509982
 20
-110.2199999999999
 30
0.0
 11
187.8516542509982
 21
-110.2199999999999
 31
0.0
  0
LINE
  5
32C
102
{ACAD_REACTORS
330
405
330
405
102
}
330
4F
100
AcDbEntity
  8
1
  6
Continuous
 62
     2
100
AcDbLine
 10
190.0516542509982
 20
-119.4199999999999
 30
0.0
 11
190.0516542509982
 21
-110.2199999999999
 31
0.0
  0
LINE
  5
32D
102
{ACAD_REACTORS
330
405
330
405
102
}
330
4F
100
AcDbEntity
  8
1
  6
Continuous
 62
     2
100
AcDbLine
 10
190.0516542509982
 20
-110.2199999999999
 30
0.0
 11
192.7516542509982
 21
-110.2199999999999
 31
0.0
  0
LINE
  5
32E
102
{ACAD_REACTORS
330
404
330
404
102
}
330
4F
100
AcDbEntity
  8
1
  6
Continuous
 62
     2
100
AcDbLine
 10
176.8516542509982
 20
-111.2199999999999
 30
0.0
 11
176.8516542509982
 21
-118.4199999999999
 31
0.0
  0
LINE
  5
32F
102
{ACAD_REACTORS
330
405
330
405
102
}
330
4F
100
AcDbEntity
  8
1
  6
Continuous
 62
     2
100
AcDbLine
 10
192.7516542509982
 20
-119.4199999999999
 30
0.0
 11
190.0516542509982
 21
-119.4199999999999
 31
0.0
  0
LINE
  5
330
102
{ACAD_REACTORS
330
405
330
405
102
}
330
4F
100
AcDbEntity
  8
1
  6
Continuous
 62
     2
100
AcDbLine
 10
193.7516542509982
 20
-111.2199999999999
 30
0.0
 11
193.7516542509982
 21
-118.4199999999999
 31
0.0
  0
LINE
  5
331
102
{ACAD_REACTORS
330
407
330
407
102
}
330
4F
100
AcDbEntity
  8
1
  6
Continuous
 62
     2
100
AcDbLine
 10
157.9516542509982
 20
-119.4199999999999
 30
0.0
 11
158.8173222162131
 21
-119.4199999999999
 31
0.0
  0
LINE
  5
332
102
{ACAD_REACTORS
330
407
330
407
102
}
330
4F
100
AcDbEntity
  8
1
  6
Continuous
 62
     2
100
AcDbLine
 10
156.9516542509982
 20
-118.4199999999999
 30
0.0
 11
156.9516542509982
 21
-111.2199999999999
 31
0.0
  0
LINE
  5
333
102
{ACAD_REACTORS
330
408
330
408
102
}
330
4F
100
AcDbEntity
  8
1
  6
Continuous
 62
     2
100
AcDbLine
 10
140.0516542509982
 20
-111.2199999999999
 30
0.0
 11
140.0516542509982
 21
-118.4199999999999
 31
0.0
  0
LINE
  5
334
102
{ACAD_REACTORS
330
408
330
408
102
}
330
4F
100
AcDbEntity
  8
1
  6
Continuous
 62
     2
100
AcDbLine
 10
141.0516542509982
 20
-110.2199999999999
 30
0.0
 11
142.7516542509982
 21
-110.2199999999999
 31
0.0
  0
LINE
  5
335
102
{ACAD_REACTORS
330
407
330
407
102
}
330
4F
100
AcDbEntity
  8
1
  6
Continuous
 62
     2
100
AcDbLine
 10
160.6516542509982
 20
-119.4199999999999
 30
0.0
 11
160.1516542509982
 21
-119.4199999999999
 31
0.0
  0
LINE
  5
336
102
{ACAD_REACTORS
330
407
330
407
102
}
330
4F
100
AcDbEntity
  8
1
  6
Continuous
 62
     2
100
AcDbLine
 10
160.1516542509982
 20
-119.4199999999999
 30
0.0
 11
159.8046153744343
 21
-118.8199999999999
 31
0.0
  0
LINE
  5
337
102
{ACAD_REACTORS
330
407
330
407
102
}
330
4F
100
AcDbEntity
  8
1
  6
Continuous
 62
     2
100
AcDbLine
 10
159.4516542509982
 20
-113.3199999999999
 30
0.0
 11
159.4516542509982
 21
-111.9699999999999
 31
0.0
  0
LINE
  5
338
102
{ACAD_REACTORS
330
407
330
407
102
}
330
4F
100
AcDbEntity
  8
1
  6
Continuous
 62
     2
100
AcDbLine
 10
158.1516542509982
 20
-111.9699999999999
 30
0.0
 11
158.1516542509982
 21
-117.65758746051
 31
0.0
  0
LINE
  5
339
102
{ACAD_REACTORS
330
407
330
407
102
}
330
4F
100
AcDbEntity
  8
1
  6
Continuous
 62
     2
100
AcDbLine
 10
159.4516542509982
 20
-117.65758746051
 30
0.0
 11
159.4516542509982
 21
-115.9199999999999
 31
0.0
  0
LINE
  5
33A
102
{ACAD_REACTORS
330
406
330
406
102
}
330
4F
100
AcDbEntity
  8
1
  6
Continuous
 62
     2
100
AcDbLine
 10
154.9516542509982
 20
-113.5699999999999
 30
0.0
 11
154.9516542509982
 21
-111.9699999999999
 31
0.0
  0
LINE
  5
33B
102
{ACAD_REACTORS
330
406
330
406
102
}
330
4F
100
AcDbEntity
  8
1
  6
Continuous
 62
     2
100
AcDbLine
 10
154.9516542509982
 20
-116.0699999999999
 30
0.0
 11
154.9516542509982
 21
-119.4199999999999
 31
0.0
  0
LINE
  5
33C
102
{ACAD_REACTORS
330
406
330
406
102
}
330
4F
100
AcDbEntity
  8
1
  6
Continuous
 62
     2
100
AcDbLine
 10
154.9516542509982
 20
-119.4199999999999
 30
0.0
 11
156.1516542509982
 21
-119.4199999999999
 31
0.0
  0
LINE
  5
33D
102
{ACAD_REACTORS
330
406
330
406
102
}
330
4F
100
AcDbEntity
  8
1
  6
Continuous
 62
     2
100
AcDbLine
 10
153.6516542509982
 20
-119.4199999999999
 30
0.0
 11
152.4516542509982
 21
-119.4199999999999
 31
0.0
  0
LINE
  5
33E
102
{ACAD_REACTORS
330
3FC
330
3FC
102
}
330
4F
100
AcDbEntity
  8
1
  6
Continuous
 62
     2
100
AcDbLine
 10
161.4516542509982
 20
-110.2199999999999
 30
0.0
 11
162.6516542509982
 21
-110.2199999999999
 31
0.0
  0
LINE
  5
33F
102
{ACAD_REACTORS
330
3FD
330
3FD
102
}
330
4F
100
AcDbEntity
  8
1
  6
Continuous
 62
     2
100
AcDbLine
 10
163.4516542509982
 20
-110.2199999999999
 30
0.0
 11
164.6516542509982
 21
-110.2199999999999
 31
0.0
  0
LINE
  5
340
102
{ACAD_REACTORS
330
3FC
330
3FC
102
}
330
4F
100
AcDbEntity
  8
1
  6
Continuous
 62
     2
100
AcDbLine
 10
161.4516542509982
 20
-119.4199999999999
 30
0.0
 11
162.6516542509982
 21
-119.4199999999999
 31
0.0
  0
LINE
  5
341
102
{ACAD_REACTORS
330
3FD
330
3FD
102
}
330
4F
100
AcDbEntity
  8
1
  6
Continuous
 62
     2
100
AcDbLine
 10
164.6516542509982
 20
-119.4199999999999
 30
0.0
 11
164.6516542509982
 21
-110.2199999999999
 31
0.0
  0
LINE
  5
342
102
{ACAD_REACTORS
330
3FD
330
3FD
102
}
330
4F
100
AcDbEntity
  8
1
  6
Continuous
 62
     2
100
AcDbLine
 10
163.4516542509982
 20
-110.2199999999999
 30
0.0
 11
163.4516542509982
 21
-119.4199999999999
 31
0.0
  0
LINE
  5
343
102
{ACAD_REACTORS
330
3FC
330
3FC
102
}
330
4F
100
AcDbEntity
  8
1
  6
Continuous
 62
     2
100
AcDbLine
 10
162.6516542509982
 20
-119.4199999999999
 30
0.0
 11
162.6516542509982
 21
-110.2199999999999
 31
0.0
  0
LINE
  5
344
102
{ACAD_REACTORS
330
3FC
330
3FC
102
}
330
4F
100
AcDbEntity
  8
1
  6
Continuous
 62
     2
100
AcDbLine
 10
161.4516542509982
 20
-110.2199999999999
 30
0.0
 11
161.4516542509982
 21
-119.4199999999999
 31
0.0
  0
LINE
  5
345
102
{ACAD_REACTORS
330
407
330
407
102
}
330
4F
100
AcDbEntity
  8
1
  6
Continuous
 62
     2
100
AcDbLine
 10
158.9016542509982
 20
-114.7199999999999
 30
0.0
 11
159.7415058473918
 21
-114.7199999999999
 31
0.0
  0
LINE
  5
346
102
{ACAD_REACTORS
330
407
330
407
102
}
330
4F
100
AcDbEntity
  8
1
  6
Continuous
 62
     2
100
AcDbLine
 10
158.9016542509982
 20
-114.7199999999999
 30
0.0
 11
158.9016542509982
 21
-115.9199999999999
 31
0.0
  0
LINE
  5
347
102
{ACAD_REACTORS
330
407
330
407
102
}
330
4F
100
AcDbEntity
  8
1
  6
Continuous
 62
     2
100
AcDbLine
 10
158.9016542509982
 20
-115.9199999999999
 30
0.0
 11
159.4516542509982
 21
-115.9199999999999
 31
0.0
  0
LINE
  5
348
102
{ACAD_REACTORS
330
3FD
330
3FD
102
}
330
4F
100
AcDbEntity
  8
1
  6
Continuous
 62
     2
100
AcDbLine
 10
163.4516542509982
 20
-119.4199999999999
 30
0.0
 11
164.6516542509982
 21
-119.4199999999999
 31
0.0
  0
LINE
  5
349
102
{ACAD_REACTORS
330
3FE
330
3FE
102
}
330
4F
100
AcDbEntity
  8
1
  6
Continuous
 62
     2
100
AcDbLine
 10
145.8516542509982
 20
-111.3199999999999
 30
0.0
 11
147.1516542509982
 21
-111.3199999999999
 31
0.0
  0
LINE
  5
34A
102
{ACAD_REACTORS
330
3FE
330
3FE
102
}
330
4F
100
AcDbEntity
  8
1
  6
Continuous
 62
     2
100
AcDbLine
 10
147.1516542509982
 20
-111.3199999999999
 30
0.0
 11
147.1516542509982
 21
-110.2199999999999
 31
0.0
  0
LINE
  5
34B
102
{ACAD_REACTORS
330
401
330
401
102
}
330
4F
100
AcDbEntity
  8
1
  6
Continuous
 62
     2
100
AcDbLine
 10
150.4516542509982
 20
-111.9699999999999
 30
0.0
 11
150.4516542509982
 21
-117.65758746051
 31
0.0
  0
LINE
  5
34C
102
{ACAD_REACTORS
330
401
330
401
102
}
330
4F
100
AcDbEntity
  8
1
  6
Continuous
 62
     2
100
AcDbLine
 10
149.1516542509982
 20
-111.9699999999999
 30
0.0
 11
149.1516542509982
 21
-117.65758746051
 31
0.0
  0
LINE
  5
34D
102
{ACAD_REACTORS
330
408
330
408
102
}
330
4F
100
AcDbEntity
  8
1
  6
Continuous
 62
     2
100
AcDbLine
 10
142.5516542509982
 20
-117.65758746051
 30
0.0
 11
142.5516542509982
 21
-115.9199999999999
 31
0.0
  0
LINE
  5
34E
102
{ACAD_REACTORS
330
408
330
408
102
}
330
4F
100
AcDbEntity
  8
1
  6
Continuous
 62
     2
100
AcDbLine
 10
141.2516542509982
 20
-117.65758746051
 30
0.0
 11
141.2516542509982
 21
-111.9699999999999
 31
0.0
  0
LINE
  5
34F
102
{ACAD_REACTORS
330
408
330
408
102
}
330
4F
100
AcDbEntity
  8
1
  6
Continuous
 62
     2
100
AcDbLine
 10
142.5516542509982
 20
-111.9699999999999
 30
0.0
 11
142.5516542509982
 21
-113.3199999999999
 31
0.0
  0
LINE
  5
350
102
{ACAD_REACTORS
330
408
330
408
102
}
330
4F
100
AcDbEntity
  8
1
  6
Continuous
 62
     2
100
AcDbLine
 10
142.5516542509982
 20
-113.3199999999999
 30
0.0
 11
143.7516542509982
 21
-113.3199999999999
 31
0.0
  0
LINE
  5
351
102
{ACAD_REACTORS
330
406
330
406
102
}
330
4F
100
AcDbEntity
  8
1
  6
Continuous
 62
     2
100
AcDbLine
 10
153.6516542509982
 20
-111.3199999999999
 30
0.0
 11
154.3016542509982
 21
-111.3199999999999
 31
0.0
  0
LINE
  5
352
102
{ACAD_REACTORS
330
406
330
406
102
}
330
4F
100
AcDbEntity
  8
1
  6
Continuous
 62
     2
100
AcDbLine
 10
153.6516542509982
 20
-111.3199999999999
 30
0.0
 11
153.6516542509982
 21
-114.2199999999999
 31
0.0
  0
LINE
  5
353
102
{ACAD_REACTORS
330
406
330
406
102
}
330
4F
100
AcDbEntity
  8
1
  6
Continuous
 62
     2
100
AcDbLine
 10
153.6516542509982
 20
-114.2199999999999
 30
0.0
 11
154.3016542509982
 21
-114.2199999999999
 31
0.0
  0
LINE
  5
354
102
{ACAD_REACTORS
330
406
330
406
102
}
330
4F
100
AcDbEntity
  8
1
  6
Continuous
 62
     2
100
AcDbLine
 10
154.3016542509982
 20
-115.4199999999999
 30
0.0
 11
153.6516542509982
 21
-115.4199999999999
 31
0.0
  0
LINE
  5
355
102
{ACAD_REACTORS
330
406
330
406
102
}
330
4F
100
AcDbEntity
  8
1
  6
Continuous
 62
     2
100
AcDbLine
 10
153.6516542509982
 20
-115.4199999999999
 30
0.0
 11
153.6516542509982
 21
-119.4199999999999
 31
0.0
  0
LINE
  5
356
330
4F
100
AcDbEntity
  8
1
  6
Continuous
 62
     2
100
AcDbLine
 10
158.9016542509982
 20
-114.7199999999999
 30
0.0
 11
159.7415058473918
 21
-114.7199999999999
 31
0.0
  0
LINE
  5
357
102
{ACAD_REACTORS
330
407
330
407
102
}
330
4F
100
AcDbEntity
  8
1
  6
Continuous
 62
     2
100
AcDbLine
 10
159.7415058473918
 20
-114.7199999999999
 30
0.0
 11
160.6516542509982
 21
-114.7199999999999
 31
0.0
  0
LINE
  5
358
102
{ACAD_REACTORS
330
404
330
404
102
}
330
4F
100
AcDbEntity
  8
1
  6
Continuous
 62
     2
100
AcDbLine
 10
175.6516542509982
 20
-111.9699999999999
 30
0.0
 11
175.6516542509982
 21
-117.65758746051
 31
0.0
  0
LINE
  5
359
102
{ACAD_REACTORS
330
404
330
404
102
}
330
4F
100
AcDbEntity
  8
1
  6
Continuous
 62
     2
100
AcDbLine
 10
174.3516542509982
 20
-117.65758746051
 30
0.0
 11
174.3516542509982
 21
-111.9699999999999
 31
0.0
  0
LINE
  5
35A
102
{ACAD_REACTORS
330
403
330
403
102
}
330
4F
100
AcDbEntity
  8
1
  6
Continuous
 62
     2
100
AcDbLine
 10
178.8516542509982
 20
-111.3199999999999
 30
0.0
 11
179.5016542509982
 21
-111.3199999999999
 31
0.0
  0
LINE
  5
35B
102
{ACAD_REACTORS
330
403
330
403
102
}
330
4F
100
AcDbEntity
  8
1
  6
Continuous
 62
     2
100
AcDbLine
 10
180.1516542509982
 20
-111.9699999999999
 30
0.0
 11
180.1516542509982
 21
-113.2699999999999
 31
0.0
  0
LINE
  5
35C
102
{ACAD_REACTORS
330
403
330
403
102
}
330
4F
100
AcDbEntity
  8
1
  6
Continuous
 62
     2
100
AcDbLine
 10
179.5016542509982
 20
-113.9199999999999
 30
0.0
 11
178.8516542509982
 21
-113.9199999999999
 31
0.0
  0
LINE
  5
35D
102
{ACAD_REACTORS
330
403
330
403
102
}
330
4F
100
AcDbEntity
  8
1
  6
Continuous
 62
     2
100
AcDbLine
 10
178.8516542509982
 20
-115.0199999999999
 30
0.0
 11
178.8516542509982
 21
-118.30758746051
 31
0.0
  0
LINE
  5
35E
102
{ACAD_REACTORS
330
403
330
403
102
}
330
4F
100
AcDbEntity
  8
1
  6
Continuous
 62
     2
100
AcDbLine
 10
178.8516542509982
 20
-118.30758746051
 30
0.0
 11
179.5016542509982
 21
-118.30758746051
 31
0.0
  0
LINE
  5
35F
102
{ACAD_REACTORS
330
403
330
403
102
}
330
4F
100
AcDbEntity
  8
1
  6
Continuous
 62
     2
100
AcDbLine
 10
180.1516542509982
 20
-117.65758746051
 30
0.0
 11
180.1516542509982
 21
-115.6699999999999
 31
0.0
  0
LINE
  5
360
102
{ACAD_REACTORS
330
403
330
403
102
}
330
4F
100
AcDbEntity
  8
1
  6
Continuous
 62
     2
100
AcDbLine
 10
178.8516542509982
 20
-111.3199999999999
 30
0.0
 11
178.8516542509982
 21
-113.9199999999999
 31
0.0
  0
LINE
  5
361
102
{ACAD_REACTORS
330
403
330
403
102
}
330
4F
100
AcDbEntity
  8
1
  6
Continuous
 62
     2
100
AcDbLine
 10
178.8516542509982
 20
-115.0199999999999
 30
0.0
 11
179.5016542509982
 21
-115.0199999999999
 31
0.0
  0
LINE
  5
362
102
{ACAD_REACTORS
330
402
330
402
102
}
330
4F
100
AcDbEntity
  8
1
  6
Continuous
 62
     2
100
AcDbLine
 10
184.6516542509982
 20
-111.9699999999999
 30
0.0
 11
184.6516542509982
 21
-117.65758746051
 31
0.0
  0
LINE
  5
363
102
{ACAD_REACTORS
330
402
330
402
102
}
330
4F
100
AcDbEntity
  8
1
  6
Continuous
 62
     2
100
AcDbLine
 10
183.3516542509982
 20
-117.65758746051
 30
0.0
 11
183.3516542509982
 21
-111.9699999999999
 31
0.0
  0
LINE
  5
364
102
{ACAD_REACTORS
330
405
330
405
102
}
330
4F
100
AcDbEntity
  8
1
  6
Continuous
 62
     2
100
AcDbLine
 10
192.5516542509982
 20
-111.9699999999999
 30
0.0
 11
192.5516542509982
 21
-117.65758746051
 31
0.0
  0
LINE
  5
365
102
{ACAD_REACTORS
330
405
330
405
102
}
330
4F
100
AcDbEntity
  8
1
  6
Continuous
 62
     2
100
AcDbLine
 10
191.9016542509982
 20
-118.30758746051
 30
0.0
 11
191.2516542509982
 21
-118.30758746051
 31
0.0
  0
LINE
  5
366
102
{ACAD_REACTORS
330
405
330
405
102
}
330
4F
100
AcDbEntity
  8
1
  6
Continuous
 62
     2
100
AcDbLine
 10
191.2516542509982
 20
-118.30758746051
 30
0.0
 11
191.2516542509982
 21
-111.9699999999999
 31
0.0
  0
LINE
  5
367
102
{ACAD_REACTORS
330
3FF
330
3FF
102
}
330
4F
100
AcDbEntity
  8
1
  6
Continuous
 62
     2
100
AcDbLine
 10
187.8516542509982
 20
-110.2199999999999
 30
0.0
 11
187.8516542509982
 21
-118.30758746051
 31
0.0
  0
LINE
  5
368
102
{ACAD_REACTORS
330
3FF
330
3FF
102
}
330
4F
100
AcDbEntity
  8
1
  6
Continuous
 62
     2
100
AcDbLine
 10
187.8516542509982
 20
-118.30758746051
 30
0.0
 11
189.2516542509982
 21
-118.30758746051
 31
0.0
  0
LINE
  5
369
102
{ACAD_REACTORS
330
405
330
405
102
}
330
4F
100
AcDbEntity
  8
1
  6
Continuous
 62
     2
100
AcDbLine
 10
191.2516542509982
 20
-111.3199999999999
 30
0.0
 11
191.9016542509982
 21
-111.3199999999999
 31
0.0
  0
LINE
  5
36A
102
{ACAD_REACTORS
330
405
330
405
102
}
330
4F
100
AcDbEntity
  8
1
  6
Continuous
 62
     2
100
AcDbLine
 10
191.2516542509982
 20
-111.3199999999999
 30
0.0
 11
191.2516542509982
 21
-111.9699999999999
 31
0.0
  0
LINE
  5
36B
102
{ACAD_REACTORS
330
403
330
403
102
}
330
4F
100
AcDbEntity
  8
1
  6
Continuous
 62
     2
100
AcDbLine
 10
181.3516542509982
 20
-113.8199999999999
 30
0.0
 11
181.3516542509982
 21
-111.2199999999999
 31
0.0
  0
LINE
  5
36C
102
{ACAD_REACTORS
330
403
330
403
102
}
330
4F
100
AcDbEntity
  8
1
  6
Continuous
 62
     2
100
AcDbLine
 10
181.3516542509982
 20
-115.1199999999999
 30
0.0
 11
181.3516542509982
 21
-118.4199999999999
 31
0.0
  0
LINE
  5
36D
102
{ACAD_REACTORS
330
400
330
400
102
}
330
4F
100
AcDbEntity
  8
1
  6
Continuous
 62
     2
100
AcDbLine
 10
172.3516542509982
 20
-110.2199999999999
 30
0.0
 11
170.9200628688759
 21
-114.4699999999999
 31
0.0
  0
LINE
  5
36E
102
{ACAD_REACTORS
330
400
330
400
102
}
330
4F
100
AcDbEntity
  8
1
  6
Continuous
 62
     2
100
AcDbLine
 10
170.9200628688759
 20
-114.4699999999999
 30
0.0
 11
172.3516542509982
 21
-119.4199999999999
 31
0.0
  0
LINE
  5
36F
102
{ACAD_REACTORS
330
400
330
400
102
}
330
4F
100
AcDbEntity
  8
1
  6
Continuous
 62
     2
100
AcDbLine
 10
171.0854042804337
 20
-110.2199999999999
 30
0.0
 11
172.3516542509982
 21
-110.2199999999999
 31
0.0
  0
LINE
  5
370
102
{ACAD_REACTORS
330
400
330
400
102
}
330
4F
100
AcDbEntity
  8
1
  6
Continuous
 62
     2
100
AcDbLine
 10
171.1024763583806
 20
-119.4199999999999
 30
0.0
 11
172.3516542509982
 21
-119.4199999999999
 31
0.0
  0
LINE
  5
371
102
{ACAD_REACTORS
330
400
330
400
102
}
330
4F
100
AcDbEntity
  8
1
  6
Continuous
 62
     2
100
AcDbLine
 10
171.0854042804337
 20
-110.2199999999999
 30
0.0
 11
169.8516542509982
 21
-113.8826635858394
 31
0.0
  0
LINE
  5
372
102
{ACAD_REACTORS
330
400
330
400
102
}
330
4F
100
AcDbEntity
  8
1
  6
Continuous
 62
     2
100
AcDbLine
 10
169.8516542509982
 20
-115.0950442138285
 30
0.0
 11
171.1024763583806
 21
-119.4199999999999
 31
0.0
  0
LINE
  5
373
102
{ACAD_REACTORS
330
400
330
400
102
}
330
4F
100
AcDbEntity
  8
1
  6
Continuous
 62
     2
100
AcDbLine
 10
169.8516542509982
 20
-110.2199999999999
 30
0.0
 11
169.8516542509982
 21
-113.8826635858394
 31
0.0
  0
LINE
  5
374
102
{ACAD_REACTORS
330
400
330
400
102
}
330
4F
100
AcDbEntity
  8
1
  6
Continuous
 62
     2
100
AcDbLine
 10
169.8516542509982
 20
-115.0950442138285
 30
0.0
 11
169.8516542509982
 21
-119.4199999999999
 31
0.0
  0
LINE
  5
375
102
{ACAD_REACTORS
330
404
330
404
102
}
330
4F
100
AcDbEntity
  8
1
  6
Continuous
 62
     2
100
AcDbLine
 10
173.1516542509982
 20
-118.4199999999999
 30
0.0
 11
173.1516542509982
 21
-111.2199999999999
 31
0.0
  0
LINE
  5
376
330
4F
100
AcDbEntity
  8
1
  6
Continuous
 62
     2
100
AcDbLine
 10
55.13999999999851
 20
-108.6599999999999
 30
0.0
 11
55.13999999999851
 21
-125.5799999999999
 31
0.0
  0
LINE
  5
377
330
4F
100
AcDbEntity
  8
1
  6
Continuous
 62
     7
100
AcDbLine
 10
102.1300000000001
 20
-87.51000000000022
 30
0.0
 11
102.1300000000001
 21
-108.6599999999999
 31
0.0
  0
LINE
  5
378
330
4F
100
AcDbEntity
  8
1
  6
Continuous
 62
     2
100
AcDbLine
 10
67.83999999999912
 20
-87.51000000000022
 30
0.0
 11
67.83999999999912
 21
-108.6599999999999
 31
0.0
  0
LINE
  5
379
330
4F
100
AcDbEntity
  8
1
  6
Continuous
 62
     2
100
AcDbLine
 10
60.21999999999832
 20
-87.51000000000022
 30
0.0
 11
60.21999999999832
 21
-108.6599999999999
 31
0.0
  0
LINE
  5
37A
330
4F
100
AcDbEntity
  8
1
  6
Continuous
 62
     7
100
AcDbLine
 10
22.11999999999898
 20
-108.6599999999999
 30
0.0
 11
205.0
 21
-108.6599999999999
 31
0.0
  0
LINE
  5
37B
330
4F
100
AcDbEntity
  8
1
  6
Continuous
 62
     2
100
AcDbLine
 10
42.43999999999869
 20
-87.51000000000022
 30
0.0
 11
42.43999999999869
 21
-108.6599999999999
 31
0.0
  0
LINE
  5
37C
330
4F
100
AcDbEntity
  8
1
  6
Continuous
 62
     2
100
AcDbLine
 10
27.19999999999891
 20
-87.51000000000022
 30
0.0
 11
27.19999999999891
 21
-108.6599999999999
 31
0.0
  0
LINE
  5
37D
330
4F
100
AcDbEntity
  8
1
  6
Continuous
 62
     2
100
AcDbLine
 10
75.45999999999992
 20
-117.1200000000008
 30
0.0
 11
22.11999999999898
 21
-117.1200000000008
 31
0.0
  0
LINE
  5
37E
330
4F
100
AcDbEntity
  8
1
  6
Continuous
 62
     7
100
AcDbLine
 10
75.45999999999992
 20
-108.6599999999999
 30
0.0
 11
75.45999999999992
 21
-125.5799999999999
 31
0.0
  0
LINE
  5
37F
330
4F
100
AcDbEntity
  8
1
  6
Continuous
 62
     7
100
AcDbLine
 10
75.45999999999992
 20
-87.51000000000022
 30
0.0
 11
75.45999999999992
 21
-108.6599999999999
 31
0.0
  0
LINE
  5
380
330
4F
100
AcDbEntity
  8
1
  6
Continuous
 62
     7
100
AcDbLine
 10
22.11999999999898
 20
-87.51000000000022
 30
0.0
 11
205.0
 21
-87.51000000000022
 31
0.0
  0
LINE
  5
381
330
4F
100
AcDbEntity
  8
1
  6
Continuous
 62
     2
100
AcDbLine
 10
22.11999999999898
 20
-121.3500000000004
 30
0.0
 11
75.45999999999992
 21
-121.3500000000004
 31
0.0
  0
LINE
  5
382
330
4F
100
AcDbEntity
  8
1
  6
Continuous
 62
     2
100
AcDbLine
 10
22.11999999999898
 20
-112.8899999999994
 30
0.0
 11
75.45999999999992
 21
-112.8899999999994
 31
0.0
  0
LINE
  5
383
330
4F
100
AcDbEntity
  8
1
  6
Continuous
 62
     2
100
AcDbLine
 10
37.35999999999888
 20
-108.6599999999999
 30
0.0
 11
37.35999999999888
 21
-125.5799999999999
 31
0.0
  0
LINE
  5
384
330
4F
100
AcDbEntity
  8
1
  6
Continuous
 62
     2
100
AcDbLine
 10
22.11999999999898
 20
-104.4300000000003
 30
0.0
 11
75.45999999999992
 21
-104.4300000000003
 31
0.0
  0
LINE
  5
385
330
4F
100
AcDbEntity
  8
1
  6
Continuous
 62
     2
100
AcDbLine
 10
22.11999999999898
 20
-95.97000000000116
 30
0.0
 11
75.45999999999992
 21
-95.97000000000116
 31
0.0
  0
LINE
  5
386
330
4F
100
AcDbEntity
  8
1
  6
Continuous
 62
     2
100
AcDbLine
 10
22.11999999999898
 20
-91.73999999999978
 30
0.0
 11
75.45999999999992
 21
-91.73999999999978
 31
0.0
  0
LINE
  5
387
330
4F
100
AcDbEntity
  8
1
  6
Continuous
 62
     7
100
AcDbLine
 10
192.3000000000002
 20
-125.5799999999999
 30
0.0
 11
192.3000000000002
 21
-138.2700000000004
 31
0.0
  0
LINE
  5
388
330
4F
100
AcDbEntity
  8
1
  6
Continuous
 62
     7
100
AcDbLine
 10
192.3000000000002
 20
-134.0400000000009
 30
0.0
 11
205.0
 21
-134.0400000000009
 31
0.0
  0
LINE
  5
389
330
4F
100
AcDbEntity
  8
1
  6
Continuous
 62
     7
100
AcDbLine
 10
128.8000000000002
 20
-138.2700000000004
 30
0.0
 11
205.0
 21
-138.2700000000004
 31
0.0
  0
LINE
  5
38A
330
4F
100
AcDbEntity
  8
1
  6
Continuous
 62
     7
100
AcDbLine
 10
166.8999999999996
 20
-87.51000000000022
 30
0.0
 11
166.8999999999996
 21
-91.73999999999978
 31
0.0
  0
LINE
  5
38B
330
4F
100
AcDbEntity
  8
1
  6
Continuous
 62
     7
100
AcDbLine
 10
128.8000000000002
 20
-91.73999999999978
 30
0.0
 11
205.0
 21
-91.73999999999978
 31
0.0
  0
LINE
  5
38C
330
4F
100
AcDbEntity
  8
1
  6
Continuous
 62
     7
100
AcDbLine
 10
128.8000000000002
 20
-87.51000000000022
 30
0.0
 11
128.8000000000002
 21
-142.5
 31
0.0
  0
LINE
  5
38D
330
4F
100
AcDbEntity
  8
1
  6
Continuous
 62
     7
100
AcDbLine
 10
37.35999999999888
 20
-125.5799999999999
 30
0.0
 11
37.35999999999888
 21
-142.5
 31
0.0
  0
LINE
  5
38E
330
4F
100
AcDbEntity
  8
1
  6
Continuous
 62
     7
100
AcDbLine
 10
205.0
 20
-125.5799999999999
 30
0.0
 11
22.11999999999898
 21
-125.5799999999999
 31
0.0
  0
LINE
  5
38F
330
4F
100
AcDbEntity
  8
1
  6
Continuous
 62
     2
100
AcDbLine
 10
75.45999999999992
 20
-100.2000000000007
 30
0.0
 11
22.11999999999898
 21
-100.2000000000007
 31
0.0
  0
LINE
  5
390
330
4F
100
AcDbEntity
  8
1
  6
Continuous
 62
     7
100
AcDbLine
 10
22.11999999999898
 20
-142.5
 30
0.0
 11
22.11999999999898
 21
-87.51000000000022
 31
0.0
  0
LINE
  5
391
330
4F
100
AcDbEntity
  8
1
  6
Continuous
 62
     7
100
AcDbLine
 10
-187.880000000001
 20
-142.5
 30
0.0
 11
205.0
 21
-142.5
 31
0.0
  0
LINE
  5
392
330
4F
100
AcDbEntity
  8
1
  6
Continuous
 62
     7
100
AcDbLine
 10
205.0
 20
-142.5
 30
0.0
 11
205.0
 21
142.0
 31
0.0
  0
LINE
  5
393
330
4F
100
AcDbEntity
  8
1
  6
Continuous
 62
     7
100
AcDbLine
 10
205.0
 20
142.0
 30
0.0
 11
-187.880000000001
 21
142.0
 31
0.0
  0
LINE
  5
394
330
4F
100
AcDbEntity
  8
1
  6
Continuous
 62
     7
100
AcDbLine
 10
-187.880000000001
 20
142.0
 30
0.0
 11
-187.880000000001
 21
-142.5
 31
0.0
  0
LINE
  5
395
330
4F
100
AcDbEntity
  8
0
  6
Continuous
 62
     2
100
AcDbLine
 10
-198.880000000001
 20
0.00000000000001
 30
0.0
 11
-187.880000000001
 21
0.00000000000001
 31
0.0
  0
ARC
  5
396
102
{ACAD_REACTORS
330
408
330
408
102
}
330
4F
100
AcDbEntity
  8
1
  6
Continuous
 62
     2
100
AcDbCircle
 10
141.9264261003899
 20
-118.3227040643326
 30
0.0
 40
1.097575516743276
100
AcDbArc
 50
-91.2932531058712
 51
-26.94184191294435
  0
ARC
  5
397
102
{ACAD_REACTORS
330
406
330
406
102
}
330
4F
100
AcDbEntity
  8
1
  6
Continuous
 62
     2
100
AcDbCircle
 10
155.3000342667233
 20
-113.9710002560295
 30
0.0
 40
0.8522732028340286
100
AcDbArc
 50
-84.9766809757147
 51
-2.24339224114474
  0
ARC
  5
398
102
{ACAD_REACTORS
330
406
330
406
102
}
330
4F
100
AcDbEntity
  8
1
  6
Continuous
 62
     2
100
AcDbCircle
 10
155.3161055621215
 20
-115.6535223168009
 30
0.0
 40
0.8355765145285912
100
AcDbArc
 50
-0.46759342609272
 51
85.98158622994607
  0
ARC
  5
399
102
{ACAD_REACTORS
330
407
330
407
102
}
330
4F
100
AcDbEntity
  8
1
  6
Continuous
 62
     2
100
AcDbCircle
 10
158.8327793484388
 20
-118.3331447179281
 30
0.0
 40
1.086965191302833
100
AcDbArc
 50
-90.8147991292736
 51
-26.60924039545096
  0
ARC
  5
39A
102
{ACAD_REACTORS
330
403
330
403
102
}
330
4F
100
AcDbEntity
  8
1
  6
Continuous
 62
     2
100
AcDbCircle
 10
180.7016542509982
 20
-113.8199999999999
 30
0.0
 40
0.6500000000000057
100
AcDbArc
 50
-90.0
 51
0.0
  0
ARC
  5
39B
102
{ACAD_REACTORS
330
403
330
403
102
}
330
4F
100
AcDbEntity
  8
1
  6
Continuous
 62
     2
100
AcDbCircle
 10
180.7016542509982
 20
-115.1199999999999
 30
0.0
 40
0.6500000000000057
100
AcDbArc
 50
0.0
 51
90.0
  0
ARC
  5
39C
102
{ACAD_REACTORS
330
408
330
408
102
}
330
4F
100
AcDbEntity
  8
1
  6
Continuous
 62
     2
100
AcDbCircle
 10
142.7516542509982
 20
-111.2199999999999
 30
0.0
 40
1.0
100
AcDbArc
 50
0.0
 51
90.0
  0
ARC
  5
39D
102
{ACAD_REACTORS
330
408
330
408
102
}
330
4F
100
AcDbEntity
  8
1
  6
Continuous
 62
     2
100
AcDbCircle
 10
141.0516542509982
 20
-118.4199999999999
 30
0.0
 40
1.0
100
AcDbArc
 50
180.0
 51
-90.0
  0
ARC
  5
39E
102
{ACAD_REACTORS
330
401
330
401
102
}
330
4F
100
AcDbEntity
  8
1
  6
Continuous
 62
     2
100
AcDbCircle
 10
148.9516542509982
 20
-111.2199999999999
 30
0.0
 40
1.0
100
AcDbArc
 50
90.0
 51
180.0
  0
ARC
  5
39F
102
{ACAD_REACTORS
330
401
330
401
102
}
330
4F
100
AcDbEntity
  8
1
  6
Continuous
 62
     2
100
AcDbCircle
 10
150.6516542509982
 20
-111.2199999999999
 30
0.0
 40
1.0
100
AcDbArc
 50
0.0
 51
90.0
  0
ARC
  5
3A0
102
{ACAD_REACTORS
330
401
330
401
102
}
330
4F
100
AcDbEntity
  8
1
  6
Continuous
 62
     2
100
AcDbCircle
 10
148.9516542509982
 20
-118.4199999999999
 30
0.0
 40
1.0
100
AcDbArc
 50
180.0
 51
-90.0
  0
ARC
  5
3A1
102
{ACAD_REACTORS
330
401
330
401
102
}
330
4F
100
AcDbEntity
  8
1
  6
Continuous
 62
     2
100
AcDbCircle
 10
150.6516542509982
 20
-118.4199999999999
 30
0.0
 40
1.0
100
AcDbArc
 50
-90.0
 51
0.0
  0
ARC
  5
3A2
102
{ACAD_REACTORS
330
406
330
406
102
}
330
4F
100
AcDbEntity
  8
1
  6
Continuous
 62
     2
100
AcDbCircle
 10
155.1516542509982
 20
-111.2199999999999
 30
0.0
 40
1.0
100
AcDbArc
 50
0.0
 51
90.0
  0
ARC
  5
3A3
102
{ACAD_REACTORS
330
407
330
407
102
}
330
4F
100
AcDbEntity
  8
1
  6
Continuous
 62
     2
100
AcDbCircle
 10
157.9516542509982
 20
-111.2199999999999
 30
0.0
 40
1.0
100
AcDbArc
 50
90.0
 51
180.0
  0
ARC
  5
3A4
102
{ACAD_REACTORS
330
407
330
407
102
}
330
4F
100
AcDbEntity
  8
1
  6
Continuous
 62
     2
100
AcDbCircle
 10
159.6516542509982
 20
-111.2199999999999
 30
0.0
 40
1.000000000000085
100
AcDbArc
 50
0.0
 51
90.0
  0
ARC
  5
3A5
102
{ACAD_REACTORS
330
404
330
404
102
}
330
4F
100
AcDbEntity
  8
1
  6
Continuous
 62
     2
100
AcDbCircle
 10
174.1516542509982
 20
-111.2199999999999
 30
0.0
 40
1.0
100
AcDbArc
 50
90.0
 51
180.0
  0
ARC
  5
3A6
102
{ACAD_REACTORS
330
404
330
404
102
}
330
4F
100
AcDbEntity
  8
1
  6
Continuous
 62
     2
100
AcDbCircle
 10
175.8516542509982
 20
-111.2199999999999
 30
0.0
 40
1.0
100
AcDbArc
 50
0.0
 51
90.0
  0
ARC
  5
3A7
102
{ACAD_REACTORS
330
403
330
403
102
}
330
4F
100
AcDbEntity
  8
1
  6
Continuous
 62
     2
100
AcDbCircle
 10
180.3516542509982
 20
-111.2199999999999
 30
0.0
 40
1.0
100
AcDbArc
 50
0.0
 51
90.0
  0
ARC
  5
3A8
102
{ACAD_REACTORS
330
402
330
402
102
}
330
4F
100
AcDbEntity
  8
1
  6
Continuous
 62
     2
100
AcDbCircle
 10
184.8516542509982
 20
-111.2199999999999
 30
0.0
 40
1.0
100
AcDbArc
 50
0.0
 51
90.0
  0
ARC
  5
3A9
102
{ACAD_REACTORS
330
402
330
402
102
}
330
4F
100
AcDbEntity
  8
1
  6
Continuous
 62
     2
100
AcDbCircle
 10
183.1516542509982
 20
-111.2199999999999
 30
0.0
 40
1.0
100
AcDbArc
 50
90.0
 51
180.0
  0
ARC
  5
3AA
102
{ACAD_REACTORS
330
405
330
405
102
}
330
4F
100
AcDbEntity
  8
1
  6
Continuous
 62
     2
100
AcDbCircle
 10
192.7516542509982
 20
-111.2199999999999
 30
0.0
 40
1.0
100
AcDbArc
 50
0.0
 51
90.0
  0
ARC
  5
3AB
102
{ACAD_REACTORS
330
402
330
402
102
}
330
4F
100
AcDbEntity
  8
1
  6
Continuous
 62
     2
100
AcDbCircle
 10
184.8516542509982
 20
-118.4199999999999
 30
0.0
 40
1.0
100
AcDbArc
 50
-90.0
 51
0.0
  0
ARC
  5
3AC
102
{ACAD_REACTORS
330
402
330
402
102
}
330
4F
100
AcDbEntity
  8
1
  6
Continuous
 62
     2
100
AcDbCircle
 10
183.1516542509982
 20
-118.4199999999999
 30
0.0
 40
1.0
100
AcDbArc
 50
180.0
 51
-90.0
  0
ARC
  5
3AD
102
{ACAD_REACTORS
330
403
330
403
102
}
330
4F
100
AcDbEntity
  8
1
  6
Continuous
 62
     2
100
AcDbCircle
 10
180.3516542509982
 20
-118.4199999999999
 30
0.0
 40
1.0
100
AcDbArc
 50
-90.0
 51
0.0
  0
ARC
  5
3AE
102
{ACAD_REACTORS
330
404
330
404
102
}
330
4F
100
AcDbEntity
  8
1
  6
Continuous
 62
     2
100
AcDbCircle
 10
175.8516542509982
 20
-118.4199999999999
 30
0.0
 40
1.0
100
AcDbArc
 50
-90.0
 51
0.0
  0
ARC
  5
3AF
102
{ACAD_REACTORS
330
404
330
404
102
}
330
4F
100
AcDbEntity
  8
1
  6
Continuous
 62
     2
100
AcDbCircle
 10
174.1516542509982
 20
-118.4199999999999
 30
0.0
 40
1.0
100
AcDbArc
 50
180.0
 51
-90.0
  0
ARC
  5
3B0
102
{ACAD_REACTORS
330
405
330
405
102
}
330
4F
100
AcDbEntity
  8
1
  6
Continuous
 62
     2
100
AcDbCircle
 10
192.7516542509982
 20
-118.4199999999999
 30
0.0
 40
1.0
100
AcDbArc
 50
-90.0
 51
0.0
  0
ARC
  5
3B1
102
{ACAD_REACTORS
330
407
330
407
102
}
330
4F
100
AcDbEntity
  8
1
  6
Continuous
 62
     2
100
AcDbCircle
 10
157.9516542509982
 20
-118.4199999999999
 30
0.0
 40
1.0
100
AcDbArc
 50
180.0
 51
-90.0
  0
ARC
  5
3B2
102
{ACAD_REACTORS
330
408
330
408
102
}
330
4F
100
AcDbEntity
  8
1
  6
Continuous
 62
     2
100
AcDbCircle
 10
141.0516542509982
 20
-111.2199999999999
 30
0.0
 40
1.0
100
AcDbArc
 50
90.0
 51
180.0
  0
ARC
  5
3B3
102
{ACAD_REACTORS
330
401
330
401
102
}
330
4F
100
AcDbEntity
  8
1
  6
Continuous
 62
     2
100
AcDbCircle
 10
149.8016542509982
 20
-111.9699999999999
 30
0.0
 40
0.6500000000000057
100
AcDbArc
 50
90.0
 51
180.0
  0
ARC
  5
3B4
102
{ACAD_REACTORS
330
401
330
401
102
}
330
4F
100
AcDbEntity
  8
1
  6
Continuous
 62
     2
100
AcDbCircle
 10
149.8016542509982
 20
-111.9699999999999
 30
0.0
 40
0.6499999999999773
100
AcDbArc
 50
0.0
 51
90.0
  0
ARC
  5
3B5
102
{ACAD_REACTORS
330
401
330
401
102
}
330
4F
100
AcDbEntity
  8
1
  6
Continuous
 62
     2
100
AcDbCircle
 10
149.8016542509982
 20
-117.65758746051
 30
0.0
 40
0.6500000000000057
100
AcDbArc
 50
180.0
 51
-90.0
  0
ARC
  5
3B6
102
{ACAD_REACTORS
330
401
330
401
102
}
330
4F
100
AcDbEntity
  8
1
  6
Continuous
 62
     2
100
AcDbCircle
 10
149.8016542509982
 20
-117.65758746051
 30
0.0
 40
0.6500000000000057
100
AcDbArc
 50
-90.0
 51
0.0
  0
ARC
  5
3B7
102
{ACAD_REACTORS
330
406
330
406
102
}
330
4F
100
AcDbEntity
  8
1
  6
Continuous
 62
     2
100
AcDbCircle
 10
154.3016542509982
 20
-111.9699999999999
 30
0.0
 40
0.6499999999999773
100
AcDbArc
 50
0.0
 51
90.0
  0
ARC
  5
3B8
102
{ACAD_REACTORS
330
406
330
406
102
}
330
4F
100
AcDbEntity
  8
1
  6
Continuous
 62
     2
100
AcDbCircle
 10
154.3016542509982
 20
-116.0699999999999
 30
0.0
 40
0.6499999999999773
100
AcDbArc
 50
0.0
 51
90.0
  0
ARC
  5
3B9
102
{ACAD_REACTORS
330
406
330
406
102
}
330
4F
100
AcDbEntity
  8
1
  6
Continuous
 62
     2
100
AcDbCircle
 10
154.3016542509982
 20
-113.5699999999999
 30
0.0
 40
0.6500000000000057
100
AcDbArc
 50
-90.0
 51
0.0
  0
ARC
  5
3BA
102
{ACAD_REACTORS
330
407
330
407
102
}
330
4F
100
AcDbEntity
  8
1
  6
Continuous
 62
     2
100
AcDbCircle
 10
158.8016542509982
 20
-111.9699999999999
 30
0.0
 40
0.6500000000000057
100
AcDbArc
 50
90.0
 51
180.0
  0
ARC
  5
3BB
102
{ACAD_REACTORS
330
407
330
407
102
}
330
4F
100
AcDbEntity
  8
1
  6
Continuous
 62
     2
100
AcDbCircle
 10
158.8016542509982
 20
-111.9699999999999
 30
0.0
 40
0.6499999999999773
100
AcDbArc
 50
0.0
 51
90.0
  0
ARC
  5
3BC
102
{ACAD_REACTORS
330
407
330
407
102
}
330
4F
100
AcDbEntity
  8
1
  6
Continuous
 62
     2
100
AcDbCircle
 10
158.8016542509982
 20
-117.65758746051
 30
0.0
 40
0.6500000000000057
100
AcDbArc
 50
180.0
 51
-90.0
  0
ARC
  5
3BD
102
{ACAD_REACTORS
330
407
330
407
102
}
330
4F
100
AcDbEntity
  8
1
  6
Continuous
 62
     2
100
AcDbCircle
 10
158.8016542509982
 20
-117.65758746051
 30
0.0
 40
0.6500000000000057
100
AcDbArc
 50
-90.0
 51
0.0
  0
ARC
  5
3BE
102
{ACAD_REACTORS
330
408
330
408
102
}
330
4F
100
AcDbEntity
  8
1
  6
Continuous
 62
     2
100
AcDbCircle
 10
141.9016542509982
 20
-111.9699999999999
 30
0.0
 40
0.6500000000000057
100
AcDbArc
 50
90.0
 51
180.0
  0
ARC
  5
3BF
102
{ACAD_REACTORS
330
408
330
408
102
}
330
4F
100
AcDbEntity
  8
1
  6
Continuous
 62
     2
100
AcDbCircle
 10
141.9016542509982
 20
-111.9699999999999
 30
0.0
 40
0.6500000000000057
100
AcDbArc
 50
0.0
 51
90.0
  0
ARC
  5
3C0
102
{ACAD_REACTORS
330
408
330
408
102
}
330
4F
100
AcDbEntity
  8
1
  6
Continuous
 62
     2
100
AcDbCircle
 10
141.9016542509982
 20
-117.65758746051
 30
0.0
 40
0.6500000000000057
100
AcDbArc
 50
180.0
 51
-90.0
  0
ARC
  5
3C1
102
{ACAD_REACTORS
330
408
330
408
102
}
330
4F
100
AcDbEntity
  8
1
  6
Continuous
 62
     2
100
AcDbCircle
 10
141.9016542509982
 20
-117.65758746051
 30
0.0
 40
0.6500000000000057
100
AcDbArc
 50
-90.0
 51
0.0
  0
ARC
  5
3C2
102
{ACAD_REACTORS
330
405
330
405
102
}
330
4F
100
AcDbEntity
  8
1
  6
Continuous
 62
     2
100
AcDbCircle
 10
191.9016542509982
 20
-111.9699999999999
 30
0.0
 40
0.6500000000000057
100
AcDbArc
 50
0.0
 51
90.0
  0
ARC
  5
3C3
102
{ACAD_REACTORS
330
405
330
405
102
}
330
4F
100
AcDbEntity
  8
1
  6
Continuous
 62
     2
100
AcDbCircle
 10
191.9016542509982
 20
-117.65758746051
 30
0.0
 40
0.6500000000000057
100
AcDbArc
 50
-90.0
 51
0.0
  0
ARC
  5
3C4
102
{ACAD_REACTORS
330
402
330
402
102
}
330
4F
100
AcDbEntity
  8
1
  6
Continuous
 62
     2
100
AcDbCircle
 10
184.0016542509982
 20
-111.9699999999999
 30
0.0
 40
0.6500000000000057
100
AcDbArc
 50
0.0
 51
90.0
  0
ARC
  5
3C5
102
{ACAD_REACTORS
330
402
330
402
102
}
330
4F
100
AcDbEntity
  8
1
  6
Continuous
 62
     2
100
AcDbCircle
 10
184.0016542509982
 20
-111.9699999999999
 30
0.0
 40
0.6500000000000057
100
AcDbArc
 50
90.0
 51
180.0
  0
ARC
  5
3C6
102
{ACAD_REACTORS
330
402
330
402
102
}
330
4F
100
AcDbEntity
  8
1
  6
Continuous
 62
     2
100
AcDbCircle
 10
184.0016542509982
 20
-117.65758746051
 30
0.0
 40
0.6500000000000057
100
AcDbArc
 50
180.0
 51
-90.0
  0
ARC
  5
3C7
102
{ACAD_REACTORS
330
402
330
402
102
}
330
4F
100
AcDbEntity
  8
1
  6
Continuous
 62
     2
100
AcDbCircle
 10
184.0016542509982
 20
-117.65758746051
 30
0.0
 40
0.6500000000000057
100
AcDbArc
 50
-90.0
 51
0.0
  0
ARC
  5
3C8
102
{ACAD_REACTORS
330
404
330
404
102
}
330
4F
100
AcDbEntity
  8
1
  6
Continuous
 62
     2
100
AcDbCircle
 10
175.0016542509982
 20
-111.9699999999999
 30
0.0
 40
0.6500000000000057
100
AcDbArc
 50
90.0
 51
180.0
  0
ARC
  5
3C9
102
{ACAD_REACTORS
330
404
330
404
102
}
330
4F
100
AcDbEntity
  8
1
  6
Continuous
 62
     2
100
AcDbCircle
 10
175.0016542509982
 20
-111.9699999999999
 30
0.0
 40
0.6500000000000057
100
AcDbArc
 50
0.0
 51
90.0
  0
ARC
  5
3CA
102
{ACAD_REACTORS
330
404
330
404
102
}
330
4F
100
AcDbEntity
  8
1
  6
Continuous
 62
     2
100
AcDbCircle
 10
175.0016542509982
 20
-117.65758746051
 30
0.0
 40
0.6500000000000057
100
AcDbArc
 50
180.0
 51
-90.0
  0
ARC
  5
3CB
102
{ACAD_REACTORS
330
404
330
404
102
}
330
4F
100
AcDbEntity
  8
1
  6
Continuous
 62
     2
100
AcDbCircle
 10
175.0016542509982
 20
-117.65758746051
 30
0.0
 40
0.6500000000000057
100
AcDbArc
 50
-90.0
 51
0.0
  0
ARC
  5
3CC
102
{ACAD_REACTORS
330
403
330
403
102
}
330
4F
100
AcDbEntity
  8
1
  6
Continuous
 62
     2
100
AcDbCircle
 10
179.5016542509982
 20
-111.9699999999999
 30
0.0
 40
0.6500000000000057
100
AcDbArc
 50
0.0
 51
90.0
  0
ARC
  5
3CD
102
{ACAD_REACTORS
330
403
330
403
102
}
330
4F
100
AcDbEntity
  8
1
  6
Continuous
 62
     2
100
AcDbCircle
 10
179.5016542509982
 20
-113.2699999999999
 30
0.0
 40
0.6500000000000057
100
AcDbArc
 50
-90.0
 51
0.0
  0
ARC
  5
3CE
102
{ACAD_REACTORS
330
403
330
403
102
}
330
4F
100
AcDbEntity
  8
1
  6
Continuous
 62
     2
100
AcDbCircle
 10
179.5016542509982
 20
-115.6699999999999
 30
0.0
 40
0.6500000000000057
100
AcDbArc
 50
0.0
 51
90.0
  0
ARC
  5
3CF
102
{ACAD_REACTORS
330
403
330
403
102
}
330
4F
100
AcDbEntity
  8
1
  6
Continuous
 62
     2
100
AcDbCircle
 10
179.5016542509982
 20
-117.65758746051
 30
0.0
 40
0.6500000000000057
100
AcDbArc
 50
-90.0
 51
0.0
  0
MTEXT
  5
3D1
330
4F
100
AcDbEntity
  8
1
 62
     2
100
AcDbMText
 10
166.6516542509982
 20
-123.0199999999999
 30
0.0
 40
2.8
 41
0.0
 71
     5
 72
     1
  1
GmbH & Co. KG
  7
CONVERTER_11
 73
     1
 44
1.32052821128451
  0
MTEXT
  5
3D3
330
4F
100
AcDbEntity
  8
1
 62
     2
100
AcDbMText
 10
171.146150406868
 20
-140.3850000000002
 30
0.0
 40
1.8
 41
0.0
 71
     4
 72
     1
  1
 
  7
CONVERTER_12
 73
     1
 44
1.32052821128451
  0
MTEXT
  5
3D4
330
4F
100
AcDbEntity
  8
1
 62
     2
100
AcDbMText
 10
138.090984385273
 20
-140.3850000000002
 30
0.0
 40
1.8
 41
0.0
 71
     4
 72
     1
  1
 
  7
CONVERTER_12
 73
     1
 44
1.32052821128451
  0
MTEXT
  5
3D5
330
4F
100
AcDbEntity
  8
1
 62
     2
100
AcDbMText
 10
65.29999999999995
 20
-119.2350000000014
 30
0.0
 40
1.8
 41
0.0
 71
     5
 72
     1
  1
 
  7
CONVERTER_12
 73
     1
 44
1.32052821128451
  0
MTEXT
  5
3D6
330
4F
100
AcDbEntity
  8
1
 62
     2
100
AcDbMText
 10
46.25
 20
-119.2350000000014
 30
0.0
 40
1.8
 41
0.0
 71
     5
 72
     1
  1
26.01.09
  7
CONVERTER_12
 73
     1
 44
1.32052821128451
  0
MTEXT
  5
3D7
330
4F
100
AcDbEntity
  8
1
 62
     3
100
AcDbMText
 10
168.9000000000001
 20
-105.1999999999998
 30
0.0
 40
2.5
 41
0.0
 71
     5
 72
     1
  1
 
  7
CONVERTER_12
 73
     1
 44
1.32052821128451
  0
MTEXT
  5
3D8
330
4F
100
AcDbEntity
  8
1
 62
     3
100
AcDbMText
 10
168.9000000000001
 20
-100.6999999999998
 30
0.0
 40
2.5
 41
0.0
 71
     5
 72
     1
  1
 
  7
CONVERTER_12
 73
     1
 44
1.32052821128451
  0
MTEXT
  5
3D9
330
4F
100
AcDbEntity
  8
1
 62
     3
100
AcDbMText
 10
168.9000000000001
 20
-96.19999999999983
 30
0.0
 40
2.5
 41
0.0
 71
     5
 72
     1
  1
 
  7
CONVERTER_12
 73
     1
 44
1.32052821128451
  0
MTEXT
  5
3DB
330
4F
100
AcDbEntity
  8
1
 62
     3
100
AcDbMText
 10
102.13
 20
-122.625
 30
0.0
 40
2.5
 41
0.0
 71
     5
 72
     1
  1
 
  7
CONVERTER_13
 73
     1
 44
1.32052821128451
  0
MTEXT
  5
3DC
330
4F
100
AcDbEntity
  8
1
 62
     3
100
AcDbMText
 10
102.13
 20
-113.625
 30
0.0
 40
2.5
 41
0.0
 71
     5
 72
     1
  1
KSY 210... Q (/S23)
  7
CONVERTER_13
 73
     1
 44
1.32052821128451
  0
MTEXT
  5
3DE
330
4F
100
AcDbEntity
  8
1
 62
     7
100
AcDbMText
 10
29.74000000000001
 20
-136.535
 30
0.0
 40
5.0
 41
0.0
 71
     5
 72
     1
  1
1:1
  7
CONVERTER_14
 73
     1
 44
1.32052821128451
  0
MTEXT
  5
3DF
330
4F
100
AcDbEntity
  8
1
 62
     2
100
AcDbMText
 10
46.25
 20
-115.005
 30
0.0
 40
1.8
 41
0.0
 71
     5
 72
     1
  1
26.01.09
  7
CONVERTER_12
 73
     1
 44
1.32052821128451
  0
MTEXT
  5
3E0
330
4F
100
AcDbEntity
  8
1
 62
     2
100
AcDbMText
 10
65.29999999999995
 20
-115.005
 30
0.0
 40
1.8
 41
0.0
 71
     5
 72
     1
  1
HI
  7
CONVERTER_12
 73
     1
 44
1.32052821128451
  0
MTEXT
  5
3E2
330
4F
100
AcDbEntity
  8
1
 62
     7
100
AcDbMText
 10
83.60500000000002
 20
-136.33
 30
0.0
 40
5.0
 41
0.0
 71
     5
 72
     1
  1
Maßblatt
  7
CONVERTER_15
 73
     1
 44
1.32052821128451
  0
MTEXT
  5
3E3
330
4F
100
AcDbEntity
  8
1
 62
     2
100
AcDbMText
 10
196.85
 20
-136.25
 30
0.0
 40
1.8
 41
0.0
 71
     5
 72
     1
  1
1
  7
CONVERTER_12
 73
     1
 44
1.32052821128451
  0
MTEXT
  5
3E4
330
4F
100
AcDbEntity
  8
1
 62
     3
100
AcDbMText
 10
200.375
 20
-129.81
 30
0.0
 40
3.0
 41
0.0
 71
     5
 72
     1
  1
1
  7
CONVERTER_15
 73
     1
 44
1.32052821128451
  0
MTEXT
  5
3E5
330
4F
100
AcDbEntity
  8
1
 62
     7
100
AcDbMText
 10
160.55
 20
-133.28
 30
0.0
 40
5.0
 41
0.0
 71
     5
 72
     1
  1
K3001
  7
CONVERTER_14
 73
     1
 44
1.32052821128451
  0
TEXT
  5
3E6
330
4F
100
AcDbEntity
  8
1
 62
     2
100
AcDbText
 10
193.3000000000002
 20
-129.5799999999999
 30
0.0
 40
1.8
  1
Bl.
 41
0.9
  7
CONVERTER_12
100
AcDbText
  0
MTEXT
  5
3E7
330
4F
100
AcDbEntity
  8
1
 62
     2
100
AcDbMText
 10
129.868213777145
 20
-140.3850000000002
 30
0.0
 40
1.8
 41
0.0
 71
     4
 72
     1
  1
Ers.
  7
CONVERTER_12
 73
     1
 44
1.32052821128451
  0
TEXT
  5
3E8
330
4F
100
AcDbEntity
  8
1
 62
     2
100
AcDbText
 10
129.8000000000002
 20
-94.97000000000116
 30
0.0
 40
1.8
  1
Werkstoff
 41
0.9
  7
CONVERTER_12
100
AcDbText
  0
MTEXT
  5
3E9
330
4F
100
AcDbEntity
  8
1
 62
     2
100
AcDbMText
 10
167.8999999999996
 20
-89.625
 30
0.0
 40
1.8
 41
0.0
 71
     4
 72
     1
  1
Gewicht
  7
CONVERTER_12
 73
     1
 44
1.32052821128451
  0
MTEXT
  5
3EA
330
4F
100
AcDbEntity
  8
1
 62
     2
100
AcDbMText
 10
129.8000000000002
 20
-89.625
 30
0.0
 40
1.8
 41
0.0
 71
     4
 72
     1
  1
Urheberschutz  DIN 34
  7
CONVERTER_12
 73
     1
 44
1.32052821128451
  0
TEXT
  5
3EB
330
4F
100
AcDbEntity
  8
1
 62
     2
100
AcDbText
 10
130.8962833787473
 20
-129.2145722070854
 30
0.0
 40
1.8
  1
Z.-Nr.
 41
0.9
  7
CONVERTER_12
100
AcDbText
  0
TEXT
  5
3EC
330
4F
100
AcDbEntity
  8
1
 62
     2
100
AcDbText
 10
38.35999999999888
 20
-129.5799999999999
 30
0.0
 40
1.8
  1
Benennung
 41
0.9
  7
CONVERTER_12
100
AcDbText
  0
TEXT
  5
3ED
330
4F
100
AcDbEntity
  8
1
 62
     2
100
AcDbText
 10
23.11999999999898
 20
-129.5799999999999
 30
0.0
 40
1.8
  1
Maßstab
 41
0.9
  7
CONVERTER_12
100
AcDbText
  0
TEXT
  5
3EE
330
4F
100
AcDbEntity
  8
1
 62
     2
100
AcDbText
 10
75.95999999999992
 20
-111.2899999999994
 30
0.0
 40
1.8
  1
Typ
 41
0.9
  7
CONVERTER_12
100
AcDbText
  0
TEXT
  5
3EF
330
4F
100
AcDbEntity
  8
1
 62
     2
100
AcDbText
 10
23.11999999999898
 20
-124.5799999999999
 30
0.0
 40
1.8
  1
Norm.
 41
0.9
  7
CONVERTER_12
100
AcDbText
  0
TEXT
  5
3F0
330
4F
100
AcDbEntity
  8
1
 62
     2
100
AcDbText
 10
23.11999999999898
 20
-120.3500000000004
 30
0.0
 40
1.8
  1
Gepr.
 41
0.9
  7
CONVERTER_12
100
AcDbText
  0
TEXT
  5
3F1
330
4F
100
AcDbEntity
  8
1
 62
     2
100
AcDbText
 10
23.11999999999898
 20
-116.1200000000008
 30
0.0
 40
1.8
  1
Bearb.
 41
0.9
  7
CONVERTER_12
100
AcDbText
  0
TEXT
  5
3F2
330
4F
100
AcDbEntity
  8
1
 62
     2
100
AcDbText
 10
59.73202796696876
 20
-111.8899999999994
 30
0.0
 40
1.8
  1
Name
 41
0.9
  7
CONVERTER_12
100
AcDbText
  0
TEXT
  5
3F3
330
4F
100
AcDbEntity
  8
1
 62
     2
100
AcDbText
 10
41.95202796696901
 20
-111.8899999999994
 30
0.0
 40
1.8
  1
Datum
 41
0.9
  7
CONVERTER_12
100
AcDbText
  0
TEXT
  5
3F4
330
4F
100
AcDbEntity
  8
1
 62
     2
100
AcDbText
 10
68.83999999999912
 20
-107.6599999999999
 30
0.0
 40
1.8
  1
Gepr.
 41
0.72
  7
CONVERTER_15
100
AcDbText
  0
TEXT
  5
3F5
330
4F
100
AcDbEntity
  8
1
 62
     2
100
AcDbText
 10
61.21999999999832
 20
-107.6599999999999
 30
0.0
 40
1.8
  1
Name
 41
0.72
  7
CONVERTER_15
100
AcDbText
  0
TEXT
  5
3F6
330
4F
100
AcDbEntity
  8
1
 62
     2
100
AcDbText
 10
43.43999999999869
 20
-107.6599999999999
 30
0.0
 40
1.8
  1
Datum
 41
0.9
  7
CONVERTER_12
100
AcDbText
  0
TEXT
  5
3F7
330
4F
100
AcDbEntity
  8
1
 62
     2
100
AcDbText
 10
28.19999999999891
 20
-107.6599999999999
 30
0.0
 40
1.8
  1
Änderung
 41
0.9
  7
CONVERTER_12
100
AcDbText
  0
TEXT
  5
3F8
330
4F
100
AcDbEntity
  8
1
 62
     2
100
AcDbText
 10
23.11999999999898
 20
-107.6599999999999
 30
0.0
 40
1.8
  1
Nr.
 41
0.9
  7
CONVERTER_12
100
AcDbText
  0
TEXT
  5
3F9
330
4F
100
AcDbEntity
  8
0
 62
     2
100
AcDbText
 10
201.4516239034123
 20
-137.153912141408
 30
0.0
 40
1.8
  1
Bl.
 41
0.9
  7
CONVERTER_12
100
AcDbText
  0
MTEXT
  5
3FA
330
4F
100
AcDbEntity
  8
1
 62
     3
100
AcDbMText
 10
103.5850000000001
 20
-98.08500000000004
 30
0.0
 40
2.2
 41
0.0
 71
     4
 72
     1
  1
Oberflächen\PDIN ISO 1302\PReihe 2
  7
CONVERTER_12
 73
     1
 44
1.32052821128451
  0
MTEXT
  5
3FB
330
4F
100
AcDbEntity
  8
1
 62
     3
100
AcDbMText
 10
76.91500000000008
 20
-98.08500000000004
 30
0.0
 40
2.2
 41
0.0
 71
     4
 72
     1
  1
Allgemein-\Ptoleranzen\PDIN ISO 2768-mK
  7
CONVERTER_15
 73
     1
 44
1.32052821128451
  0
HATCH
  5
3FC
330
4F
100
AcDbEntity
  8
1
  6
Continuous
 62
     2
100
AcDbHatch
 10
0.0
 20
0.0
 30
0.0
210
0.0
220
0.0
230
1.0
  2
_USER
 70
     0
 71
     1
 91
        1
 92
        1
 93
        4
 72
     1
 10
162.6516542509982
 20
-119.4199999999999
 11
161.4516542509982
 21
-119.4199999999999
 72
     1
 10
161.4516542509982
 20
-119.4199999999999
 11
161.4516542509982
 21
-110.2199999999999
 72
     1
 10
161.4516542509982
 20
-110.2199999999999
 11
162.6516542509982
 21
-110.2199999999999
 72
     1
 10
162.6516542509982
 20
-110.2199999999999
 11
162.6516542509982
 21
-119.4199999999999
 97
        4
330
33E
330
344
330
340
330
343
 75
     1
 76
     0
 52
90.00000000000003
 41
0.15
 77
     0
 78
     1
 53
90.00000000000003
 43
0.0
 44
0.0
 45
-0.15
 46
-0.0000000000000001
 79
     0
 98
        1
 10
0.0
 20
0.0
  0
HATCH
  5
3FD
330
4F
100
AcDbEntity
  8
1
  6
Continuous
 62
     2
100
AcDbHatch
 10
0.0
 20
0.0
 30
0.0
210
0.0
220
0.0
230
1.0
  2
_USER
 70
     0
 71
     1
 91
        1
 92
        1
 93
        4
 72
     1
 10
164.6516542509982
 20
-119.4199999999999
 11
163.4516542509982
 21
-119.4199999999999
 72
     1
 10
163.4516542509982
 20
-119.4199999999999
 11
163.4516542509982
 21
-110.2199999999999
 72
     1
 10
163.4516542509982
 20
-110.2199999999999
 11
164.6516542509982
 21
-110.2199999999999
 72
     1
 10
164.6516542509982
 20
-110.2199999999999
 11
164.6516542509982
 21
-119.4199999999999
 97
        4
330
33F
330
342
330
348
330
341
 75
     1
 76
     0
 52
90.00000000000003
 41
0.15
 77
     0
 78
     1
 53
90.00000000000003
 43
0.0
 44
0.0
 45
-0.15
 46
-0.0000000000000001
 79
     0
 98
        1
 10
0.0
 20
0.0
  0
HATCH
  5
3FE
330
4F
100
AcDbEntity
  8
1
  6
Continuous
 62
     2
100
AcDbHatch
 10
0.0
 20
0.0
 30
0.0
210
0.0
220
0.0
230
1.0
  2
_USER
 70
     0
 71
     1
 91
        1
 92
        1
 93
       12
 72
     1
 10
147.1516542509982
 20
-110.2199999999999
 11
144.5516542509982
 21
-110.2199999999999
 72
     1
 10
144.5516542509982
 20
-110.2199999999999
 11
144.5516542509982
 21
-119.4199999999999
 72
     1
 10
144.5516542509982
 20
-119.4199999999999
 11
147.1516542509982
 21
-119.4199999999999
 72
     1
 10
147.1516542509982
 20
-119.4199999999999
 11
147.1516542509982
 21
-118.30758746051
 72
     1
 10
147.1516542509982
 20
-118.30758746051
 11
145.8516542509982
 21
-118.30758746051
 72
     1
 10
145.8516542509982
 20
-118.30758746051
 11
145.8516542509982
 21
-115.0199999999999
 72
     1
 10
145.8516542509982
 20
-115.0199999999999
 11
147.1516542509982
 21
-115.0199999999999
 72
     1
 10
147.1516542509982
 20
-115.0199999999999
 11
147.1516542509982
 21
-113.9199999999999
 72
     1
 10
147.1516542509982
 20
-113.9199999999999
 11
145.8516542509982
 21
-113.9199999999999
 72
     1
 10
145.8516542509982
 20
-113.9199999999999
 11
145.8516542509982
 21
-111.3199999999999
 72
     1
 10
145.8516542509982
 20
-111.3199999999999
 11
147.1516542509982
 21
-111.3199999999999
 72
     1
 10
147.1516542509982
 20
-111.3199999999999
 11
147.1516542509982
 21
-110.2199999999999
 97
       12
330
308
330
309
330
30A
330
30B
330
300
330
2FC
330
2FD
330
2FE
330
2FF
330
301
330
349
330
34A
 75
     1
 76
     0
 52
90.00000000000003
 41
0.15
 77
     0
 78
     1
 53
90.00000000000003
 43
0.0
 44
0.0
 45
-0.15
 46
-0.0000000000000001
 79
     0
 98
        1
 10
0.0
 20
0.0
  0
HATCH
  5
3FF
330
4F
100
AcDbEntity
  8
1
  6
Continuous
 62
     2
100
AcDbHatch
 10
0.0
 20
0.0
 30
0.0
210
0.0
220
0.0
230
1.0
  2
_USER
 70
     0
 71
     1
 91
        1
 92
        1
 93
        6
 72
     1
 10
189.2516542509982
 20
-119.4199999999999
 11
186.6516542509982
 21
-119.4199999999999
 72
     1
 10
186.6516542509982
 20
-119.4199999999999
 11
186.6516542509982
 21
-110.2199999999999
 72
     1
 10
186.6516542509982
 20
-110.2199999999999
 11
187.8516542509982
 21
-110.2199999999999
 72
     1
 10
187.8516542509982
 20
-110.2199999999999
 11
187.8516542509982
 21
-118.30758746051
 72
     1
 10
187.8516542509982
 20
-118.30758746051
 11
189.2516542509982
 21
-118.30758746051
 72
     1
 10
189.2516542509982
 20
-118.30758746051
 11
189.2516542509982
 21
-119.4199999999999
 97
        6
330
368
330
367
330
32B
330
328
330
329
330
32A
 75
     1
 76
     0
 52
90.00000000000003
 41
0.15
 77
     0
 78
     1
 53
90.00000000000003
 43
0.0
 44
0.0
 45
-0.15
 46
-0.0000000000000001
 79
     0
 98
        1
 10
0.0
 20
0.0
  0
HATCH
  5
400
330
4F
100
AcDbEntity
  8
1
  6
Continuous
 62
     2
100
AcDbHatch
 10
0.0
 20
0.0
 30
0.0
210
0.0
220
0.0
230
1.0
  2
_USER
 70
     0
 71
     1
 91
        1
 92
        1
 93
       11
 72
     1
 10
169.8516542509982
 20
-113.8826635858394
 11
171.0854042804337
 21
-110.2199999999999
 72
     1
 10
171.0854042804337
 20
-110.2199999999999
 11
172.3516542509982
 21
-110.2199999999999
 72
     1
 10
172.3516542509982
 20
-110.2199999999999
 11
170.9200628688759
 21
-114.4699999999999
 72
     1
 10
170.9200628688759
 20
-114.4699999999999
 11
172.3516542509982
 21
-119.4199999999999
 72
     1
 10
172.3516542509982
 20
-119.4199999999999
 11
171.1024763583806
 21
-119.4199999999999
 72
     1
 10
171.1024763583806
 20
-119.4199999999999
 11
169.8516542509982
 21
-115.0950442138285
 72
     1
 10
169.8516542509982
 20
-115.0950442138285
 11
169.8516542509982
 21
-119.4199999999999
 72
     1
 10
169.8516542509982
 20
-119.4199999999999
 11
168.6516542509982
 21
-119.4199999999999
 72
     1
 10
168.6516542509982
 20
-119.4199999999999
 11
168.6516542509982
 21
-110.2199999999999
 72
     1
 10
168.6516542509982
 20
-110.2199999999999
 11
169.8516542509982
 21
-110.2199999999999
 72
     1
 10
169.8516542509982
 20
-110.2199999999999
 11
169.8516542509982
 21
-113.8826635858394
 97
       11
330
31B
330
31D
330
31C
330
374
330
372
330
370
330
36E
330
36D
330
36F
330
371
330
373
 75
     1
 76
     0
 52
90.00000000000003
 41
0.15
 77
     0
 78
     1
 53
90.00000000000003
 43
0.0
 44
0.0
 45
-0.15
 46
-0.0000000000000001
 79
     0
 98
        1
 10
0.0
 20
0.0
  0
HATCH
  5
401
330
4F
100
AcDbEntity
  8
1
  6
Continuous
 62
     2
100
AcDbHatch
 10
0.0
 20
0.0
 30
0.0
210
0.0
220
0.0
230
1.0
  2
_USER
 70
     0
 71
     1
 91
        2
 92
        1
 93
        8
 72
     1
 10
151.6516542509982
 20
-111.2199999999999
 11
151.6516542509982
 21
-118.4199999999999
 72
     2
 10
150.6516542509982
 20
-118.4199999999999
 40
1.0
 50
0.0
 51
90.0
 73
     0
 72
     1
 10
150.6516542509982
 20
-119.4199999999999
 11
148.9516542509982
 21
-119.4199999999999
 72
     2
 10
148.9516542509982
 20
-118.4199999999999
 40
1.0
 50
90.0
 51
180.0
 73
     0
 72
     1
 10
147.9516542509982
 20
-118.4199999999999
 11
147.9516542509982
 21
-111.2199999999999
 72
     2
 10
148.9516542509982
 20
-111.2199999999999
 40
1.0
 50
180.0
 51
270.0
 73
     0
 72
     1
 10
148.9516542509982
 20
-110.2199999999999
 11
150.6516542509982
 21
-110.2199999999999
 72
     2
 10
150.6516542509982
 20
-111.2199999999999
 40
1.0
 50
270.0
 51
360.0
 73
     0
 97
        8
330
30F
330
39E
330
311
330
3A0
330
310
330
3A1
330
312
330
39F
 92
       16
 93
        6
 72
     2
 10
149.8016542509982
 20
-111.9699999999999
 40
0.6500000000000057
 50
90.0
 51
180.0
 73
     1
 72
     1
 10
149.1516542509982
 20
-111.9699999999999
 11
149.1516542509982
 21
-117.65758746051
 72
     2
 10
149.8016542509982
 20
-117.65758746051
 40
0.6500000000000057
 50
180.0
 51
270.0
 73
     1
 72
     2
 10
149.8016542509982
 20
-117.65758746051
 40
0.6500000000000057
 50
270.0
 51
360.0
 73
     1
 72
     1
 10
150.4516542509982
 20
-117.65758746051
 11
150.4516542509982
 21
-111.9699999999999
 72
     2
 10
149.8016542509982
 20
-111.9699999999999
 40
0.6499999999999773
 50
0.0
 51
90.0
 73
     1
 97
        6
330
3B3
330
34C
330
3B5
330
3B6
330
34B
330
3B4
 75
     1
 76
     0
 52
90.00000000000003
 41
0.15
 77
     0
 78
     1
 53
90.00000000000003
 43
0.0
 44
0.0
 45
-0.15
 46
-0.0000000000000001
 79
     0
 98
        1
 10
0.0
 20
0.0
  0
HATCH
  5
402
330
4F
100
AcDbEntity
  8
1
  6
Continuous
 62
     2
100
AcDbHatch
 10
0.0
 20
0.0
 30
0.0
210
0.0
220
0.0
230
1.0
  2
_USER
 70
     0
 71
     1
 91
        2
 92
        1
 93
        8
 72
     2
 10
183.1516542509982
 20
-111.2199999999999
 40
1.0
 50
90.0
 51
180.0
 73
     1
 72
     1
 10
182.1516542509982
 20
-111.2199999999999
 11
182.1516542509982
 21
-118.4199999999999
 72
     2
 10
183.1516542509982
 20
-118.4199999999999
 40
1.0
 50
180.0
 51
270.0
 73
     1
 72
     1
 10
183.1516542509982
 20
-119.4199999999999
 11
184.8516542509982
 21
-119.4199999999999
 72
     2
 10
184.8516542509982
 20
-118.4199999999999
 40
1.0
 50
270.0
 51
360.0
 73
     1
 72
     1
 10
185.8516542509982
 20
-118.4199999999999
 11
185.8516542509982
 21
-111.2199999999999
 72
     2
 10
184.8516542509982
 20
-111.2199999999999
 40
1.0
 50
0.0
 51
90.0
 73
     1
 72
     1
 10
184.8516542509982
 20
-110.2199999999999
 11
183.1516542509982
 21
-110.2199999999999
 97
        8
330
3A9
330
324
330
3AC
330
325
330
3AB
330
326
330
3A8
330
327
 92
       16
 93
        6
 72
     2
 10
184.0016542509982
 20
-111.9699999999999
 40
0.6500000000000057
 50
0.0
 51
90.0
 73
     1
 72
     2
 10
184.0016542509982
 20
-111.9699999999999
 40
0.6500000000000057
 50
90.0
 51
180.0
 73
     1
 72
     1
 10
183.3516542509982
 20
-111.9699999999999
 11
183.3516542509982
 21
-117.65758746051
 72
     2
 10
184.0016542509982
 20
-117.65758746051
 40
0.6500000000000057
 50
180.0
 51
270.0
 73
     1
 72
     2
 10
184.0016542509982
 20
-117.65758746051
 40
0.6500000000000057
 50
270.0
 51
360.0
 73
     1
 72
     1
 10
184.6516542509982
 20
-117.65758746051
 11
184.6516542509982
 21
-111.9699999999999
 97
        6
330
3C4
330
3C5
330
363
330
3C6
330
3C7
330
362
 75
     1
 76
     0
 52
90.00000000000003
 41
0.15
 77
     0
 78
     1
 53
90.00000000000003
 43
0.0
 44
0.0
 45
-0.15
 46
-0.0000000000000001
 79
     0
 98
        1
 10
0.0
 20
0.0
  0
HATCH
  5
403
330
4F
100
AcDbEntity
  8
1
  6
Continuous
 62
     2
100
AcDbHatch
 10
0.0
 20
0.0
 30
0.0
210
0.0
220
0.0
230
1.0
  2
_USER
 70
     0
 71
     1
 91
        3
 92
        1
 93
        9
 72
     1
 10
180.3516542509982
 20
-110.2199999999999
 11
177.6516542509982
 21
-110.2199999999999
 72
     1
 10
177.6516542509982
 20
-110.2199999999999
 11
177.6516542509982
 21
-119.4199999999999
 72
     1
 10
177.6516542509982
 20
-119.4199999999999
 11
180.3516542509982
 21
-119.4199999999999
 72
     2
 10
180.3516542509982
 20
-118.4199999999999
 40
1.0
 50
270.0
 51
360.0
 73
     1
 72
     1
 10
181.3516542509982
 20
-118.4199999999999
 11
181.3516542509982
 21
-115.1199999999999
 72
     2
 10
180.7016542509982
 20
-115.1199999999999
 40
0.6500000000000057
 50
0.0
 51
90.0
 73
     1
 72
     2
 10
180.7016542509982
 20
-113.8199999999999
 40
0.6500000000000057
 50
270.0
 51
360.0
 73
     1
 72
     1
 10
181.3516542509982
 20
-113.8199999999999
 11
181.3516542509982
 21
-111.2199999999999
 72
     2
 10
180.3516542509982
 20
-111.2199999999999
 40
1.0
 50
0.0
 51
90.0
 73
     1
 97
        9
330
322
330
321
330
323
330
3AD
330
36C
330
39B
330
39A
330
36B
330
3A7
 92
       16
 93
        6
 72
     2
 10
179.5016542509982
 20
-111.9699999999999
 40
0.6500000000000057
 50
0.0
 51
90.0
 73
     1
 72
     1
 10
179.5016542509982
 20
-111.3199999999999
 11
178.8516542509982
 21
-111.3199999999999
 72
     1
 10
178.8516542509982
 20
-111.3199999999999
 11
178.8516542509982
 21
-113.9199999999999
 72
     1
 10
178.8516542509982
 20
-113.9199999999999
 11
179.5016542509982
 21
-113.9199999999999
 72
     2
 10
179.5016542509982
 20
-113.2699999999999
 40
0.6500000000000057
 50
270.0
 51
360.0
 73
     1
 72
     1
 10
180.1516542509982
 20
-113.2699999999999
 11
180.1516542509982
 21
-111.9699999999999
 97
        6
330
3CC
330
35A
330
360
330
35C
330
3CD
330
35B
 92
       16
 93
        6
 72
     2
 10
179.5016542509982
 20
-115.6699999999999
 40
0.6500000000000057
 50
0.0
 51
90.0
 73
     1
 72
     1
 10
179.5016542509982
 20
-115.0199999999999
 11
178.8516542509982
 21
-115.0199999999999
 72
     1
 10
178.8516542509982
 20
-115.0199999999999
 11
178.8516542509982
 21
-118.30758746051
 72
     1
 10
178.8516542509982
 20
-118.30758746051
 11
179.5016542509982
 21
-118.30758746051
 72
     2
 10
179.5016542509982
 20
-117.65758746051
 40
0.6500000000000057
 50
270.0
 51
360.0
 73
     1
 72
     1
 10
180.1516542509982
 20
-117.65758746051
 11
180.1516542509982
 21
-115.6699999999999
 97
        6
330
3CE
330
361
330
35D
330
35E
330
3CF
330
35F
 75
     1
 76
     0
 52
90.00000000000003
 41
0.15
 77
     0
 78
     1
 53
90.00000000000003
 43
0.0
 44
0.0
 45
-0.15
 46
-0.0000000000000001
 79
     0
 98
        1
 10
0.0
 20
0.0
  0
HATCH
  5
404
330
4F
100
AcDbEntity
  8
1
  6
Continuous
 62
     2
100
AcDbHatch
 10
0.0
 20
0.0
 30
0.0
210
0.0
220
0.0
230
1.0
  2
_USER
 70
     0
 71
     1
 91
        2
 92
        1
 93
        8
 72
     2
 10
174.1516542509982
 20
-111.2199999999999
 40
1.0
 50
90.0
 51
180.0
 73
     1
 72
     1
 10
173.1516542509982
 20
-111.2199999999999
 11
173.1516542509982
 21
-118.4199999999999
 72
     2
 10
174.1516542509982
 20
-118.4199999999999
 40
1.0
 50
180.0
 51
270.0
 73
     1
 72
     1
 10
174.1516542509982
 20
-119.4199999999999
 11
175.8516542509982
 21
-119.4199999999999
 72
     2
 10
175.8516542509982
 20
-118.4199999999999
 40
1.0
 50
270.0
 51
360.0
 73
     1
 72
     1
 10
176.8516542509982
 20
-118.4199999999999
 11
176.8516542509982
 21
-111.2199999999999
 72
     2
 10
175.8516542509982
 20
-111.2199999999999
 40
1.0
 50
0.0
 51
90.0
 73
     1
 72
     1
 10
175.8516542509982
 20
-110.2199999999999
 11
174.1516542509982
 21
-110.2199999999999
 97
        8
330
3A5
330
375
330
3AF
330
320
330
3AE
330
32E
330
3A6
330
31F
 92
       16
 93
        6
 72
     2
 10
175.0016542509982
 20
-111.9699999999999
 40
0.6500000000000057
 50
90.0
 51
180.0
 73
     1
 72
     1
 10
174.3516542509982
 20
-111.9699999999999
 11
174.3516542509982
 21
-117.65758746051
 72
     2
 10
175.0016542509982
 20
-117.65758746051
 40
0.6500000000000057
 50
180.0
 51
270.0
 73
     1
 72
     2
 10
175.0016542509982
 20
-117.65758746051
 40
0.6500000000000057
 50
270.0
 51
360.0
 73
     1
 72
     1
 10
175.6516542509982
 20
-117.65758746051
 11
175.6516542509982
 21
-111.9699999999999
 72
     2
 10
175.0016542509982
 20
-111.9699999999999
 40
0.6500000000000057
 50
0.0
 51
90.0
 73
     1
 97
        6
330
3C8
330
359
330
3CA
330
3CB
330
358
330
3C9
 75
     1
 76
     0
 52
90.00000000000003
 41
0.15
 77
     0
 78
     1
 53
90.00000000000003
 43
0.0
 44
0.0
 45
-0.15
 46
-0.0000000000000001
 79
     0
 98
        1
 10
0.0
 20
0.0
  0
HATCH
  5
405
330
4F
100
AcDbEntity
  8
1
  6
Continuous
 62
     2
100
AcDbHatch
 10
0.0
 20
0.0
 30
0.0
210
0.0
220
0.0
230
1.0
  2
_USER
 70
     0
 71
     1
 91
        2
 92
        1
 93
        6
 72
     1
 10
193.7516542509982
 20
-111.2199999999999
 11
193.7516542509982
 21
-118.4199999999999
 72
     2
 10
192.7516542509982
 20
-118.4199999999999
 40
1.0
 50
0.0
 51
90.0
 73
     0
 72
     1
 10
192.7516542509982
 20
-119.4199999999999
 11
190.0516542509982
 21
-119.4199999999999
 72
     1
 10
190.0516542509982
 20
-119.4199999999999
 11
190.0516542509982
 21
-110.2199999999999
 72
     1
 10
190.0516542509982
 20
-110.2199999999999
 11
192.7516542509982
 21
-110.2199999999999
 72
     2
 10
192.7516542509982
 20
-111.2199999999999
 40
1.0
 50
270.0
 51
360.0
 73
     0
 97
        6
330
32D
330
32C
330
32F
330
3B0
330
330
330
3AA
 92
       16
 93
        7
 72
     2
 10
191.9016542509982
 20
-111.9699999999999
 40
0.6500000000000057
 50
0.0
 51
90.0
 73
     1
 72
     1
 10
191.9016542509982
 20
-111.3199999999999
 11
191.2516542509982
 21
-111.3199999999999
 72
     1
 10
191.2516542509982
 20
-111.3199999999999
 11
191.2516542509982
 21
-111.9699999999999
 72
     1
 10
191.2516542509982
 20
-111.9699999999999
 11
191.2516542509982
 21
-118.30758746051
 72
     1
 10
191.2516542509982
 20
-118.30758746051
 11
191.9016542509982
 21
-118.30758746051
 72
     2
 10
191.9016542509982
 20
-117.65758746051
 40
0.6500000000000057
 50
270.0
 51
360.0
 73
     1
 72
     1
 10
192.5516542509982
 20
-117.65758746051
 11
192.5516542509982
 21
-111.9699999999999
 97
        7
330
3C2
330
369
330
36A
330
366
330
365
330
3C3
330
364
 75
     1
 76
     0
 52
90.00000000000003
 41
0.15
 77
     0
 78
     1
 53
90.00000000000003
 43
0.0
 44
0.0
 45
-0.15
 46
-0.0000000000000001
 79
     0
 98
        1
 10
0.0
 20
0.0
  0
HATCH
  5
406
330
4F
100
AcDbEntity
  8
1
  6
Continuous
 62
     2
100
AcDbHatch
 10
0.0
 20
0.0
 30
0.0
210
0.0
220
0.0
230
1.0
  2
_USER
 70
     0
 71
     1
 91
        2
 92
        1
 93
       13
 72
     2
 10
155.3161055621215
 20
-115.6535223168009
 40
0.8355765145285912
 50
359.5324065739073
 51
445.9815862299461
 73
     1
 72
     2
 10
155.3000342667233
 20
-113.9710002560295
 40
0.8522732028340286
 50
275.0233190242853
 51
357.7566077588553
 73
     1
 72
     1
 10
156.1516542509982
 20
-114.0043621302671
 11
156.1516542509982
 21
-111.2199999999999
 72
     2
 10
155.1516542509982
 20
-111.2199999999999
 40
1.0
 50
0.0
 51
90.0
 73
     1
 72
     1
 10
155.1516542509982
 20
-110.2199999999999
 11
152.4516542509982
 21
-110.2199999999999
 72
     1
 10
152.4516542509982
 20
-110.2199999999999
 11
152.4516542509982
 21
-119.4199999999999
 72
     1
 10
152.4516542509982
 20
-119.4199999999999
 11
153.6516542509982
 21
-119.4199999999999
 72
     1
 10
153.6516542509982
 20
-119.4199999999999
 11
153.6516542509982
 21
-115.4199999999999
 72
     1
 10
153.6516542509982
 20
-115.4199999999999
 11
154.3016542509982
 21
-115.4199999999999
 72
     2
 10
154.3016542509982
 20
-116.0699999999999
 40
0.6499999999999773
 50
270.0
 51
360.0
 73
     0
 72
     1
 10
154.9516542509982
 20
-116.0699999999999
 11
154.9516542509982
 21
-119.4199999999999
 72
     1
 10
154.9516542509982
 20
-119.4199999999999
 11
156.1516542509982
 21
-119.4199999999999
 72
     1
 10
156.1516542509982
 20
-119.4199999999999
 11
156.1516542509982
 21
-115.6603414185126
 97
       13
330
398
330
397
330
315
330
3A2
330
314
330
313
330
33D
330
355
330
354
330
3B8
330
33B
330
33C
330
316
 92
       16
 93
        6
 72
     2
 10
154.3016542509982
 20
-111.9699999999999
 40
0.6499999999999773
 50
0.0
 51
90.0
 73
     1
 72
     1
 10
154.3016542509982
 20
-111.3199999999999
 11
153.6516542509982
 21
-111.3199999999999
 72
     1
 10
153.6516542509982
 20
-111.3199999999999
 11
153.6516542509982
 21
-114.2199999999999
 72
     1
 10
153.6516542509982
 20
-114.2199999999999
 11
154.3016542509982
 21
-114.2199999999999
 72
     2
 10
154.3016542509982
 20
-113.5699999999999
 40
0.6500000000000057
 50
270.0
 51
360.0
 73
     1
 72
     1
 10
154.9516542509982
 20
-113.5699999999999
 11
154.9516542509982
 21
-111.9699999999999
 97
        6
330
3B7
330
351
330
352
330
353
330
3B9
330
33A
 75
     1
 76
     0
 52
90.00000000000003
 41
0.15
 77
     0
 78
     1
 53
90.00000000000003
 43
0.0
 44
0.0
 45
-0.15
 46
-0.0000000000000001
 79
     0
 98
        1
 10
0.0
 20
0.0
  0
HATCH
  5
407
330
4F
100
AcDbEntity
  8
1
  6
Continuous
 62
     2
100
AcDbHatch
 10
0.0
 20
0.0
 30
0.0
210
0.0
220
0.0
230
1.0
  2
_USER
 70
     0
 71
     1
 91
        1
 92
        1
 93
       23
 72
     1
 10
159.4516542509982
 20
-117.65758746051
 11
159.4516542509982
 21
-115.9199999999999
 72
     1
 10
159.4516542509982
 20
-115.9199999999999
 11
158.9016542509982
 21
-115.9199999999999
 72
     1
 10
158.9016542509982
 20
-115.9199999999999
 11
158.9016542509982
 21
-114.7199999999999
 72
     1
 10
158.9016542509982
 20
-114.7199999999999
 11
159.7415058473918
 21
-114.7199999999999
 72
     1
 10
159.7415058473918
 20
-114.7199999999999
 11
160.6516542509982
 21
-114.7199999999999
 72
     1
 10
160.6516542509982
 20
-114.7199999999999
 11
160.6516542509982
 21
-119.4199999999999
 72
     1
 10
160.6516542509982
 20
-119.4199999999999
 11
160.1516542509982
 21
-119.4199999999999
 72
     1
 10
160.1516542509982
 20
-119.4199999999999
 11
159.8046153744343
 21
-118.8199999999999
 72
     2
 10
158.8327793484388
 20
-118.3331447179281
 40
1.086965191302833
 50
26.60924039545096
 51
90.8147991292736
 73
     0
 72
     1
 10
158.8173222162131
 20
-119.4199999999999
 11
157.9516542509982
 21
-119.4199999999999
 72
     2
 10
157.9516542509982
 20
-118.4199999999999
 40
1.0
 50
90.0
 51
180.0
 73
     0
 72
     1
 10
156.9516542509982
 20
-118.4199999999999
 11
156.9516542509982
 21
-111.2199999999999
 72
     2
 10
157.9516542509982
 20
-111.2199999999999
 40
1.0
 50
180.0
 51
270.0
 73
     0
 72
     1
 10
157.9516542509982
 20
-110.2199999999999
 11
159.6516542509982
 21
-110.2199999999999
 72
     2
 10
159.6516542509982
 20
-111.2199999999999
 40
1.000000000000085
 50
270.0
 51
360.0
 73
     0
 72
     1
 10
160.6516542509983
 20
-111.2199999999999
 11
160.6516542509982
 21
-113.3199999999999
 72
     1
 10
160.6516542509982
 20
-113.3199999999999
 11
159.4516542509982
 21
-113.3199999999999
 72
     1
 10
159.4516542509982
 20
-113.3199999999999
 11
159.4516542509982
 21
-111.9699999999999
 72
     2
 10
158.8016542509982
 20
-111.9699999999999
 40
0.6499999999999773
 50
0.0
 51
90.0
 73
     1
 72
     2
 10
158.8016542509982
 20
-111.9699999999999
 40
0.6500000000000057
 50
90.0
 51
180.0
 73
     1
 72
     1
 10
158.1516542509982
 20
-111.9699999999999
 11
158.1516542509982
 21
-117.65758746051
 72
     2
 10
158.8016542509982
 20
-117.65758746051
 40
0.6500000000000057
 50
180.0
 51
270.0
 73
     1
 72
     2
 10
158.8016542509982
 20
-117.65758746051
 40
0.6500000000000057
 50
270.0
 51
360.0
 73
     1
 97
       23
330
3BC
330
338
330
3BA
330
3BB
330
337
330
319
330
31A
330
3A4
330
317
330
3A3
330
332
330
3B1
330
331
330
399
330
336
330
335
330
318
330
357
330
345
330
346
330
347
330
339
330
3BD
 75
     1
 76
     0
 52
90.00000000000003
 41
0.15
 77
     0
 78
     1
 53
90.00000000000003
 43
0.0
 44
0.0
 45
-0.15
 46
-0.0000000000000001
 79
     0
 98
        1
 10
0.0
 20
0.0
  0
HATCH
  5
408
330
4F
100
AcDbEntity
  8
1
  6
Continuous
 62
     2
100
AcDbHatch
 10
0.0
 20
0.0
 30
0.0
210
0.0
220
0.0
230
1.0
  2
_USER
 70
     0
 71
     1
 91
        1
 92
        1
 93
       22
 72
     1
 10
143.7516542509982
 20
-119.4199999999999
 11
143.2516542509982
 21
-119.4199999999999
 72
     1
 10
143.2516542509982
 20
-119.4199999999999
 11
142.9048783308657
 21
-118.8199999999999
 72
     2
 10
141.9264261003899
 20
-118.3227040643326
 40
1.097575516743276
 50
26.94184191294435
 51
91.2932531058712
 73
     0
 72
     1
 10
141.9016542509982
 20
-119.4199999999999
 11
141.0516542509982
 21
-119.4199999999999
 72
     2
 10
141.0516542509982
 20
-118.4199999999999
 40
1.0
 50
90.0
 51
180.0
 73
     0
 72
     1
 10
140.0516542509982
 20
-118.4199999999999
 11
140.0516542509982
 21
-111.2199999999999
 72
     2
 10
141.0516542509982
 20
-111.2199999999999
 40
1.0
 50
180.0
 51
270.0
 73
     0
 72
     1
 10
141.0516542509982
 20
-110.2199999999999
 11
142.7516542509982
 21
-110.2199999999999
 72
     2
 10
142.7516542509982
 20
-111.2199999999999
 40
1.0
 50
270.0
 51
360.0
 73
     0
 72
     1
 10
143.7516542509982
 20
-111.2199999999999
 11
143.7516542509982
 21
-113.3199999999999
 72
     1
 10
143.7516542509982
 20
-113.3199999999999
 11
142.5516542509982
 21
-113.3199999999999
 72
     1
 10
142.5516542509982
 20
-113.3199999999999
 11
142.5516542509982
 21
-111.9699999999999
 72
     2
 10
141.9016542509982
 20
-111.9699999999999
 40
0.6500000000000057
 50
0.0
 51
90.0
 73
     1
 72
     2
 10
141.9016542509982
 20
-111.9699999999999
 40
0.6500000000000057
 50
90.0
 51
180.0
 73
     1
 72
     1
 10
141.2516542509982
 20
-111.9699999999999
 11
141.2516542509982
 21
-117.65758746051
 72
     2
 10
141.9016542509982
 20
-117.65758746051
 40
0.6500000000000057
 50
180.0
 51
270.0
 73
     1
 72
     2
 10
141.9016542509982
 20
-117.65758746051
 40
0.6500000000000057
 50
270.0
 51
360.0
 73
     1
 72
     1
 10
142.5516542509982
 20
-117.65758746051
 11
142.5516542509982
 21
-115.9199999999999
 72
     1
 10
142.5516542509982
 20
-115.9199999999999
 11
141.9927287849846
 21
-115.9199999999999
 72
     1
 10
141.9927287849846
 20
-115.9199999999999
 11
141.9927287849846
 21
-114.7199999999999
 72
     1
 10
141.9927287849846
 20
-114.7199999999999
 11
143.7516542509982
 21
-114.7199999999999
 72
     1
 10
143.7516542509982
 20
-114.7199999999999
 11
143.7516542509982
 21
-119.4199999999999
 97
       22
330
304
330
305
330
302
330
34D
330
3C1
330
3C0
330
34E
330
3BE
330
3BF
330
34F
330
350
330
307
330
39C
330
334
330
3B2
330
333
330
39D
330
30E
330
396
330
30D
330
306
330
30C
 75
     1
 76
     0
 52
90.00000000000003
 41
0.15
 77
     0
 78
     1
 53
90.00000000000003
 43
0.0
 44
0.0
 45
-0.15
 46
-0.0000000000000001
 79
     0
 98
        1
 10
0.0
 20
0.0
  0
ENDBLK
  5
51
330
4F
100
AcDbEntity
  8
0
100
AcDbBlockEnd
  0
BLOCK
  5
459
330
452
100
AcDbEntity
  8
0
100
AcDbBlockBegin
  2
*D11
 70
     1
 71
     0
 10
0.0
 20
0.0
 30
0.0
  3
*D11
  1

  0
LINE
  5
453
330
452
100
AcDbEntity
  8
1
  6
Continuous
 62
     2
100
AcDbLine
 10
-116.357132
 20
99.4781895161292
 30
0.0
 11
-105.357132
 21
99.4781895161292
 31
0.0
  0
LINE
  5
454
330
452
100
AcDbEntity
  8
1
  6
Continuous
 62
     2
100
AcDbLine
 10
-116.357132
 20
66.993946
 30
0.0
 11
-116.357132
 21
100.4781895161292
 31
0.0
  0
LINE
  5
455
330
452
100
AcDbEntity
  8
1
  6
Continuous
 62
     2
100
AcDbLine
 10
-105.357132
 20
58.24394349999999
 30
0.0
 11
-105.357132
 21
100.4781895161292
 31
0.0
  0
SOLID
  5
456
330
452
100
AcDbEntity
  8
1
 62
     2
100
AcDbTrace
 10
-112.857132
 20
99.93897325768509
 30
0.0
 11
-112.857132
 21
99.01740577457332
 31
0.0
 12
-116.357132
 22
99.4781895161292
 32
0.0
 13
-116.357132
 23
99.4781895161292
 33
0.0
  0
SOLID
  5
457
330
452
100
AcDbEntity
  8
1
 62
     2
100
AcDbTrace
 10
-108.857132
 20
99.01740577457332
 30
0.0
 11
-108.857132
 21
99.93897325768509
 31
0.0
 12
-105.357132
 22
99.4781895161292
 32
0.0
 13
-105.357132
 23
99.4781895161292
 33
0.0
  0
MTEXT
  5
458
330
452
100
AcDbEntity
  8
1
 62
     3
100
AcDbMText
 10
-111.95410483871
 20
101.4781895161292
 30
0.0
 40
3.5
 41
0.0
 71
     7
 72
     1
  1
11
  7
CONVERTER_15
 11
0.9999999999970621
 21
2.424068405545307E-6
 31
0.0
 73
     1
 44
0.60024009603842
  0
ENDBLK
  5
45A
330
452
100
AcDbEntity
  8
0
100
AcDbBlockEnd
  0
BLOCK
  5
464
330
45D
100
AcDbEntity
  8
0
100
AcDbBlockBegin
  2
*D12
 70
     1
 71
     0
 10
0.0
 20
0.0
 30
0.0
  3
*D12
  1

  0
LINE
  5
45E
330
45D
100
AcDbEntity
  8
1
  6
Continuous
 62
     2
100
AcDbLine
 10
-116.357132
 20
131.723447580645
 30
0.0
 11
-6.35713199999999
 21
131.723447580645
 31
0.0
  0
LINE
  5
45F
330
45D
100
AcDbEntity
  8
1
  6
Continuous
 62
     2
100
AcDbLine
 10
-116.357132
 20
66.993946
 30
0.0
 11
-116.357132
 21
132.723447580645
 31
0.0
  0
LINE
  5
460
330
45D
100
AcDbEntity
  8
1
  6
Continuous
 62
     2
100
AcDbLine
 10
-6.35713199999999
 20
71.4939435
 30
0.0
 11
-6.35713199999999
 21
132.723447580645
 31
0.0
  0
SOLID
  5
461
330
45D
100
AcDbEntity
  8
1
 62
     2
100
AcDbTrace
 10
-112.857132
 20
132.1842313222009
 30
0.0
 11
-112.857132
 21
131.2626638390891
 31
0.0
 12
-116.357132
 22
131.723447580645
 32
0.0
 13
-116.357132
 23
131.723447580645
 33
0.0
  0
SOLID
  5
462
330
45D
100
AcDbEntity
  8
1
 62
     2
100
AcDbTrace
 10
-9.85713199999999
 20
131.2626638390891
 30
0.0
 11
-9.85713199999999
 21
132.1842313222009
 31
0.0
 12
-6.35713199999999
 22
131.723447580645
 32
0.0
 13
-6.35713199999999
 23
131.723447580645
 33
0.0
  0
MTEXT
  5
463
330
45D
100
AcDbEntity
  8
1
 62
     3
100
AcDbMText
 10
-66.3011733870974
 20
133.723447580645
 30
0.0
 40
3.5
 41
0.0
 71
     7
 72
     1
  1
k
  7
CONVERTER_15
 11
0.9999999999970621
 21
2.424068405545307E-6
 31
0.0
 73
     1
 44
0.60024009603842
  0
ENDBLK
  5
465
330
45D
100
AcDbEntity
  8
0
100
AcDbBlockEnd
  0
BLOCK
  5
471
330
468
100
AcDbEntity
  8
0
100
AcDbBlockBegin
  2
*D13
 70
     1
 71
     0
 10
0.0
 20
0.0
 30
0.0
  3
*D13
  1

  0
LINE
  5
469
330
468
100
AcDbEntity
  8
1
  6
Continuous
 62
     2
100
AcDbLine
 10
-95.8302737974473
 20
-38.50605700000001
 30
0.0
 11
-95.8302737974473
 21
-29.9133348387829
 31
0.0
  0
LINE
  5
46A
330
468
100
AcDbEntity
  8
1
  6
Continuous
 62
     2
100
AcDbLine
 10
-95.8302737974473
 20
-42.50605700000001
 30
0.0
 11
-95.8302737974473
 21
-38.50605700000001
 31
0.0
  0
LINE
  5
46B
330
468
100
AcDbEntity
  8
1
  6
Continuous
 62
     2
100
AcDbLine
 10
-95.8302737974473
 20
-49.506057
 30
0.0
 11
-95.8302737974473
 21
-42.50605700000001
 31
0.0
  0
LINE
  5
46C
330
468
100
AcDbEntity
  8
1
  6
Continuous
 62
     2
100
AcDbLine
 10
-107.933423
 20
-38.50605700000001
 30
0.0
 11
-94.8302737974473
 21
-38.50605700000001
 31
0.0
  0
LINE
  5
46D
330
468
100
AcDbEntity
  8
1
  6
Continuous
 62
     2
100
AcDbLine
 10
-107.933423
 20
-42.50605700000001
 30
0.0
 11
-94.8302737974473
 21
-42.50605700000001
 31
0.0
  0
SOLID
  5
46E
330
468
100
AcDbEntity
  8
1
 62
     2
100
AcDbTrace
 10
-96.29105753900319
 20
-35.00605700000001
 30
0.0
 11
-95.36949005589142
 21
-35.00605700000001
 31
0.0
 12
-95.8302737974473
 22
-38.50605700000001
 32
0.0
 13
-95.8302737974473
 23
-38.50605700000001
 33
0.0
  0
SOLID
  5
46F
330
468
100
AcDbEntity
  8
1
 62
     2
100
AcDbTrace
 10
-95.36949005589142
 20
-46.00605700000001
 30
0.0
 11
-96.29105753900319
 21
-46.00605700000001
 31
0.0
 12
-95.8302737974473
 22
-42.50605700000001
 32
0.0
 13
-95.8302737974473
 23
-42.50605700000001
 33
0.0
  0
MTEXT
  5
470
330
468
100
AcDbEntity
  8
1
 62
     3
100
AcDbMText
 10
-98.7052737974473
 20
-35.8633348387829
 30
0.0
 40
3.5
 41
0.0
 71
     7
 72
     1
  1
\C3;4\C2;\H2.1;\S^ h9;
  7
CONVERTER_15
 11
0.0
 21
1.0
 31
0.0
 73
     1
 44
0.60024009603842
  0
ENDBLK
  5
472
330
468
100
AcDbEntity
  8
0
100
AcDbBlockEnd
  0
BLOCK
  5
47C
330
475
100
AcDbEntity
  8
0
100
AcDbBlockBegin
  2
*D14
 70
     1
 71
     0
 10
0.0
 20
0.0
 30
0.0
  3
*D14
  1

  0
LINE
  5
476
330
475
100
AcDbEntity
  8
1
  6
Continuous
 62
     2
100
AcDbLine
 10
-120.433763
 20
-28.9959939909253
 30
0.0
 11
-107.933423
 21
-28.9959939909253
 31
0.0
  0
LINE
  5
477
330
475
100
AcDbEntity
  8
1
  6
Continuous
 62
     2
100
AcDbLine
 10
-107.933423
 20
-38.506057
 30
0.0
 11
-107.933423
 21
-27.9959939909253
 31
0.0
  0
LINE
  5
478
330
475
100
AcDbEntity
  8
1
  6
Continuous
 62
     2
100
AcDbLine
 10
-120.433763
 20
-40.506057
 30
0.0
 11
-120.433763
 21
-27.9959939909253
 31
0.0
  0
SOLID
  5
479
330
475
100
AcDbEntity
  8
1
 62
     2
100
AcDbTrace
 10
-111.433423
 20
-29.45677773248119
 30
0.0
 11
-111.433423
 21
-28.53521024936942
 31
0.0
 12
-107.933423
 22
-28.9959939909253
 32
0.0
 13
-107.933423
 23
-28.9959939909253
 33
0.0
  0
SOLID
  5
47A
330
475
100
AcDbEntity
  8
1
 62
     2
100
AcDbTrace
 10
-116.933763
 20
-28.53521024936942
 30
0.0
 11
-116.933763
 21
-29.45677773248119
 31
0.0
 12
-120.433763
 22
-28.9959939909253
 32
0.0
 13
-120.433763
 23
-28.9959939909253
 33
0.0
  0
MTEXT
  5
47B
330
475
100
AcDbEntity
  8
1
 62
     3
100
AcDbMText
 10
-120.304498561809
 20
-25.8584939909253
 30
0.0
 40
3.5
 41
0.0
 71
     7
 72
     1
  1
\C3;12.5\C2;\H2.1;\S^ -0,1;
  7
CONVERTER_15
 11
0.9999999999970621
 21
2.424068405545307E-6
 31
0.0
 73
     1
 44
0.60024009603842
  0
ENDBLK
  5
47D
330
475
100
AcDbEntity
  8
0
100
AcDbBlockEnd
  0
BLOCK
  5
487
330
480
100
AcDbEntity
  8
0
100
AcDbBlockBegin
  2
*D15
 70
     1
 71
     0
 10
0.0
 20
0.0
 30
0.0
  3
*D15
  1

  0
LINE
  5
481
330
480
100
AcDbEntity
  8
1
  6
Continuous
 62
     2
100
AcDbLine
 10
-154.357133
 20
-28.9959939909253
 30
0.0
 11
-138.357133
 21
-28.9959939909253
 31
0.0
  0
LINE
  5
482
330
480
100
AcDbEntity
  8
1
  6
Continuous
 62
     2
100
AcDbLine
 10
-138.357133
 20
-40.506056
 30
0.0
 11
-138.357133
 21
-27.9959939909253
 31
0.0
  0
LINE
  5
483
330
480
100
AcDbEntity
  8
1
  6
Continuous
 62
     2
100
AcDbLine
 10
-154.357133
 20
-40.506056
 30
0.0
 11
-154.357133
 21
-27.9959939909253
 31
0.0
  0
SOLID
  5
484
330
480
100
AcDbEntity
  8
1
 62
     2
100
AcDbTrace
 10
-141.857133
 20
-29.45677773248119
 30
0.0
 11
-141.857133
 21
-28.53521024936941
 31
0.0
 12
-138.357133
 22
-28.9959939909253
 32
0.0
 13
-138.357133
 23
-28.9959939909253
 33
0.0
  0
SOLID
  5
485
330
480
100
AcDbEntity
  8
1
 62
     2
100
AcDbTrace
 10
-150.857133
 20
-28.53521024936941
 30
0.0
 11
-150.857133
 21
-29.45677773248119
 31
0.0
 12
-154.357133
 22
-28.9959939909253
 32
0.0
 13
-154.357133
 23
-28.9959939909253
 33
0.0
  0
MTEXT
  5
486
330
480
100
AcDbEntity
  8
1
 62
     3
100
AcDbMText
 10
-148.052851971172
 20
-26.9959939909253
 30
0.0
 40
3.5
 41
0.0
 71
     7
 72
     1
  1
16
  7
CONVERTER_15
 11
0.9999999999970621
 21
2.424068405545307E-6
 31
0.0
 73
     1
 44
0.60024009603842
  0
ENDBLK
  5
488
330
480
100
AcDbEntity
  8
0
100
AcDbBlockEnd
  0
BLOCK
  5
494
330
48B
100
AcDbEntity
  8
0
100
AcDbBlockBegin
  2
*D16
 70
     1
 71
     0
 10
0.0
 20
0.0
 30
0.0
  3
*D16
  1

  0
LINE
  5
48C
330
48B
100
AcDbEntity
  8
1
  6
Continuous
 62
     2
100
AcDbLine
 10
-154.357133
 20
-28.9959939909253
 30
0.0
 11
-147.357133
 21
-28.9959939909253
 31
0.0
  0
LINE
  5
48D
330
48B
100
AcDbEntity
  8
1
  6
Continuous
 62
     2
100
AcDbLine
 10
-158.357133
 20
-28.9959939909253
 30
0.0
 11
-165.357133
 21
-28.9959939909253
 31
0.0
  0
LINE
  5
48E
330
48B
100
AcDbEntity
  8
1
  6
Continuous
 62
     2
100
AcDbLine
 10
-158.357133
 20
-28.9959939909253
 30
0.0
 11
-154.357133
 21
-28.9959939909253
 31
0.0
  0
LINE
  5
48F
330
48B
100
AcDbEntity
  8
1
  6
Continuous
 62
     2
100
AcDbLine
 10
-154.357133
 20
-40.506056
 30
0.0
 11
-154.357133
 21
-27.9959939909253
 31
0.0
  0
LINE
  5
490
330
48B
100
AcDbEntity
  8
1
  6
Continuous
 62
     2
100
AcDbLine
 10
-158.357133
 20
-38.00605200000001
 30
0.0
 11
-158.357133
 21
-27.9959939909253
 31
0.0
  0
SOLID
  5
491
330
48B
100
AcDbEntity
  8
1
 62
     2
100
AcDbTrace
 10
-161.857133
 20
-29.45677773248119
 30
0.0
 11
-161.857133
 21
-28.53521024936941
 31
0.0
 12
-158.357133
 22
-28.9959939909253
 32
0.0
 13
-158.357133
 23
-28.9959939909253
 33
0.0
  0
SOLID
  5
492
330
48B
100
AcDbEntity
  8
1
 62
     2
100
AcDbTrace
 10
-150.857133
 20
-28.53521024936941
 30
0.0
 11
-150.857133
 21
-29.45677773248119
 31
0.0
 12
-154.357133
 22
-28.9959939909253
 32
0.0
 13
-154.357133
 23
-28.9959939909253
 33
0.0
  0
MTEXT
  5
493
330
48B
100
AcDbEntity
  8
1
 62
     3
100
AcDbMText
 10
-157.536715923541
 20
-26.9959939909253
 30
0.0
 40
3.5
 41
0.0
 71
     7
 72
     1
  1
4
  7
CONVERTER_15
 11
0.9999999999970621
 21
2.424068405545307E-6
 31
0.0
 73
     1
 44
0.60024009603842
  0
ENDBLK
  5
495
330
48B
100
AcDbEntity
  8
0
100
AcDbBlockEnd
  0
BLOCK
  5
49F
330
498
100
AcDbEntity
  8
0
100
AcDbBlockBegin
  2
*D17
 70
     1
 71
     0
 10
0.0
 20
0.0
 30
0.0
  3
*D17
  1

  0
LINE
  5
499
330
498
100
AcDbEntity
  8
1
  6
Continuous
 62
     2
100
AcDbLine
 10
80.06699131120871
 20
121.2919574854353
 30
0.0
 11
108.066242
 21
121.2919574854353
 31
0.0
  0
LINE
  5
49A
330
498
100
AcDbEntity
  8
1
  6
Continuous
 62
     2
100
AcDbLine
 10
80.06699131120871
 20
114.667641882972
 30
0.0
 11
80.06699131120871
 21
122.2919574854353
 31
0.0
  0
LINE
  5
49B
330
498
100
AcDbEntity
  8
1
  6
Continuous
 62
     2
100
AcDbLine
 10
108.066242
 20
115.3889374519707
 30
0.0
 11
108.066242
 21
122.2919574854353
 31
0.0
  0
SOLID
  5
49C
330
498
100
AcDbEntity
  8
1
 62
     2
100
AcDbTrace
 10
83.56699131120871
 20
121.7527412269912
 30
0.0
 11
83.56699131120871
 21
120.8311737438794
 31
0.0
 12
80.06699131120871
 22
121.2919574854353
 32
0.0
 13
80.06699131120871
 23
121.2919574854353
 33
0.0
  0
SOLID
  5
49D
330
498
100
AcDbEntity
  8
1
 62
     2
100
AcDbTrace
 10
104.566242
 20
120.8311737438794
 30
0.0
 11
104.566242
 21
121.7527412269912
 31
0.0
 12
108.066242
 22
121.2919574854353
 32
0.0
 13
108.066242
 23
121.2919574854353
 33
0.0
  0
MTEXT
  5
49E
330
498
100
AcDbEntity
  8
1
 62
     3
100
AcDbMText
 10
91.809375466244
 20
123.2919574854353
 30
0.0
 40
3.5
 41
0.0
 71
     7
 72
     1
  1
28
  7
CONVERTER_15
 11
0.9999999999970621
 21
2.424068405545307E-6
 31
0.0
 73
     1
 44
0.60024009603842
  0
ENDBLK
  5
4A0
330
498
100
AcDbEntity
  8
0
100
AcDbBlockEnd
  0
BLOCK
  5
4AA
330
4A3
100
AcDbEntity
  8
0
100
AcDbBlockBegin
  2
*D18
 70
     1
 71
     0
 10
0.0
 20
0.0
 30
0.0
  3
*D18
  1

  0
LINE
  5
4A4
330
4A3
100
AcDbEntity
  8
1
  6
Continuous
 62
     2
100
AcDbLine
 10
-156.709650004085
 20
6.49394599999999
 30
0.0
 11
-156.709650004085
 21
66.493953
 31
0.0
  0
LINE
  5
4A5
330
4A3
100
AcDbEntity
  8
1
  6
Continuous
 62
     2
100
AcDbLine
 10
-118.857131
 20
66.493953
 30
0.0
 11
-157.709650004085
 21
66.493953
 31
0.0
  0
LINE
  5
4A6
330
4A3
100
AcDbEntity
  8
1
  6
Continuous
 62
     2
100
AcDbLine
 10
-118.357131
 20
6.49394599999999
 30
0.0
 11
-157.709650004085
 21
6.49394599999999
 31
0.0
  0
SOLID
  5
4A7
330
4A3
100
AcDbEntity
  8
1
 62
     2
100
AcDbTrace
 10
-157.1704337456409
 20
9.99394599999999
 30
0.0
 11
-156.2488662625291
 21
9.99394599999999
 31
0.0
 12
-156.709650004085
 22
6.49394599999999
 32
0.0
 13
-156.709650004085
 23
6.49394599999999
 33
0.0
  0
SOLID
  5
4A8
330
4A3
100
AcDbEntity
  8
1
 62
     2
100
AcDbTrace
 10
-156.2488662625291
 20
62.993953
 30
0.0
 11
-157.1704337456409
 21
62.993953
 31
0.0
 12
-156.709650004085
 22
66.493953
 32
0.0
 13
-156.709650004085
 23
66.493953
 33
0.0
  0
MTEXT
  5
4A9
330
4A3
100
AcDbEntity
  8
1
 62
     3
100
AcDbMText
 10
-160.372150004085
 20
28.13021939742709
 30
0.0
 40
3.5
 41
0.0
 71
     7
 72
     1
  1
\C3;{\Fgdt;n}\C3;\C3;60\C2;\H2.1;\S^ j6;
  7
CONVERTER_15
 11
0.0
 21
1.0
 31
0.0
 73
     1
 44
0.60024009603842
  0
ENDBLK
  5
4AB
330
4A3
100
AcDbEntity
  8
0
100
AcDbBlockEnd
  0
BLOCK
  5
4B7
330
4AE
100
AcDbEntity
  8
0
100
AcDbBlockBegin
  2
*D19
 70
     1
 71
     0
 10
0.0
 20
0.0
 30
0.0
  3
*D19
  1

  0
LINE
  5
4AF
330
4AE
100
AcDbEntity
  8
1
  6
Continuous
 62
     2
100
AcDbLine
 10
-118.85713
 20
79.13117775736
 30
0.0
 11
-128.795241424611
 21
79.13117775736
 31
0.0
  0
LINE
  5
4B0
330
4AE
100
AcDbEntity
  8
1
  6
Continuous
 62
     2
100
AcDbLine
 10
-118.85713
 20
79.13117775736
 30
0.0
 11
-116.357132
 21
79.13117775736
 31
0.0
  0
LINE
  5
4B1
330
4AE
100
AcDbEntity
  8
1
  6
Continuous
 62
     2
100
AcDbLine
 10
-109.357132
 20
79.13117775736
 30
0.0
 11
-116.357132
 21
79.13117775736
 31
0.0
  0
LINE
  5
4B2
330
4AE
100
AcDbEntity
  8
1
  6
Continuous
 62
     2
100
AcDbLine
 10
-116.357132
 20
66.993946
 30
0.0
 11
-116.357132
 21
80.13117775736
 31
0.0
  0
LINE
  5
4B3
330
4AE
100
AcDbEntity
  8
1
  6
Continuous
 62
     2
100
AcDbLine
 10
-118.85713
 20
66.359974
 30
0.0
 11
-118.85713
 21
80.13117775736
 31
0.0
  0
SOLID
  5
4B4
330
4AE
100
AcDbEntity
  8
1
 62
     2
100
AcDbTrace
 10
-112.857132
 20
79.5919614989159
 30
0.0
 11
-112.857132
 21
78.67039401580412
 31
0.0
 12
-116.357132
 22
79.13117775736
 32
0.0
 13
-116.357132
 23
79.13117775736
 33
0.0
  0
SOLID
  5
4B5
330
4AE
100
AcDbEntity
  8
1
 62
     2
100
AcDbTrace
 10
-122.35713
 20
78.67039401580412
 30
0.0
 11
-122.35713
 21
79.5919614989159
 31
0.0
 12
-118.85713
 22
79.13117775736
 32
0.0
 13
-118.85713
 23
79.13117775736
 33
0.0
  0
MTEXT
  5
4B6
330
4AE
100
AcDbEntity
  8
1
 62
     3
100
AcDbMText
 10
-128.795241424611
 20
81.13117775736
 30
0.0
 40
3.5
 41
0.0
 71
     7
 72
     1
  1
2.5
  7
CONVERTER_15
 11
0.9999999999970621
 21
2.424068405545307E-6
 31
0.0
 73
     1
 44
0.60024009603842
  0
ENDBLK
  5
4B8
330
4AE
100
AcDbEntity
  8
0
100
AcDbBlockEnd
  0
BLOCK
  5
4C2
330
4BB
100
AcDbEntity
  8
0
100
AcDbBlockBegin
  2
*D20
 70
     1
 71
     0
 10
0.0
 20
0.0
 30
0.0
  3
*D20
  1

  0
LINE
  5
4BC
330
4BB
100
AcDbEntity
  8
1
  6
Continuous
 62
     2
100
AcDbLine
 10
147.744804028436
 20
1.11894700000002
 30
0.0
 11
147.744804028436
 21
113.1189309999999
 31
0.0
  0
LINE
  5
4BD
330
4BB
100
AcDbEntity
  8
1
  6
Continuous
 62
     2
100
AcDbLine
 10
108.066242
 20
113.1189309999999
 30
0.0
 11
148.744804028436
 21
113.1189309999999
 31
0.0
  0
LINE
  5
4BE
330
4BB
100
AcDbEntity
  8
1
  6
Continuous
 62
     2
100
AcDbLine
 10
121.8800747071555
 20
1.11894700000002
 30
0.0
 11
148.744804028436
 21
1.11894700000002
 31
0.0
  0
SOLID
  5
4BF
330
4BB
100
AcDbEntity
  8
1
 62
     2
100
AcDbTrace
 10
148.2055877699919
 20
109.6189309999999
 30
0.0
 11
147.2840202868801
 21
109.6189309999999
 31
0.0
 12
147.744804028436
 22
113.1189309999999
 32
0.0
 13
147.744804028436
 23
113.1189309999999
 33
0.0
  0
SOLID
  5
4C0
330
4BB
100
AcDbEntity
  8
1
 62
     2
100
AcDbTrace
 10
147.2840202868801
 20
4.61894700000002
 30
0.0
 11
148.2055877699919
 21
4.61894700000002
 31
0.0
 12
147.744804028436
 22
1.11894700000002
 32
0.0
 13
147.744804028436
 23
1.11894700000002
 33
0.0
  0
MTEXT
  5
4C1
330
4BB
100
AcDbEntity
  8
1
 62
     3
100
AcDbMText
 10
145.744804028436
 20
50.97270549065079
 30
0.0
 40
3.5
 41
0.0
 71
     7
 72
     1
  1
112
  7
CONVERTER_15
 11
0.0
 21
1.0
 31
0.0
 73
     1
 44
0.60024009603842
  0
ENDBLK
  5
4C3
330
4BB
100
AcDbEntity
  8
0
100
AcDbBlockEnd
  0
BLOCK
  5
4CD
330
4C6
100
AcDbEntity
  8
0
100
AcDbBlockBegin
  2
*D21
 70
     1
 71
     0
 10
0.0
 20
0.0
 30
0.0
  3
*D21
  1

  0
LINE
  5
4C7
330
4C6
100
AcDbEntity
  8
1
  6
Continuous
 62
     2
100
AcDbLine
 10
-147.243516418739
 20
30.99394000000001
 30
0.0
 11
-147.243516418739
 21
41.99394699999999
 31
0.0
  0
LINE
  5
4C8
330
4C6
100
AcDbEntity
  8
1
  6
Continuous
 62
     2
100
AcDbLine
 10
-139.0887864335176
 20
41.99394699999999
 30
0.0
 11
-148.243516418739
 21
41.99394699999999
 31
0.0
  0
LINE
  5
4C9
330
4C6
100
AcDbEntity
  8
1
  6
Continuous
 62
     2
100
AcDbLine
 10
-139.0887864335175
 20
30.99394000000001
 30
0.0
 11
-148.243516418739
 21
30.99394000000001
 31
0.0
  0
SOLID
  5
4CA
330
4C6
100
AcDbEntity
  8
1
 62
     2
100
AcDbTrace
 10
-146.7827326771831
 20
38.49394699999999
 30
0.0
 11
-147.7043001602949
 21
38.49394699999999
 31
0.0
 12
-147.243516418739
 22
41.99394699999999
 32
0.0
 13
-147.243516418739
 23
41.99394699999999
 33
0.0
  0
SOLID
  5
4CB
330
4C6
100
AcDbEntity
  8
1
 62
     2
100
AcDbTrace
 10
-147.7043001602949
 20
34.49394000000001
 30
0.0
 11
-146.7827326771831
 21
34.49394000000001
 31
0.0
 12
-147.243516418739
 22
30.99394000000001
 32
0.0
 13
-147.243516418739
 23
30.99394000000001
 33
0.0
  0
MTEXT
  5
4CC
330
4C6
100
AcDbEntity
  8
1
 62
     3
100
AcDbMText
 10
-150.118516418739
 20
29.4229604424537
 30
0.0
 40
3.5
 41
0.0
 71
     7
 72
     1
  1
\C3;{\Fgdt;n}\C3;\C3;11\C2;\H2.1;\S^ k5;
  7
CONVERTER_15
 11
0.0
 21
1.0
 31
0.0
 73
     1
 44
0.60024009603842
  0
ENDBLK
  5
4CE
330
4C6
100
AcDbEntity
  8
0
100
AcDbBlockEnd
  0
BLOCK
  5
4D8
330
4D1
100
AcDbEntity
  8
0
100
AcDbBlockBegin
  2
*D22
 70
     1
 71
     0
 10
0.0
 20
0.0
 30
0.0
  3
*D22
  1

  0
LINE
  5
4D2
330
4D1
100
AcDbEntity
  8
1
  6
Continuous
 62
     2
100
AcDbLine
 10
-139.357133
 20
121.2919574854353
 30
0.0
 11
-116.357132
 21
121.2919574854353
 31
0.0
  0
LINE
  5
4D3
330
4D1
100
AcDbEntity
  8
1
  6
Continuous
 62
     2
100
AcDbLine
 10
-116.357132
 20
71.49393800000001
 30
0.0
 11
-116.357132
 21
122.2919574854353
 31
0.0
  0
LINE
  5
4D4
330
4D1
100
AcDbEntity
  8
1
  6
Continuous
 62
     2
100
AcDbLine
 10
-139.357133
 20
38.99394799999999
 30
0.0
 11
-139.357133
 21
122.2919574854353
 31
0.0
  0
SOLID
  5
4D5
330
4D1
100
AcDbEntity
  8
1
 62
     2
100
AcDbTrace
 10
-135.857133
 20
121.7527412269912
 30
0.0
 11
-135.857133
 21
120.8311737438794
 31
0.0
 12
-139.357133
 22
121.2919574854353
 32
0.0
 13
-139.357133
 23
121.2919574854353
 33
0.0
  0
SOLID
  5
4D6
330
4D1
100
AcDbEntity
  8
1
 62
     2
100
AcDbTrace
 10
-119.857132
 20
120.8311737438794
 30
0.0
 11
-119.857132
 21
121.7527412269912
 31
0.0
 12
-116.357132
 22
121.2919574854353
 32
0.0
 13
-116.357132
 23
121.2919574854353
 33
0.0
  0
MTEXT
  5
4D7
330
4D1
100
AcDbEntity
  8
1
 62
     3
100
AcDbMText
 10
-129.911914545427
 20
123.2919574854353
 30
0.0
 40
3.5
 41
0.0
 71
     7
 72
     1
  1
23
  7
CONVERTER_15
 11
0.9999999999970621
 21
2.424068405545307E-6
 31
0.0
 73
     1
 44
0.60024009603842
  0
ENDBLK
  5
4D9
330
4D1
100
AcDbEntity
  8
0
100
AcDbBlockEnd
  0
BLOCK
  5
4E3
330
4DC
100
AcDbEntity
  8
0
100
AcDbBlockBegin
  2
*D23
 70
     1
 71
     0
 10
0.0
 20
0.0
 30
0.0
  3
*D23
  1

  0
LINE
  5
4DD
330
4DC
100
AcDbEntity
  8
1
  6
Continuous
 62
     2
100
AcDbLine
 10
59.0662371513405
 20
132.334332115808
 30
0.0
 11
129.0662368486595
 21
132.334332115808
 31
0.0
  0
LINE
  5
4DE
330
4DC
100
AcDbEntity
  8
1
  6
Continuous
 62
     2
100
AcDbLine
 10
129.0662368486595
 20
64.7782128437459
 30
0.0
 11
129.0662368486595
 21
133.334332115808
 31
0.0
  0
LINE
  5
4DF
330
4DC
100
AcDbEntity
  8
1
  6
Continuous
 62
     2
100
AcDbLine
 10
59.0662371513405
 20
64.77821284374599
 30
0.0
 11
59.0662371513405
 21
133.334332115808
 31
0.0
  0
SOLID
  5
4E0
330
4DC
100
AcDbEntity
  8
1
 62
     2
100
AcDbTrace
 10
125.5662368486595
 20
131.8735483742521
 30
0.0
 11
125.5662368486595
 21
132.7951158573639
 31
0.0
 12
129.0662368486595
 22
132.334332115808
 32
0.0
 13
129.0662368486595
 23
132.334332115808
 33
0.0
  0
SOLID
  5
4E1
330
4DC
100
AcDbEntity
  8
1
 62
     2
100
AcDbTrace
 10
62.5662371513405
 20
132.7951158573639
 30
0.0
 11
62.5662371513405
 21
131.8735483742521
 31
0.0
 12
59.0662371513405
 22
132.334332115808
 32
0.0
 13
59.0662371513405
 23
132.334332115808
 33
0.0
  0
MTEXT
  5
4E2
330
4DC
100
AcDbEntity
  8
1
 62
     3
100
AcDbMText
 10
87.55563442123486
 20
134.3343182016553
 30
0.0
 40
3.5
 41
0.0
 71
     7
 72
     1
  1
\C3;{\Fgdt;8}\C3;70
  7
CONVERTER_15
 11
0.9999999999970621
 21
2.424068405545307E-6
 31
0.0
 73
     1
 44
0.60024009603842
  0
ENDBLK
  5
4E4
330
4DC
100
AcDbEntity
  8
0
100
AcDbBlockEnd
  0
BLOCK
  5
4EE
330
4E7
100
AcDbEntity
  8
0
100
AcDbBlockBegin
  2
*D24
 70
     1
 71
     0
 10
0.0
 20
0.0
 30
0.0
  3
*D24
  1

  0
LINE
  5
4E8
330
4E7
100
AcDbEntity
  8
1
  6
Continuous
 62
     2
100
AcDbLine
 10
-30.35713199999991
 20
121.2919574854353
 30
0.0
 11
-116.357132
 21
121.2919574854353
 31
0.0
  0
LINE
  5
4E9
330
4E7
100
AcDbEntity
  8
1
  6
Continuous
 62
     2
100
AcDbLine
 10
-30.35713199999991
 20
116.4174250884362
 30
0.0
 11
-30.35713199999991
 21
122.2919574854353
 31
0.0
  0
LINE
  5
4EA
330
4E7
100
AcDbEntity
  8
1
  6
Continuous
 62
     2
100
AcDbLine
 10
-116.357132
 20
71.49393800000001
 30
0.0
 11
-116.357132
 21
122.2919574854353
 31
0.0
  0
SOLID
  5
4EB
330
4E7
100
AcDbEntity
  8
1
 62
     2
100
AcDbTrace
 10
-33.85713199999991
 20
120.8311737438794
 30
0.0
 11
-33.85713199999991
 21
121.7527412269912
 31
0.0
 12
-30.35713199999991
 22
121.2919574854353
 32
0.0
 13
-30.35713199999991
 23
121.2919574854353
 33
0.0
  0
SOLID
  5
4EC
330
4E7
100
AcDbEntity
  8
1
 62
     2
100
AcDbTrace
 10
-112.857132
 20
121.7527412269912
 30
0.0
 11
-112.857132
 21
120.8311737438794
 31
0.0
 12
-116.357132
 22
121.2919574854353
 32
0.0
 13
-116.357132
 23
121.2919574854353
 33
0.0
  0
MTEXT
  5
4ED
330
4E7
100
AcDbEntity
  8
1
 62
     3
100
AcDbMText
 10
-73.52392329382921
 20
124.3419574854353
 30
0.0
 40
3.5
 41
0.0
 71
     7
 72
     1
  1
q
  7
CONVERTER_15
 11
0.9999999999970621
 21
2.424068405545307E-6
 31
0.0
 73
     1
 44
0.60024009603842
  0
ENDBLK
  5
4EF
330
4E7
100
AcDbEntity
  8
0
100
AcDbBlockEnd
  0
BLOCK
  5
4F9
330
4F2
100
AcDbEntity
  8
0
100
AcDbBlockBegin
  2
*D25
 70
     1
 71
     0
 10
0.0
 20
0.0
 30
0.0
  3
*D25
  1

  0
LINE
  5
4F3
330
4F2
100
AcDbEntity
  8
1
  6
Continuous
 62
     2
100
AcDbLine
 10
-139.357133
 20
45.20920915694251
 30
0.0
 11
-116.357133
 21
45.20920915694251
 31
0.0
  0
LINE
  5
4F4
330
4F2
100
AcDbEntity
  8
1
  6
Continuous
 62
     2
100
AcDbLine
 10
-116.357133
 20
42.2439435
 30
0.0
 11
-116.357133
 21
46.20920915694251
 31
0.0
  0
LINE
  5
4F5
330
4F2
100
AcDbEntity
  8
1
  6
Continuous
 62
     2
100
AcDbLine
 10
-139.357133
 20
41.49394100000001
 30
0.0
 11
-139.357133
 21
46.20920915694251
 31
0.0
  0
SOLID
  5
4F6
330
4F2
100
AcDbEntity
  8
1
 62
     2
100
AcDbTrace
 10
-135.857133
 20
45.66999289849839
 30
0.0
 11
-135.857133
 21
44.74842541538662
 31
0.0
 12
-139.357133
 22
45.20920915694251
 32
0.0
 13
-139.357133
 23
45.20920915694251
 33
0.0
  0
SOLID
  5
4F7
330
4F2
100
AcDbEntity
  8
1
 62
     2
100
AcDbTrace
 10
-119.857133
 20
44.74842541538662
 30
0.0
 11
-119.857133
 21
45.66999289849839
 31
0.0
 12
-116.357133
 22
45.20920915694251
 32
0.0
 13
-116.357133
 23
45.20920915694251
 33
0.0
  0
MTEXT
  5
4F8
330
4F2
100
AcDbEntity
  8
1
 62
     3
100
AcDbMText
 10
-130.052663116857
 20
47.20920915694251
 30
0.0
 40
3.5
 41
0.0
 71
     7
 72
     1
  1
23
  7
CONVERTER_15
 11
0.9999999999970621
 21
2.424068405545307E-6
 31
0.0
 73
     1
 44
0.60024009603842
  0
ENDBLK
  5
4FA
330
4F2
100
AcDbEntity
  8
0
100
AcDbBlockEnd
  0
BLOCK
  5
502
330
4FD
100
AcDbEntity
  8
0
100
AcDbBlockBegin
  2
*D26
 70
     1
 71
     0
 10
0.0
 20
0.0
 30
0.0
  3
*D26
  1

  0
LINE
  5
4FE
330
4FD
100
AcDbEntity
  8
1
  6
Continuous
 62
     2
100
AcDbLine
 10
48.29912615682938
 20
18.62144495059482
 30
0.0
 11
57.50100748338582
 21
27.82332627715125
 31
0.0
  0
LINE
  5
4FF
330
4FD
100
AcDbEntity
  8
1
  6
Continuous
 62
     2
100
AcDbLine
 10
62.2464325537121
 20
4.67413855371211
 30
0.0
 11
47.59201937564283
 21
19.32855173178137
 31
0.0
  0
SOLID
  5
500
330
4FD
100
AcDbEntity
  8
1
 62
     2
100
AcDbTrace
 10
50.44817658266762
 20
21.42214199306241
 30
0.0
 11
51.09982319929697
 21
20.77049537643306
 31
0.0
 12
48.29912615682938
 22
18.62144495059482
 32
0.0
 13
48.29912615682938
 23
18.62144495059482
 33
0.0
  0
MTEXT
  5
501
330
4FD
100
AcDbEntity
  8
1
 62
     3
100
AcDbMText
 10
49.05815251601847
 20
22.20889843453005
 30
0.0
 40
3.5
 41
0.0
 71
     7
 72
     1
  1
\C3;{\Fgdt;n}\C3;90
  7
CONVERTER_15
 11
0.7071067811865479
 21
0.7071067811865472
 31
0.0
 73
     1
 44
0.60024009603842
  0
ENDBLK
  5
503
330
4FD
100
AcDbEntity
  8
0
100
AcDbBlockEnd
  0
BLOCK
  5
50A
330
505
100
AcDbEntity
  8
0
100
AcDbBlockBegin
  2
*D27
 70
     1
 71
     0
 10
0.0
 20
0.0
 30
0.0
  3
*D27
  1

  0
LINE
  5
506
330
505
100
AcDbEntity
  8
1
  6
Continuous
 62
     2
100
AcDbLine
 10
126.6488714936295
 20
17.92994748571085
 30
0.0
 11
61.48360250637054
 21
55.05793851428916
 31
0.0
  0
SOLID
  5
507
330
505
100
AcDbEntity
  8
1
 62
     2
100
AcDbTrace
 10
64.75275472074398
 20
53.72566021913477
 30
0.0
 11
64.29654206414128
 21
52.92493764677624
 31
0.0
 12
61.48360250637054
 22
55.05793851428916
 32
0.0
 13
61.48360250637054
 23
55.05793851428916
 33
0.0
  0
SOLID
  5
508
330
505
100
AcDbEntity
  8
1
 62
     2
100
AcDbTrace
 10
123.379719279256
 20
19.26222578086525
 30
0.0
 11
123.8359319358587
 21
20.06294835322378
 31
0.0
 12
126.6488714936295
 22
17.92994748571085
 32
0.0
 13
126.6488714936295
 23
17.92994748571085
 33
0.0
  0
MTEXT
  5
509
330
505
100
AcDbEntity
  8
1
 62
     3
100
AcDbMText
 10
72.92158165871062
 20
50.84297567255131
 30
0.0
 40
3.5
 41
0.0
 71
     7
 72
     1
  1
\C3;{\Fgdt;n}\C3;75
  7
CONVERTER_15
 11
0.8688702531634522
 21
-0.4950398803810441
 31
0.0
 73
     1
 44
0.60024009603842
  0
ENDBLK
  5
50B
330
505
100
AcDbEntity
  8
0
100
AcDbBlockEnd
  0
BLOCK
  5
516
330
50D
100
AcDbEntity
  8
0
100
AcDbBlockBegin
  2
*D28
 70
     1
 71
     0
 10
0.0
 20
0.0
 30
0.0
  3
*D28
  1

  0
LINE
  5
50E
330
50D
100
AcDbEntity
  8
1
  6
Continuous
 62
     2
100
AcDbLine
 10
123.2844212660282
 20
-8.50492021617602
 30
0.0
 11
136.0624343149115
 21
-8.53833338021417
 31
0.0
  0
LINE
  5
50F
330
50D
100
AcDbEntity
  8
1
  6
Continuous
 62
     2
100
AcDbLine
 10
117.7844400695422
 20
-8.49053834215367
 30
0.0
 11
123.2844212660282
 21
-8.50492021617602
 31
0.0
  0
LINE
  5
510
330
50D
100
AcDbEntity
  8
1
  6
Continuous
 62
     2
100
AcDbLine
 10
110.7844640012873
 20
-8.4722341388525
 30
0.0
 11
117.7844400695422
 21
-8.49053834215367
 31
0.0
  0
LINE
  5
511
330
50D
100
AcDbEntity
  8
1
  6
Continuous
 62
     2
100
AcDbLine
 10
117.8327506962525
 20
9.98462964251565
 30
0.0
 11
117.7818251833563
 21
-9.49053492333294
 31
0.0
  0
LINE
  5
512
330
50D
100
AcDbEntity
  8
1
  6
Continuous
 62
     2
100
AcDbLine
 10
123.3327318927385
 20
9.9702477684933
 30
0.0
 11
123.2818063798423
 21
-9.50491679735529
 31
0.0
  0
SOLID
  5
513
330
50D
100
AcDbEntity
  8
1
 62
     2
100
AcDbTrace
 10
114.2832471383743
 20
-8.94216840672197
 30
0.0
 11
114.2856569324552
 21
-8.02060407428421
 31
0.0
 12
117.7844400695422
 22
-8.49053834215367
 32
0.0
 13
117.7844400695422
 23
-8.49053834215367
 33
0.0
  0
SOLID
  5
514
330
50D
100
AcDbEntity
  8
1
 62
     2
100
AcDbTrace
 10
126.7856141971962
 20
-8.05329015160772
 30
0.0
 11
126.7832044031152
 21
-8.97485448404548
 31
0.0
 12
123.2844212660282
 22
-8.50492021617602
 32
0.0
 13
123.2844212660282
 23
-8.50492021617602
 33
0.0
  0
MTEXT
  5
515
330
50D
100
AcDbEntity
  8
1
 62
     3
100
AcDbMText
 10
125.2177011814882
 20
-6.50996870273881
 30
0.0
 40
3.5
 41
0.0
 71
     7
 72
     1
  1
\C3;{\Fgdt;n}\C3;5.5
  7
CONVERTER_15
 11
0.9999965811792733
 21
-0.002614886185881326
 31
0.0
 73
     1
 44
0.60024009603842
  0
ENDBLK
  5
517
330
50D
100
AcDbEntity
  8
0
100
AcDbBlockEnd
  0
BLOCK
  5
522
330
519
100
AcDbEntity
  8
0
100
AcDbBlockBegin
  2
*D29
 70
     1
 71
     0
 10
0.0
 20
0.0
 30
0.0
  3
*D29
  1

  0
LINE
  5
51A
330
519
100
AcDbEntity
  8
1
  6
Continuous
 62
     2
100
AcDbLine
 10
94.066237
 20
-5.17817555702101
 30
0.0
 11
94.066237
 21
-12.49487023194896
 31
0.0
  0
LINE
  5
51B
330
519
100
AcDbEntity
  8
1
  6
Continuous
 62
     2
100
AcDbLine
 10
64.1922398214855
 20
6.61994582148549
 30
0.0
 11
59.42591496140763
 21
1.85362096140761
 31
0.0
  0
LINE
  5
51C
330
519
100
AcDbEntity
  8
1
  6
Continuous
 62
     2
100
AcDbLine
 10
94.066237
 20
-12.49487023194896
 30
0.0
 11
94.066237
 21
-13.49487023194896
 31
0.0
  0
LINE
  5
51D
330
519
100
AcDbEntity
  8
1
  6
Continuous
 62
     2
100
AcDbLine
 10
59.42591496140763
 20
1.85362096140761
 30
0.0
 11
58.71880818022109
 21
1.14651418022106
 31
0.0
  0
ARC
  5
51E
330
519
100
AcDbEntity
  8
1
  6
Continuous
 62
     2
100
AcDbCircle
 10
94.066237
 20
36.49394300000002
 30
0.0
 40
48.98881323194897
100
AcDbArc
 50
-135.0
 51
-90.0
  0
SOLID
  5
51F
330
519
100
AcDbEntity
  8
1
 62
     2
100
AcDbTrace
 10
62.30157822026757
 20
-0.19403195794303
 30
0.0
 11
61.67362079756332
 21
-0.86853629536392
 31
0.0
 12
59.42591496140763
 22
1.85362096140761
 32
0.0
 13
59.42591496140763
 23
1.85362096140761
 33
0.0
  0
SOLID
  5
520
330
519
100
AcDbEntity
  8
1
 62
     2
100
AcDbTrace
 10
90.55201310542242
 20
-12.83035804881002
 30
0.0
 11
90.58492674446185
 21
-11.90937850598936
 31
0.0
 12
94.066237
 22
-12.49487023194896
 32
0.0
 13
94.066237
 23
-12.49487023194896
 33
0.0
  0
MTEXT
  5
521
330
519
100
AcDbEntity
  8
1
 62
     3
100
AcDbMText
 10
75.25614809292732
 20
-6.67567043647871
 30
0.0
 40
3.5
 41
0.0
 71
     7
 72
     1
  1
45{\Fgdt;~}
  7
CONVERTER_15
 11
0.9409177748679232
 21
-0.3386351147438734
 31
0.0
 73
     1
 44
0.60024009603842
  0
ENDBLK
  5
523
330
519
100
AcDbEntity
  8
0
100
AcDbBlockEnd
  0
ENDSEC
  0
SECTION
  2
ENTITIES
  0
INSERT
  5
52
330
1F
100
AcDbEntity
  8
1
100
AcDbBlockReference
  2
M3x10_DIN_84
 10
-27.90713
 20
72.3689149604873
 30
0.0
  0
INSERT
  5
53
330
1F
100
AcDbEntity
  8
0
100
AcDbBlockReference
  2
Winkelflanschdose_8-polig_drehbar
 10
360.746688887328
 20
144.800892248901
 30
0.0
  0
INSERT
  5
54
330
1F
100
AcDbEntity
  8
1
100
AcDbBlockReference
  2
M2_5x6_DIN_7985
 10
-24.756608
 20
74.8689187191097
 30
0.0
  0
INSERT
  5
55
330
1F
100
AcDbEntity
  8
1
100
AcDbBlockReference
  2
Steckerplatte
 10
-28.10713000000001
 20
69.63118800000001
 30
0.0
  0
INSERT
  5
56
330
1F
100
AcDbEntity
  8
1
100
AcDbBlockReference
  2
Lagerschild_B-Seite
 10
-39.357133
 20
1.11894699999999
 30
0.0
  0
INSERT
  5
57
330
1F
100
AcDbEntity
  8
0
100
AcDbBlockReference
  2
Winkelflanschdose_12-polig_drehbar
 10
328.8757286191631
 20
180.008929317636
 30
0.0
  0
INSERT
  5
58
330
1F
100
AcDbEntity
  8
0
100
AcDbBlockReference
  2
Rotor
 10
-93.9699995878999
 20
-139.8445518022832
 30
0.0
  0
INSERT
  5
59
330
1F
100
AcDbEntity
  8
0
100
AcDbBlockReference
  2
Flachlagerschild_B5_A90
 10
-77.8409087114539
 20
-205.1936780950078
 30
0.0
  0
INSERT
  5
5A
330
1F
100
AcDbEntity
  8
1
100
AcDbBlockReference
  2
tb_frame_A3
 10
0.0
 20
0.0
 30
0.0
  0
POINT
  5
409
330
1F
100
AcDbEntity
  8
1
 62
     3
 60
     1
100
AcDbPoint
 10
-6.98994354838658
 20
-79.51000000000022
 30
0.0
  0
POINT
  5
40A
330
1F
100
AcDbEntity
  8
1
 62
     3
 60
     1
100
AcDbPoint
 10
30.01005645161332
 20
-79.51000000000022
 30
0.0
  0
POINT
  5
40B
330
1F
100
AcDbEntity
  8
1
 62
     3
 60
     1
100
AcDbPoint
 10
89.01005645161314
 20
-79.51000000000022
 30
0.0
  0
POINT
  5
40C
330
1F
100
AcDbEntity
  8
1
 62
     3
 60
     1
100
AcDbPoint
 10
126.010056451613
 20
-79.51000000000022
 30
0.0
  0
POINT
  5
40D
330
1F
100
AcDbEntity
  8
1
 62
     3
 60
     1
100
AcDbPoint
 10
185.0100564516128
 20
-79.51000000000022
 30
0.0
  0
POINT
  5
40E
330
1F
100
AcDbEntity
  8
1
 62
     3
 60
     1
100
AcDbPoint
 10
201.010056451613
 20
-79.51000000000022
 30
0.0
  0
POINT
  5
40F
330
1F
100
AcDbEntity
  8
1
 62
     3
 60
     1
100
AcDbPoint
 10
-72.98994354838658
 20
-79.51000000000022
 30
0.0
  0
LINE
  5
410
330
1F
100
AcDbEntity
  8
1
  6
Continuous
 62
     2
100
AcDbLine
 10
-6.98994354838658
 20
-70.51000000000022
 30
0.0
 11
30.01005645161332
 21
-70.51000000000022
 31
0.0
  0
LINE
  5
411
330
1F
100
AcDbEntity
  8
1
  6
Continuous
 62
     7
100
AcDbLine
 10
-6.98994354838658
 20
-79.51000000000022
 30
0.0
 11
30.01005645161332
 21
-79.51000000000022
 31
0.0
  0
LINE
  5
412
330
1F
100
AcDbEntity
  8
1
  6
Continuous
 62
     2
100
AcDbLine
 10
-6.98994354838658
 20
-70.51000000000022
 30
0.0
 11
-6.98994354838658
 21
-79.51000000000022
 31
0.0
  0
LINE
  5
413
330
1F
100
AcDbEntity
  8
1
  6
Continuous
 62
     2
100
AcDbLine
 10
30.01005645161332
 20
-70.51000000000022
 30
0.0
 11
89.01005645161312
 21
-70.51000000000022
 31
0.0
  0
LINE
  5
414
330
1F
100
AcDbEntity
  8
1
  6
Continuous
 62
     7
100
AcDbLine
 10
30.01005645161332
 20
-79.51000000000022
 30
0.0
 11
89.01005645161314
 21
-79.51000000000022
 31
0.0
  0
LINE
  5
415
330
1F
100
AcDbEntity
  8
1
  6
Continuous
 62
     2
100
AcDbLine
 10
30.01005645161332
 20
-70.51000000000022
 30
0.0
 11
30.01005645161332
 21
-79.51000000000022
 31
0.0
  0
LINE
  5
416
330
1F
100
AcDbEntity
  8
1
  6
Continuous
 62
     2
100
AcDbLine
 10
89.01005645161312
 20
-70.51000000000022
 30
0.0
 11
126.010056451613
 21
-70.51000000000022
 31
0.0
  0
LINE
  5
417
330
1F
100
AcDbEntity
  8
1
  6
Continuous
 62
     7
100
AcDbLine
 10
89.01005645161314
 20
-79.51000000000022
 30
0.0
 11
126.010056451613
 21
-79.51000000000022
 31
0.0
  0
LINE
  5
418
330
1F
100
AcDbEntity
  8
1
  6
Continuous
 62
     2
100
AcDbLine
 10
89.01005645161312
 20
-70.51000000000022
 30
0.0
 11
89.01005645161314
 21
-79.51000000000022
 31
0.0
  0
LINE
  5
419
330
1F
100
AcDbEntity
  8
1
  6
Continuous
 62
     2
100
AcDbLine
 10
126.010056451613
 20
-70.51000000000022
 30
0.0
 11
185.0100564516128
 21
-70.51000000000022
 31
0.0
  0
LINE
  5
41A
330
1F
100
AcDbEntity
  8
1
  6
Continuous
 62
     7
100
AcDbLine
 10
126.010056451613
 20
-79.51000000000022
 30
0.0
 11
185.0100564516128
 21
-79.51000000000022
 31
0.0
  0
LINE
  5
41B
330
1F
100
AcDbEntity
  8
1
  6
Continuous
 62
     2
100
AcDbLine
 10
126.010056451613
 20
-70.51000000000022
 30
0.0
 11
126.010056451613
 21
-79.51000000000022
 31
0.0
  0
LINE
  5
41C
330
1F
100
AcDbEntity
  8
1
  6
Continuous
 62
     2
100
AcDbLine
 10
185.0100564516128
 20
-70.51000000000022
 30
0.0
 11
201.010056451613
 21
-70.51000000000022
 31
0.0
  0
LINE
  5
41D
330
1F
100
AcDbEntity
  8
1
  6
Continuous
 62
     7
100
AcDbLine
 10
185.0100564516128
 20
-79.51000000000022
 30
0.0
 11
201.010056451613
 21
-79.51000000000022
 31
0.0
  0
LINE
  5
41E
330
1F
100
AcDbEntity
  8
1
  6
Continuous
 62
     2
100
AcDbLine
 10
185.0100564516128
 20
-70.51000000000022
 30
0.0
 11
185.0100564516128
 21
-79.51000000000022
 31
0.0
  0
LINE
  5
41F
330
1F
100
AcDbEntity
  8
1
  6
Continuous
 62
     2
100
AcDbLine
 10
-72.98994354838658
 20
-70.51000000000022
 30
0.0
 11
-6.98994354838658
 21
-70.51000000000022
 31
0.0
  0
LINE
  5
420
330
1F
100
AcDbEntity
  8
1
  6
Continuous
 62
     7
100
AcDbLine
 10
-72.98994354838658
 20
-79.51000000000022
 30
0.0
 11
-6.98994354838658
 21
-79.51000000000022
 31
0.0
  0
LINE
  5
421
330
1F
100
AcDbEntity
  8
1
  6
Continuous
 62
     7
100
AcDbLine
 10
201.010056451613
 20
-70.51000000000022
 30
0.0
 11
201.010056451613
 21
-79.51000000000022
 31
0.0
  0
LINE
  5
422
330
1F
100
AcDbEntity
  8
1
  6
Continuous
 62
     7
100
AcDbLine
 10
-72.98994354838658
 20
-70.51000000000022
 30
0.0
 11
-72.98994354838658
 21
-79.51000000000022
 31
0.0
  0
LINE
  5
423
330
1F
100
AcDbEntity
  8
1
  6
Continuous
 62
     7
100
AcDbLine
 10
-129.5095443100074
 20
-84.05640768955388
 30
0.0
 11
-128.5095443100074
 21
-83.05640768955388
 31
0.0
  0
LINE
  5
424
330
1F
100
AcDbEntity
  8
1
  6
Continuous
 62
     7
100
AcDbLine
 10
-151.5095443100074
 20
-84.05640768955388
 30
0.0
 11
-150.5095443100074
 21
-83.05640768955388
 31
0.0
  0
LINE
  5
425
330
1F
100
AcDbEntity
  8
1
  6
Continuous
 62
     7
100
AcDbLine
 10
-72.98994354838658
 20
-52.5100000000002
 30
0.0
 11
201.010056451613
 21
-52.5100000000002
 31
0.0
  0
LINE
  5
426
330
1F
100
AcDbEntity
  8
1
  6
Continuous
 62
     2
100
AcDbLine
 10
-6.98994354838658
 20
-21.91000000000022
 30
0.0
 11
-6.98994354838658
 21
-70.51000000000022
 31
0.0
  0
LINE
  5
427
330
1F
100
AcDbEntity
  8
1
  6
Continuous
 62
     7
100
AcDbLine
 10
201.010056451613
 20
-21.91000000000022
 30
0.0
 11
201.010056451613
 21
-70.51000000000022
 31
0.0
  0
LINE
  5
428
330
1F
100
AcDbEntity
  8
1
  6
Continuous
 62
     7
100
AcDbLine
 10
-72.98994354838658
 20
-21.91000000000022
 30
0.0
 11
-72.98994354838658
 21
-70.51000000000022
 31
0.0
  0
LINE
  5
429
330
1F
100
AcDbEntity
  8
1
  6
Continuous
 62
     7
100
AcDbLine
 10
-72.98994354838658
 20
-21.91000000000022
 30
0.0
 11
201.010056451613
 21
-21.91000000000022
 31
0.0
  0
LINE
  5
42A
330
1F
100
AcDbEntity
  8
1
  6
Continuous
 62
     2
100
AcDbLine
 10
30.01005645161332
 20
-21.91000000000022
 30
0.0
 11
30.01005645161332
 21
-70.51000000000022
 31
0.0
  0
LINE
  5
42B
330
1F
100
AcDbEntity
  8
1
  6
Continuous
 62
     2
100
AcDbLine
 10
-72.98994354838658
 20
-61.5100000000002
 30
0.0
 11
201.010056451613
 21
-61.5100000000002
 31
0.0
  0
LINE
  5
42C
330
1F
100
AcDbEntity
  8
1
  6
Continuous
 62
     2
100
AcDbLine
 10
89.01005645161312
 20
-21.91000000000022
 30
0.0
 11
89.01005645161312
 21
-70.51000000000022
 31
0.0
  0
LINE
  5
42D
330
1F
100
AcDbEntity
  8
1
  6
Continuous
 62
     2
100
AcDbLine
 10
126.010056451613
 20
-21.91000000000022
 30
0.0
 11
126.010056451613
 21
-70.51000000000022
 31
0.0
  0
LINE
  5
42E
330
1F
100
AcDbEntity
  8
1
  6
Continuous
 62
     2
100
AcDbLine
 10
185.0100564516128
 20
-21.91000000000022
 30
0.0
 11
185.0100564516128
 21
-70.51000000000022
 31
0.0
  0
LINE
  5
42F
330
1F
100
AcDbEntity
  8
1
  6
Continuous
 62
     2
100
AcDbLine
 10
-72.98994354838658
 20
-43.5100000000002
 30
0.0
 11
201.010056451613
 21
-43.5100000000002
 31
0.0
  0
LINE
  5
430
330
1F
100
AcDbEntity
  8
1
  6
Continuous
 62
     7
100
AcDbLine
 10
10.30195617823153
 20
-36.32881821264627
 30
0.0
 11
11.30195617823153
 21
-35.32881821264627
 31
0.0
  0
LINE
  5
431
330
1F
100
AcDbEntity
  8
1
  6
Continuous
 62
     7
100
AcDbLine
 10
49.30195617823154
 20
-36.32881821264627
 30
0.0
 11
50.30195617823154
 21
-35.32881821264627
 31
0.0
  0
LEADER
  5
432
330
1F
100
AcDbEntity
  8
1
  6
Continuous
 62
     2
100
AcDbLeader
  3
Standard
 71
     0
 76
     5
 10
-142.097623670963
 20
34.41010687271901
 30
0.0
 10
-139.357133
 20
36.4939435
 30
0.0
 10
-144.639340909585
 20
39.173296707638
 30
0.0
 10
-144.639340909585
 20
104.6671569377742
 30
0.0
 10
-169.967254336301
 20
104.6671569377742
 30
0.0
  0
MTEXT
  5
433
330
1F
100
AcDbEntity
  8
1
 62
     3
100
AcDbMText
 10
193.0100564516128
 20
-75.0100000000002
 30
0.0
 40
3.5
 41
0.0
 71
     5
 72
     1
  1
126
  7
CONVERTER_15
 73
     1
 44
1.32052821128451
  0
MTEXT
  5
434
330
1F
100
AcDbEntity
  8
1
 62
     3
100
AcDbMText
 10
156.6701638370426
 20
-75.0100000000002
 30
0.0
 40
3.5
 41
0.0
 71
     5
 72
     1
  1
max. 231
  7
CONVERTER_15
 73
     1
 44
1.32052821128451
  0
MTEXT
  5
435
330
1F
100
AcDbEntity
  8
1
 62
     3
100
AcDbMText
 10
107.0100564516131
 20
-75.0100000000002
 30
0.0
 40
3.5
 41
0.0
 71
     5
 72
     1
  1
max. 189
  7
CONVERTER_15
 73
     1
 44
1.32052821128451
  0
MTEXT
  5
436
330
1F
100
AcDbEntity
  8
1
 62
     3
100
AcDbMText
 10
59.01005645161322
 20
-75.0100000000002
 30
0.0
 40
3.5
 41
0.0
 71
     5
 72
     1
  1
193
  7
CONVERTER_15
 73
     1
 44
1.32052821128451
  0
MTEXT
  5
437
330
1F
100
AcDbEntity
  8
1
 62
     3
100
AcDbMText
 10
11.01005645161337
 20
-75.0100000000002
 30
0.0
 40
3.5
 41
0.0
 71
     5
 72
     1
  1
150
  7
CONVERTER_15
 73
     1
 44
1.32052821128451
  0
MTEXT
  5
438
330
1F
100
AcDbEntity
  8
1
 62
     3
100
AcDbMText
 10
-67.98994354838658
 20
-75.0100000000002
 30
0.0
 40
3.5
 41
0.0
 71
     4
 72
     1
  1
KSY 2108... Q (/S23)
  7
CONVERTER_15
 73
     1
 44
1.32052821128451
  0
MTEXT
  5
439
330
1F
100
AcDbEntity
  8
1
 62
     7
100
AcDbMText
 10
-162.1812994509481
 20
-77.84304705617194
 30
0.0
 40
3.5
 41
0.0
 71
     4
 72
     1
  1
Sonderausführung /S23\PSpecial construction /S23\PExecution speciale /S23
  7
CONVERTER_15
 73
     1
 44
1.32052821128451
  0
MTEXT
  5
43A
330
1F
100
AcDbEntity
  8
1
 62
     3
100
AcDbMText
 10
-67.98994354838658
 20
-66.0100000000002
 30
0.0
 40
3.5
 41
0.0
 71
     4
 72
     1
  1
KSY 2106... Q (/S23)
  7
CONVERTER_15
 73
     1
 44
1.32052821128451
  0
MTEXT
  5
43B
330
1F
100
AcDbEntity
  8
1
 62
     3
100
AcDbMText
 10
11.01005645161337
 20
-66.0100000000002
 30
0.0
 40
3.5
 41
0.0
 71
     5
 72
     1
  1
130
  7
CONVERTER_15
 73
     1
 44
1.32052821128451
  0
MTEXT
  5
43C
330
1F
100
AcDbEntity
  8
1
 62
     3
100
AcDbMText
 10
59.01005645161322
 20
-66.0100000000002
 30
0.0
 40
3.5
 41
0.0
 71
     5
 72
     1
  1
173
  7
CONVERTER_15
 73
     1
 44
1.32052821128451
  0
MTEXT
  5
43D
330
1F
100
AcDbEntity
  8
1
 62
     3
100
AcDbMText
 10
193.0100564516128
 20
-66.0100000000002
 30
0.0
 40
3.5
 41
0.0
 71
     5
 72
     1
  1
106
  7
CONVERTER_15
 73
     1
 44
1.32052821128451
  0
MTEXT
  5
43E
330
1F
100
AcDbEntity
  8
1
 62
     7
100
AcDbMText
 10
59.01005645161322
 20
-48.3100000000002
 30
0.0
 40
3.5
 41
0.0
 71
     5
 72
     1
  1
k
  7
CONVERTER_15
 73
     1
 44
1.32052821128451
  0
MTEXT
  5
43F
330
1F
100
AcDbEntity
  8
1
 62
     3
100
AcDbMText
 10
59.01005645161322
 20
-57.0100000000002
 30
0.0
 40
3.5
 41
0.0
 71
     5
 72
     1
  1
153
  7
CONVERTER_15
 73
     1
 44
1.32052821128451
  0
MTEXT
  5
440
330
1F
100
AcDbEntity
  8
1
 62
     3
100
AcDbMText
 10
11.01005645161337
 20
-57.0100000000002
 30
0.0
 40
3.5
 41
0.0
 71
     5
 72
     1
  1
110
  7
CONVERTER_15
 73
     1
 44
1.32052821128451
  0
MTEXT
  5
441
330
1F
100
AcDbEntity
  8
1
 62
     3
100
AcDbMText
 10
-67.98994354838658
 20
-39.3100000000002
 30
0.0
 40
3.5
 41
0.0
 71
     4
 72
     1
  1
Motor-Typ
  7
CONVERTER_15
 73
     1
 44
1.32052821128451
  0
MTEXT
  5
442
330
1F
100
AcDbEntity
  8
1
 62
     3
100
AcDbMText
 10
-67.98994354838658
 20
-57.0100000000002
 30
0.0
 40
3.5
 41
0.0
 71
     4
 72
     1
  1
KSY 2104... Q (/S23)
  7
CONVERTER_15
 73
     1
 44
1.32052821128451
  0
MTEXT
  5
443
330
1F
100
AcDbEntity
  8
1
 62
     7
100
AcDbMText
 10
193.0100564516128
 20
-48.3100000000002
 30
0.0
 40
3.5
 41
0.0
 71
     5
 72
     1
  1
q
  7
CONVERTER_15
 73
     1
 44
1.32052821128451
  0
MTEXT
  5
444
330
1F
100
AcDbEntity
  8
1
 62
     3
100
AcDbMText
 10
193.0100564516128
 20
-57.0100000000002
 30
0.0
 40
3.5
 41
0.0
 71
     5
 72
     1
  1
86
  7
CONVERTER_15
 73
     1
 44
1.32052821128451
  0
MTEXT
  5
445
330
1F
100
AcDbEntity
  8
1
 62
     7
100
AcDbMText
 10
29.53895726448854
 20
-32.30352370790959
 30
0.0
 40
3.5
 41
0.0
 71
     4
 72
     1
  1
mit Resolver und Bremse\Pwith resolver and Brake\Pavec resolveur et frein
  7
CONVERTER_15
 73
     1
 44
1.08043217286915
  0
MTEXT
  5
446
330
1F
100
AcDbEntity
  8
1
 62
     7
100
AcDbMText
 10
90.13895726448841
 20
-32.26788400707176
 30
0.0
 40
3.5
 41
0.0
 71
     4
 72
     1
  1
mit Drehgeber\Pwith encoder\Pavec codeur
  7
CONVERTER_15
 73
     1
 44
1.08043217286915
  0
MTEXT
  5
447
330
1F
100
AcDbEntity
  8
1
 62
     7
100
AcDbMText
 10
125.2789572644882
 20
-32.30352370790959
 30
0.0
 40
3.5
 41
0.0
 71
     4
 72
     1
  1
mit Drehgeber und Bremse\Pwith encoder and brake\Pavec codeur et frein
  7
CONVERTER_15
 73
     1
 44
1.08043217286915
  0
MTEXT
  5
448
330
1F
100
AcDbEntity
  8
1
 62
     3
100
AcDbMText
 10
188.2516859594604
 20
-12.33916340874742
 30
0.0
 40
3.5
 41
0.0
 71
     5
 72
     1
  1
K3001
  7
CONVERTER_15
 73
     1
 44
1.32052821128451
  0
MTEXT
  5
449
330
1F
100
AcDbEntity
  8
1
 62
     7
100
AcDbMText
 10
-7.12104273551135
 20
-32.30352370790959
 30
0.0
 40
3.5
 41
0.0
 71
     4
 72
     1
  1
mit Resolver\Pwith resolver\Pavec resolveur
  7
CONVERTER_15
 73
     1
 44
1.08043217286915
  0
MTEXT
  5
44A
330
1F
100
AcDbEntity
  8
1
 62
     3
100
AcDbMText
 10
107.0100564516131
 20
-66.0100000000002
 30
0.0
 40
3.5
 41
0.0
 71
     5
 72
     1
  1
max. 169
  7
CONVERTER_15
 73
     1
 44
1.32052821128451
  0
MTEXT
  5
44B
330
1F
100
AcDbEntity
  8
1
 62
     7
100
AcDbMText
 10
107.0100564516131
 20
-48.3100000000002
 30
0.0
 40
3.5
 41
0.0
 71
     5
 72
     1
  1
k
  7
CONVERTER_15
 73
     1
 44
1.32052821128451
  0
MTEXT
  5
44C
330
1F
100
AcDbEntity
  8
1
 62
     3
100
AcDbMText
 10
107.0100564516131
 20
-57.0100000000002
 30
0.0
 40
3.5
 41
0.0
 71
     5
 72
     1
  1
max. 149
  7
CONVERTER_15
 73
     1
 44
1.32052821128451
  0
MTEXT
  5
44D
330
1F
100
AcDbEntity
  8
1
 62
     7
100
AcDbMText
 10
11.01005645161337
 20
-48.3100000000002
 30
0.0
 40
3.5
 41
0.0
 71
     5
 72
     1
  1
k
  7
CONVERTER_15
 73
     1
 44
1.32052821128451
  0
MTEXT
  5
44E
330
1F
100
AcDbEntity
  8
1
 62
     7
100
AcDbMText
 10
156.6701638370426
 20
-48.3100000000002
 30
0.0
 40
3.5
 41
0.0
 71
     5
 72
     1
  1
k
  7
CONVERTER_15
 73
     1
 44
1.32052821128451
  0
MTEXT
  5
44F
330
1F
100
AcDbEntity
  8
1
 62
     3
100
AcDbMText
 10
156.6701638370426
 20
-57.0100000000002
 30
0.0
 40
3.5
 41
0.0
 71
     5
 72
     1
  1
max. 191
  7
CONVERTER_15
 73
     1
 44
1.32052821128451
  0
MTEXT
  5
450
330
1F
100
AcDbEntity
  8
1
 62
     3
100
AcDbMText
 10
156.6701638370426
 20
-66.0100000000002
 30
0.0
 40
3.5
 41
0.0
 71
     5
 72
     1
  1
max. 211
  7
CONVERTER_15
 73
     1
 44
1.32052821128451
  0
MTEXT
  5
451
330
1F
100
AcDbEntity
  8
1
 62
     3
100
AcDbMText
 10
-168.447800171547
 20
99.5865121009546
 30
0.0
 40
3.5
 41
0.0
 71
     7
 72
     1
  1
Zentrierung\PM4 DIN 332
  7
CONVERTER_15
 73
     1
 44
1.32052821128451
  0
DIMENSION
  5
45C
330
1F
100
AcDbEntity
  8
1
100
AcDbDimension
  2
*D11
 10
-116.357132
 20
99.4781895161292
 30
0.0
 11
-110.69410483871
 21
103.2281895161292
 31
0.0
 70
    32
  1
<>
 71
     5
 42
-1.0
 53
0.00013888888889
  3
ME10_DIM_10
100
AcDbAlignedDimension
 13
-105.357132
 23
58.2439435
 33
0.0
 14
-116.357132
 24
66.993946
 34
0.0
100
AcDbRotatedDimension
  0
DIMENSION
  5
467
330
1F
100
AcDbEntity
  8
1
100
AcDbDimension
  2
*D12
 10
-116.357132
 20
131.723447580645
 30
0.0
 11
-65.4611733870974
 21
135.473447580645
 31
0.0
 70
    32
  1
k
 71
     5
 42
-1.0
 53
0.00013888888889
  3
ME10_DIM_11
100
AcDbAlignedDimension
 13
-6.35713199999999
 23
71.4939435
 33
0.0
 14
-116.357132
 24
66.993946
 34
0.0
100
AcDbRotatedDimension
  0
DIMENSION
  5
474
330
1F
100
AcDbEntity
  8
1
100
AcDbDimension
  2
*D13
 10
-95.8302737974473
 20
-38.50605700000001
 30
0.0
 11
-100.4552737974473
 21
-32.8883348387829
 31
0.0
 70
    32
  1
<>
 71
     5
 42
-1.0
 53
90.0
  3
ME10_DIM_12
100
AcDbAlignedDimension
 13
-107.933423
 23
-42.506057
 33
0.0
 14
-107.933423
 24
-38.506057
 34
0.0
 50
90.0
100
AcDbRotatedDimension
  0
DIMENSION
  5
47F
330
1F
100
AcDbEntity
  8
1
100
AcDbDimension
  2
*D14
 10
-107.933423
 20
-28.9959939909253
 30
0.0
 11
-114.060498561809
 21
-24.1084939909253
 31
0.0
 70
    32
  1
<>
 71
     5
 42
-1.0
 53
0.00013888888889
  3
ME10_DIM_13
100
AcDbAlignedDimension
 13
-120.433763
 23
-40.506057
 33
0.0
 14
-107.933423
 24
-38.506057
 34
0.0
100
AcDbRotatedDimension
  0
DIMENSION
  5
48A
330
1F
100
AcDbEntity
  8
1
100
AcDbDimension
  2
*D15
 10
-138.357133
 20
-28.9959939909253
 30
0.0
 11
-146.372851971172
 21
-25.2459939909253
 31
0.0
 70
    32
  1
<>
 71
     5
 42
-1.0
 53
0.00013888888889
  3
ME10_DIM_14
100
AcDbAlignedDimension
 13
-154.357133
 23
-40.506056
 33
0.0
 14
-138.357133
 24
-40.506056
 34
0.0
100
AcDbRotatedDimension
  0
DIMENSION
  5
497
330
1F
100
AcDbEntity
  8
1
100
AcDbDimension
  2
*D16
 10
-158.357133
 20
-28.9959939909253
 30
0.0
 11
-156.696715923541
 21
-25.2459939909253
 31
0.0
 70
    32
  1
<>
 71
     5
 42
-1.0
 53
0.00013888888889
  3
ME10_DIM_15
100
AcDbAlignedDimension
 13
-154.357133
 23
-40.506056
 33
0.0
 14
-158.357133
 24
-38.00605200000001
 34
0.0
100
AcDbRotatedDimension
  0
DIMENSION
  5
4A2
330
1F
100
AcDbEntity
  8
1
100
AcDbDimension
  2
*D17
 10
80.06699131120871
 20
121.2919574854353
 30
0.0
 11
93.909375466244
 21
125.0419574854353
 31
0.0
 70
    32
  1
<>
 71
     5
 42
-1.0
 53
0.00013888888889
  3
ME10_DIM_16
100
AcDbAlignedDimension
 13
108.066242
 23
115.3889374519707
 33
0.0
 14
80.06699131120871
 24
114.667641882972
 34
0.0
100
AcDbRotatedDimension
  0
DIMENSION
  5
4AD
330
1F
100
AcDbEntity
  8
1
100
AcDbDimension
  2
*D18
 10
-156.709650004085
 20
6.49394599999999
 30
0.0
 11
-162.122150004085
 21
35.9142193974271
 31
0.0
 70
    32
  1
<>
 71
     5
 42
-1.0
 53
90.0
  3
ME10_DIM_17
100
AcDbAlignedDimension
 13
-118.857131
 23
66.493953
 33
0.0
 14
-118.357131
 24
6.49394599999999
 34
0.0
 50
90.0
100
AcDbRotatedDimension
  0
DIMENSION
  5
4BA
330
1F
100
AcDbEntity
  8
1
100
AcDbDimension
  2
*D19
 10
-116.357132
 20
79.13117775736
 30
0.0
 11
-126.240241424611
 21
82.88117775736
 31
0.0
 70
    32
  1
<>
 71
     5
 42
-1.0
 53
0.00013888888889
  3
ME10_DIM_18
100
AcDbAlignedDimension
 13
-118.85713
 23
66.359974
 33
0.0
 14
-116.357132
 24
66.993946
 34
0.0
100
AcDbRotatedDimension
  0
DIMENSION
  5
4C5
330
1F
100
AcDbEntity
  8
1
100
AcDbDimension
  2
*D20
 10
147.744804028436
 20
113.1189309999999
 30
0.0
 11
143.994804028436
 21
53.49270549065079
 31
0.0
 70
    32
  1
<>
 71
     5
 42
-1.0
 53
90.0
  3
ME10_DIM_19
100
AcDbAlignedDimension
 13
121.8800747071555
 23
1.11894699999999
 33
0.0
 14
108.066242
 24
113.1189309999999
 34
0.0
 50
90.0
100
AcDbRotatedDimension
  0
DIMENSION
  5
4D0
330
1F
100
AcDbEntity
  8
1
100
AcDbDimension
  2
*D21
 10
-147.243516418739
 20
41.99394699999999
 30
0.0
 11
-151.868516418739
 21
36.7029604424537
 31
0.0
 70
    32
  1
<>
 71
     5
 42
-1.0
 53
90.0
  3
ME10_DIM_20
100
AcDbAlignedDimension
 13
-139.0887864335175
 23
30.99394000000001
 33
0.0
 14
-139.0887864335176
 24
41.99394699999999
 34
0.0
 50
90.0
100
AcDbRotatedDimension
  0
DIMENSION
  5
4DB
330
1F
100
AcDbEntity
  8
1
100
AcDbDimension
  2
*D22
 10
-139.357133
 20
121.2919574854353
 30
0.0
 11
-127.811914545427
 21
125.0419574854353
 31
0.0
 70
    32
  1
<>
 71
     5
 42
-1.0
 53
0.00013888888889
  3
ME10_DIM_21
100
AcDbAlignedDimension
 13
-116.357132
 23
71.49393800000001
 33
0.0
 14
-139.357133
 24
38.99394799999999
 34
0.0
100
AcDbRotatedDimension
  0
DIMENSION
  5
4E6
330
1F
100
AcDbEntity
  8
1
100
AcDbDimension
  2
*D23
 10
129.0662368486595
 20
132.334332115808
 30
0.0
 11
93.120634421218
 21
136.084332115808
 31
0.0
 70
    32
  1
<>
 71
     5
 42
-1.0
 53
0.00013888888889
  3
ME10_DIM_22
100
AcDbAlignedDimension
 13
59.0662371513405
 23
64.77821284374599
 33
0.0
 14
129.0662368486595
 24
64.7782128437459
 34
0.0
100
AcDbRotatedDimension
  0
DIMENSION
  5
4F1
330
1F
100
AcDbEntity
  8
1
100
AcDbDimension
  2
*D24
 10
-30.35713199999991
 20
121.2919574854353
 30
0.0
 11
-72.68392329382921
 21
125.0419574854353
 31
0.0
 70
    32
  1
q
 71
     5
 42
-1.0
 53
0.00013888888889
  3
ME10_DIM_23
100
AcDbAlignedDimension
 13
-116.357132
 23
71.49393800000001
 33
0.0
 14
-30.35713199999991
 24
116.4174250884362
 34
0.0
100
AcDbRotatedDimension
  0
DIMENSION
  5
4FC
330
1F
100
AcDbEntity
  8
1
100
AcDbDimension
  2
*D25
 10
-139.357133
 20
45.20920915694251
 30
0.0
 11
-127.952663116857
 21
48.95920915694251
 31
0.0
 70
    32
  1
<>
 71
     5
 42
-1.0
 53
0.00013888888889
  3
ME10_DIM_24
100
AcDbAlignedDimension
 13
-116.357133
 23
42.2439435
 33
0.0
 14
-139.357133
 24
41.49394100000001
 34
0.0
100
AcDbRotatedDimension
  0
INSERT
  5
504
330
1F
100
AcDbEntity
  8
1
100
AcDbBlockReference
  2
*D26
 10
0.0
 20
0.0
 30
0.0
  0
INSERT
  5
50C
330
1F
100
AcDbEntity
  8
1
100
AcDbBlockReference
  2
*D27
 10
0.0
 20
0.0
 30
0.0
  0
INSERT
  5
518
330
1F
100
AcDbEntity
  8
1
100
AcDbBlockReference
  2
*D28
 10
0.0
 20
0.0
 30
0.0
  0
DIMENSION
  5
525
330
1F
100
AcDbEntity
  8
1
100
AcDbDimension
  2
*D29
 10
75.31902980490545
 20
-8.76581886701575
 30
0.0
 11
78.7467862903223
 21
-6.07206048387097
 31
0.0
 70
    37
  1
<>
 71
     5
 42
-1.0
  3
ME10_DIM_25
100
AcDb3PointAngularDimension
 13
71.192452304341
 23
13.620158304341
 33
0.0
 14
94.066237
 24
-5.17817555702101
 34
0.0
 15
94.066237
 25
36.49394300000002
 35
0.0
  0
ENDSEC
  0
SECTION
  2
OBJECTS
  0
DICTIONARY
  5
C
330
0
100
AcDbDictionary
281
     1
  3
ACAD_GROUP
350
D
  3
ACAD_LAYOUT
350
1A
  3
ACAD_MLINESTYLE
350
17
  3
ACAD_PLOTSETTINGS
350
19
  3
ACAD_PLOTSTYLENAME
350
E
  0
DICTIONARY
  5
D
102
{ACAD_REACTORS
330
C
102
}
330
C
100
AcDbDictionary
281
     1
  0
DICTIONARY
  5
1A
102
{ACAD_REACTORS
330
C
102
}
330
C
100
AcDbDictionary
281
     1
  3
Layout1
350
1E
  3
Layout2
350
26
  3
Model
350
22
  0
DICTIONARY
  5
17
102
{ACAD_REACTORS
330
C
102
}
330
C
100
AcDbDictionary
281
     1
  3
Standard
350
18
  0
DICTIONARY
  5
19
102
{ACAD_REACTORS
330
C
102
}
330
C
100
AcDbDictionary
281
     1
  0
ACDBDICTIONARYWDFLT
  5
E
102
{ACAD_REACTORS
330
C
102
}
330
C
100
AcDbDictionary
281
     1
  3
Normal
350
F
100
AcDbDictionaryWithDefault
340
F
  0
LAYOUT
  5
1E
102
{ACAD_REACTORS
330
1A
102
}
330
1A
100
AcDbPlotSettings
  1

  2

  4

  6

 40
0.0
 41
0.0
 42
0.0
 43
0.0
 44
0.0
 45
0.0
 46
0.0
 47
0.0
 48
0.0
 49
0.0
140
0.0
141
0.0
142
1.0
143
1.0
 70
   688
 72
     0
 73
     0
 74
     5
  7

 75
    16
 76
     0
 77
     2
 78
   300
147
1.0
148
0.0
149
0.0
100
AcDbLayout
  1
Layout1
 70
     1
 71
     1
 10
0.0
 20
0.0
 11
0.0
 21
0.0
 12
0.0
 22
0.0
 32
0.0
 14
0.0
 24
0.0
 34
0.0
 15
0.0
 25
0.0
 35
0.0
146
0.0
 13
0.0
 23
0.0
 33
0.0
 16
1.0
 26
0.0
 36
0.0
 17
0.0
 27
1.0
 37
0.0
 76
     0
330
1B
  0
LAYOUT
  5
26
102
{ACAD_REACTORS
330
1A
102
}
330
1A
100
AcDbPlotSettings
  1

  2

  4

  6

 40
0.0
 41
0.0
 42
0.0
 43
0.0
 44
0.0
 45
0.0
 46
0.0
 47
0.0
 48
0.0
 49
0.0
140
0.0
141
0.0
142
1.0
143
1.0
 70
   688
 72
     0
 73
     0
 74
     5
  7

 75
    16
 76
     0
 77
     2
 78
   300
147
1.0
148
0.0
149
0.0
100
AcDbLayout
  1
Layout2
 70
     1
 71
     2
 10
0.0
 20
0.0
 11
0.0
 21
0.0
 12
0.0
 22
0.0
 32
0.0
 14
0.0
 24
0.0
 34
0.0
 15
0.0
 25
0.0
 35
0.0
146
0.0
 13
0.0
 23
0.0
 33
0.0
 16
1.0
 26
0.0
 36
0.0
 17
0.0
 27
1.0
 37
0.0
 76
     0
330
23
  0
LAYOUT
  5
22
102
{ACAD_REACTORS
330
1A
102
}
330
1A
100
AcDbPlotSettings
  1

  2

  4

  6

 40
0.0
 41
0.0
 42
0.0
 43
0.0
 44
0.0
 45
0.0
 46
0.0
 47
0.0
 48
0.0
 49
0.0
140
0.0
141
0.0
142
1.0
143
1.0
 70
  1712
 72
     0
 73
     0
 74
     0
  7

 75
     0
 76
     0
 77
     2
 78
   300
147
1.0
148
0.0
149
0.0
100
AcDbLayout
  1
Model
 70
     1
 71
     0
 10
0.0
 20
0.0
 11
0.0
 21
0.0
 12
0.0
 22
0.0
 32
0.0
 14
-198.880000000001
 24
-142.5
 34
0.0
 15
205.0
 25
142.0
 35
0.0
146
0.0
 13
0.0
 23
0.0
 33
0.0
 16
1.0
 26
0.0
 36
0.0
 17
0.0
 27
1.0
 37
0.0
 76
     0
330
1F
  0
MLINESTYLE
  5
18
102
{ACAD_REACTORS
330
17
102
}
330
17
100
AcDbMlineStyle
  2
Standard
 70
     0
  3

 62
   256
 51
90.0
 52
90.0
 71
     2
 49
0.5
 62
   256
  6
BYLAYER
 49
-0.5
 62
   256
  6
BYLAYER
  0
ACDBPLACEHOLDER
  5
F
102
{ACAD_REACTORS
330
E
102
}
330
E
  0
ENDSEC
  0
EOF
