  0
SECTION
  2
HEADER
  9
$ACADVER
  1
AC1018
  9
$ACADMAINTVER
 70
     0
  9
$DWGCODEPAGE
  3
ANSI_1252
  9
$INSBASE
 10
0.0
 20
0.0
 30
0.0
  9
$EXTMIN
 10
-397.760000000002
 20
-285.0
 30
0.0
  9
$EXTMAX
 10
410.0
 20
284.0
 30
0.0
  9
$LIMMIN
 10
0.0
 20
0.0
  9
$LIMMAX
 10
12.0
 20
9.0
  9
$ORTHOMODE
 70
     0
  9
$REGENMODE
 70
     1
  9
$FILLMODE
 70
     1
  9
$QTEXTMODE
 70
     0
  9
$MIRRTEXT
 70
     1
  9
$LTSCALE
 40
1.0
  9
$ATTMODE
 70
     1
  9
$TEXTSIZE
 40
0.2
  9
$TRACEWID
 40
0.05
  9
$TEXTSTYLE
  7
Standard
  9
$CLAYER
  8
0
  9
$CELTYPE
  6
ByLayer
  9
$CECOLOR
 62
   256
  9
$CELTSCALE
 40
1.0
  9
$DISPSILH
 70
     0
  9
$DIMSCALE
 40
1.0
  9
$DIMASZ
 40
0.18
  9
$DIMEXO
 40
0.0625
  9
$DIMDLI
 40
0.38
  9
$DIMRND
 40
0.0
  9
$DIMDLE
 40
0.0
  9
$DIMEXE
 40
0.18
  9
$DIMTP
 40
0.0
  9
$DIMTM
 40
0.0
  9
$DIMTXT
 40
0.18
  9
$DIMCEN
 40
0.09
  9
$DIMTSZ
 40
0.0
  9
$DIMTOL
 70
     0
  9
$DIMLIM
 70
     0
  9
$DIMTIH
 70
     1
  9
$DIMTOH
 70
     1
  9
$DIMSE1
 70
     0
  9
$DIMSE2
 70
     0
  9
$DIMTAD
 70
     0
  9
$DIMZIN
 70
     0
  9
$DIMBLK
  1

  9
$DIMASO
 70
     1
  9
$DIMSHO
 70
     1
  9
$DIMPOST
  1

  9
$DIMAPOST
  1

  9
$DIMALT
 70
     0
  9
$DIMALTD
 70
     2
  9
$DIMALTF
 40
25.4
  9
$DIMLFAC
 40
1.0
  9
$DIMTOFL
 70
     0
  9
$DIMTVP
 40
0.0
  9
$DIMTIX
 70
     0
  9
$DIMSOXD
 70
     0
  9
$DIMSAH
 70
     0
  9
$DIMBLK1
  1

  9
$DIMBLK2
  1

  9
$DIMSTYLE
  2
Standard
  9
$DIMCLRD
 70
     0
  9
$DIMCLRE
 70
     0
  9
$DIMCLRT
 70
     0
  9
$DIMTFAC
 40
1.0
  9
$DIMGAP
 40
0.09
  9
$DIMJUST
 70
     0
  9
$DIMSD1
 70
     0
  9
$DIMSD2
 70
     0
  9
$DIMTOLJ
 70
     1
  9
$DIMTZIN
 70
     0
  9
$DIMALTZ
 70
     0
  9
$DIMALTTZ
 70
     0
  9
$DIMUPT
 70
     0
  9
$DIMDEC
 70
     4
  9
$DIMTDEC
 70
     4
  9
$DIMALTU
 70
     2
  9
$DIMALTTD
 70
     2
  9
$DIMTXSTY
  7
Standard
  9
$DIMAUNIT
 70
     0
  9
$DIMADEC
 70
     0
  9
$DIMALTRND
 40
0.0
  9
$DIMAZIN
 70
     0
  9
$DIMDSEP
 70
    46
  9
$DIMATFIT
 70
     3
  9
$DIMFRAC
 70
     0
  9
$DIMLDRBLK
  1

  9
$DIMLUNIT
 70
     2
  9
$DIMLWD
 70
    -2
  9
$DIMLWE
 70
    -2
  9
$DIMTMOVE
 70
     0
  9
$LUNITS
 70
     2
  9
$LUPREC
 70
     4
  9
$SKETCHINC
 40
0.1
  9
$FILLETRAD
 40
0.5
  9
$AUNITS
 70
     0
  9
$AUPREC
 70
     0
  9
$MENU
  1
.
  9
$ELEVATION
 40
0.0
  9
$PELEVATION
 40
0.0
  9
$THICKNESS
 40
0.0
  9
$LIMCHECK
 70
     0
  9
$CHAMFERA
 40
0.5
  9
$CHAMFERB
 40
0.5
  9
$CHAMFERC
 40
1.0
  9
$CHAMFERD
 40
0.0
  9
$SKPOLY
 70
     0
  9
$TDCREATE
 40
2454958.397429595
  9
$TDUCREATE
 40
2454958.314096262
  9
$TDUPDATE
 40
2454958.397429606
  9
$TDUUPDATE
 40
2454958.314096273
  9
$TDINDWG
 40
0.0000000116
  9
$TDUSRTIMER
 40
0.0000000116
  9
$USRTIMER
 70
     1
  9
$ANGBASE
 50
0.0
  9
$ANGDIR
 70
     0
  9
$PDMODE
 70
     0
  9
$PDSIZE
 40
0.0
  9
$PLINEWID
 40
0.0
  9
$SPLFRAME
 70
     0
  9
$SPLINETYPE
 70
     6
  9
$SPLINESEGS
 70
     8
  9
$HANDSEED
  5
4C9
  9
$SURFTAB1
 70
     6
  9
$SURFTAB2
 70
     6
  9
$SURFTYPE
 70
     6
  9
$SURFU
 70
     6
  9
$SURFV
 70
     6
  9
$UCSBASE
  2

  9
$UCSNAME
  2

  9
$UCSORG
 10
0.0
 20
0.0
 30
0.0
  9
$UCSXDIR
 10
1.0
 20
0.0
 30
0.0
  9
$UCSYDIR
 10
0.0
 20
1.0
 30
0.0
  9
$UCSORTHOREF
  2

  9
$UCSORTHOVIEW
 70
     0
  9
$UCSORGTOP
 10
0.0
 20
0.0
 30
0.0
  9
$UCSORGBOTTOM
 10
0.0
 20
0.0
 30
0.0
  9
$UCSORGLEFT
 10
0.0
 20
0.0
 30
0.0
  9
$UCSORGRIGHT
 10
0.0
 20
0.0
 30
0.0
  9
$UCSORGFRONT
 10
0.0
 20
0.0
 30
0.0
  9
$UCSORGBACK
 10
0.0
 20
0.0
 30
0.0
  9
$PUCSBASE
  2

  9
$PUCSNAME
  2

  9
$PUCSORG
 10
0.0
 20
0.0
 30
0.0
  9
$PUCSXDIR
 10
1.0
 20
0.0
 30
0.0
  9
$PUCSYDIR
 10
0.0
 20
1.0
 30
0.0
  9
$PUCSORTHOREF
  2

  9
$PUCSORTHOVIEW
 70
     0
  9
$PUCSORGTOP
 10
0.0
 20
0.0
 30
0.0
  9
$PUCSORGBOTTOM
 10
0.0
 20
0.0
 30
0.0
  9
$PUCSORGLEFT
 10
0.0
 20
0.0
 30
0.0
  9
$PUCSORGRIGHT
 10
0.0
 20
0.0
 30
0.0
  9
$PUCSORGFRONT
 10
0.0
 20
0.0
 30
0.0
  9
$PUCSORGBACK
 10
0.0
 20
0.0
 30
0.0
  9
$USERI1
 70
     0
  9
$USERI2
 70
     0
  9
$USERI3
 70
     0
  9
$USERI4
 70
     0
  9
$USERI5
 70
     0
  9
$USERR1
 40
14.5
  9
$USERR2
 40
0.0
  9
$USERR3
 40
0.0
  9
$USERR4
 40
0.0
  9
$USERR5
 40
0.0
  9
$WORLDVIEW
 70
     1
  9
$SHADEDGE
 70
     3
  9
$SHADEDIF
 70
    70
  9
$TILEMODE
 70
     1
  9
$MAXACTVP
 70
    64
  9
$PINSBASE
 10
0.0
 20
0.0
 30
0.0
  9
$PLIMCHECK
 70
     0
  9
$PEXTMIN
 10
1.00000000000000E+20
 20
1.00000000000000E+20
 30
1.00000000000000E+20
  9
$PEXTMAX
 10
-1.00000000000000E+20
 20
-1.00000000000000E+20
 30
-1.00000000000000E+20
  9
$PLIMMIN
 10
0.0
 20
0.0
  9
$PLIMMAX
 10
12.0
 20
9.0
  9
$UNITMODE
 70
     0
  9
$VISRETAIN
 70
     1
  9
$PLINEGEN
 70
     0
  9
$PSLTSCALE
 70
     1
  9
$TREEDEPTH
 70
  3020
  9
$CMLSTYLE
  2
Standard
  9
$CMLJUST
 70
     0
  9
$CMLSCALE
 40
1.0
  9
$PROXYGRAPHICS
 70
     1
  9
$MEASUREMENT
 70
     1
  9
$CELWEIGHT
370
    -1
  9
$ENDCAPS
280
     0
  9
$JOINSTYLE
280
     0
  9
$LWDISPLAY
290
     0
  9
$INSUNITS
 70
     1
  9
$HYPERLINKBASE
  1

  9
$STYLESHEET
  1

  9
$XEDIT
290
     1
  9
$CEPSNTYPE
380
     0
  9
$PSTYLEMODE
290
     1
  9
$FINGERPRINTGUID
  2
{28C376E0-3825-4034-B3C1-522317C2B774}
  9
$VERSIONGUID
  2
{FAEB1C32-E019-11D5-929B-00C0DF256EC4}
  9
$EXTNAMES
290
     1
  9
$PSVPSCALE
 40
0.0
  9
$OLESTARTUP
290
     0
  9
$SORTENTS
280
   127
  9
$INDEXCTL
280
     0
  9
$HIDETEXT
280
     1
  9
$XCLIPFRAME
290
     0
  9
$HALOGAP
280
     0
  9
$OBSCOLOR
 70
   257
  9
$OBSLTYPE
280
     0
  9
$INTERSECTIONDISPLAY
280
     0
  9
$INTERSECTIONCOLOR
 70
   257
  9
$DIMASSOC
280
     2
  9
$PROJECTNAME
  1

  0
ENDSEC
  0
SECTION
  2
CLASSES
  0
CLASS
  1
ACDBDICTIONARYWDFLT
  2
AcDbDictionaryWithDefault
  3
ObjectDBX Classes
 90
        0
 91
        3
280
     0
281
     0
  0
CLASS
  1

  2
exOdDbCircle
  3

 90
        0
 91
        3
280
     0
281
     1
  0
CLASS
  1

  2
exOdDbSpline
  3

 90
        0
 91
        3
280
     0
281
     1
  0
ENDSEC
  0
SECTION
  2
TABLES
  0
TABLE
  2
VPORT
  5
8
330
0
100
AcDbSymbolTable
 70
     1
  0
VPORT
  5
29
330
8
100
AcDbSymbolTableRecord
100
AcDbViewportTableRecord
  2
*Active
 70
     0
 10
0.0
 20
0.0
 11
1.0
 21
1.0
 12
6.11999999999901
 22
-0.5
 13
0.0
 23
0.0
 14
0.5
 24
0.5
 15
0.5
 25
0.5
 16
0.0
 26
0.0
 36
1.0
 17
0.0
 27
0.0
 37
0.0
 40
625.9000000000001
 41
1.60267857142857
 42
50.0
 43
0.0
 44
0.0
 50
0.0
 51
0.0
 71
     0
 72
   100
 73
     1
 74
     3
 75
     0
 76
     0
 77
     0
 78
     0
281
     0
 65
     1
110
0.0
120
0.0
130
0.0
111
1.0
121
0.0
131
0.0
112
0.0
122
1.0
132
0.0
 79
     0
146
0.0
  0
ENDTAB
  0
TABLE
  2
LTYPE
  5
5
330
0
100
AcDbSymbolTable
 70
     8
  0
LTYPE
  5
14
330
5
100
AcDbSymbolTableRecord
100
AcDbLinetypeTableRecord
  2
ByBlock
 70
     0
  3

 72
    65
 73
     0
 40
0.0
  0
LTYPE
  5
15
330
5
100
AcDbSymbolTableRecord
100
AcDbLinetypeTableRecord
  2
ByLayer
 70
     0
  3

 72
    65
 73
     0
 40
0.0
  0
LTYPE
  5
16
330
5
100
AcDbSymbolTableRecord
100
AcDbLinetypeTableRecord
  2
Continuous
 70
     0
  3
Solid line
 72
    65
 73
     0
 40
0.0
  0
LTYPE
  5
2A
330
5
100
AcDbSymbolTableRecord
100
AcDbLinetypeTableRecord
  2
DASHED
 70
     0
  3
Dashed
 72
    65
 73
     2
 40
15.0
 49
7.0
 74
     0
 49
-8.0
 74
     0
  0
LTYPE
  5
2B
330
5
100
AcDbSymbolTableRecord
100
AcDbLinetypeTableRecord
  2
DOTTED
 70
     0
  3
Dotted
 72
    65
 73
     2
 40
1.0
 49
0.0
 74
     0
 49
-1.0
 74
     0
  0
LTYPE
  5
2C
330
5
100
AcDbSymbolTableRecord
100
AcDbLinetypeTableRecord
  2
DOT_CENTER
 70
     0
  3
Dot_Center
 72
    65
 73
     4
 40
14.0
 49
12.0
 74
     0
 49
-1.0
 74
     0
 49
0.0
 74
     0
 49
-1.0
 74
     0
  0
LTYPE
  5
2D
330
5
100
AcDbSymbolTableRecord
100
AcDbLinetypeTableRecord
  2
LONG_DASHED
 70
     0
  3
Long_Dashed
 72
    65
 73
     2
 40
15.0
 49
10.0
 74
     0
 49
-5.0
 74
     0
  0
LTYPE
  5
2E
330
5
100
AcDbSymbolTableRecord
100
AcDbLinetypeTableRecord
  2
DASH_CENTER
 70
     0
  3
Dash_Center
 72
    65
 73
     4
 40
14.0
 49
11.0
 74
     0
 49
-1.0
 74
     0
 49
1.0
 74
     0
 49
-1.0
 74
     0
  0
LTYPE
  5
2F
330
5
100
AcDbSymbolTableRecord
100
AcDbLinetypeTableRecord
  2
PHANTOM
 70
     0
  3
Phantom
 72
    65
 73
     6
 40
13.0
 49
10.0
 74
     0
 49
-1.0
 74
     0
 49
0.0
 74
     0
 49
-1.0
 74
     0
 49
0.0
 74
     0
 49
-1.0
 74
     0
  0
LTYPE
  5
30
330
5
100
AcDbSymbolTableRecord
100
AcDbLinetypeTableRecord
  2
CENTER_DASH_DASH
 70
     0
  3
Center_Dash_Dash
 72
    65
 73
     6
 40
14.0
 49
9.0
 74
     0
 49
-1.0
 74
     0
 49
1.0
 74
     0
 49
-1.0
 74
     0
 49
1.0
 74
     0
 49
-1.0
 74
     0
  0
ENDTAB
  0
TABLE
  2
LAYER
  5
2
330
0
100
AcDbSymbolTable
 70
     3
  0
LAYER
  5
10
330
2
100
AcDbSymbolTableRecord
100
AcDbLayerTableRecord
  2
0
 70
     0
 62
     7
  6
Continuous
370
    -3
390
F
  0
LAYER
  5
31
330
2
100
AcDbSymbolTableRecord
100
AcDbLayerTableRecord
  2
1
 70
     0
 62
     7
  6
Continuous
370
    -3
390
F
  0
LAYER
  5
32
330
2
100
AcDbSymbolTableRecord
100
AcDbLayerTableRecord
  2
AM_VIS
 70
     0
 62
     7
  6
Continuous
370
    -3
390
F
  0
ENDTAB
  0
TABLE
  2
STYLE
  5
3
330
0
100
AcDbSymbolTable
 70
     6
  0
STYLE
  5
11
330
3
100
AcDbSymbolTableRecord
100
AcDbTextStyleTableRecord
  2
Standard
 70
     0
 40
0.0
 41
1.0
 50
0.0
 71
     0
 42
0.2
  3
txt
  4

  0
STYLE
  5
12C
330
3
100
AcDbSymbolTableRecord
100
AcDbTextStyleTableRecord
  2
CONVERTER_11
 70
     0
 40
0.0
 41
0.72
 50
0.0
 71
     0
 42
0.2
  3
txt.shx
  4

  0
STYLE
  5
12E
330
3
100
AcDbSymbolTableRecord
100
AcDbTextStyleTableRecord
  2
CONVERTER_12
 70
     0
 40
0.0
 41
0.9
 50
0.0
 71
     0
 42
0.2
  3
txt.shx
  4

  0
STYLE
  5
144
330
3
100
AcDbSymbolTableRecord
100
AcDbTextStyleTableRecord
  2
CONVERTER_13
 70
     0
 40
0.0
 41
0.81
 50
0.0
 71
     0
 42
0.2
  3
txt.shx
  4

  0
STYLE
  5
14C
330
3
100
AcDbSymbolTableRecord
100
AcDbTextStyleTableRecord
  2
CONVERTER_14
 70
     0
 40
0.0
 41
0.765
 50
0.0
 71
     0
 42
0.2
  3
txt.shx
  4

  0
STYLE
  5
157
330
3
100
AcDbSymbolTableRecord
100
AcDbTextStyleTableRecord
  2
CONVERTER_15
 70
     0
 40
0.0
 41
0.855
 50
0.0
 71
     0
 42
0.2
  3
complex.shx
  4

  0
ENDTAB
  0
TABLE
  2
VIEW
  5
6
330
0
100
AcDbSymbolTable
 70
     0
  0
ENDTAB
  0
TABLE
  2
UCS
  5
7
330
0
100
AcDbSymbolTable
 70
     0
  0
ENDTAB
  0
TABLE
  2
APPID
  5
9
330
0
100
AcDbSymbolTable
 70
     1
  0
APPID
  5
12
330
9
100
AcDbSymbolTableRecord
100
AcDbRegAppTableRecord
  2
ACAD
 70
     0
  0
ENDTAB
  0
TABLE
  2
DIMSTYLE
  5
A
330
0
100
AcDbSymbolTable
 70
    17
100
AcDbDimStyleTable
  0
DIMSTYLE
105
27
330
A
100
AcDbSymbolTableRecord
100
AcDbDimStyleTableRecord
  2
Standard
 70
     0
340
11
  0
DIMSTYLE
105
3FB
102
{ACAD_REACTORS
330
3FC
102
}
330
A
100
AcDbSymbolTableRecord
100
AcDbDimStyleTableRecord
  2
ME10_DIM_10
 70
     0
 41
7.0
 42
0.0
 44
2.0
 73
     0
 74
     0
 77
     1
 78
     8
140
7.0
147
4.0
172
     1
173
     1
176
     2
177
     2
178
     3
271
     3
340
12C
  0
DIMSTYLE
105
406
102
{ACAD_REACTORS
330
407
102
}
330
A
100
AcDbSymbolTableRecord
100
AcDbDimStyleTableRecord
  2
ME10_DIM_11
 70
     0
 41
7.0
 42
0.0
 44
2.0
 73
     0
 74
     0
 77
     1
 78
     8
140
7.0
147
4.0
172
     1
173
     1
176
     2
177
     2
178
     3
271
     3
340
12C
  0
DIMSTYLE
105
411
102
{ACAD_REACTORS
330
412
102
}
330
A
100
AcDbSymbolTableRecord
100
AcDbDimStyleTableRecord
  2
ME10_DIM_12
 70
     0
  3
{\Fgdt;n}<>
 41
7.0
 42
0.0
 44
2.0
 48
-6.0
 71
     1
 73
     0
 74
     0
 77
     1
 78
     8
140
7.0
146
0.6
147
4.0
172
     1
173
     1
176
     2
177
     2
178
     3
271
     3
272
     0
340
12C
  0
DIMSTYLE
105
41C
102
{ACAD_REACTORS
330
41D
102
}
330
A
100
AcDbSymbolTableRecord
100
AcDbDimStyleTableRecord
  2
ME10_DIM_13
 70
     0
 41
7.0
 42
0.0
 44
2.0
 73
     0
 74
     0
 77
     1
 78
     8
140
7.0
147
4.0
172
     1
173
     1
176
     2
177
     2
178
     3
271
     3
340
12C
  0
DIMSTYLE
105
429
102
{ACAD_REACTORS
330
42A
102
}
330
A
100
AcDbSymbolTableRecord
100
AcDbDimStyleTableRecord
  2
ME10_DIM_14
 70
     0
 41
7.0
 42
0.0
 44
2.0
 73
     0
 74
     0
 77
     1
 78
     8
140
7.0
147
4.0
172
     1
173
     1
176
     2
177
     2
178
     3
271
     3
340
12C
  0
DIMSTYLE
105
436
102
{ACAD_REACTORS
330
437
102
}
330
A
100
AcDbSymbolTableRecord
100
AcDbDimStyleTableRecord
  2
ME10_DIM_15
 70
     0
  3
{\Fgdt;n}<>
 41
7.0
 42
0.0
 44
2.0
 73
     0
 74
     0
 77
     1
 78
     8
140
7.0
147
4.0
172
     1
173
     1
176
     2
177
     2
178
     3
271
     3
340
12C
  0
DIMSTYLE
105
443
102
{ACAD_REACTORS
330
444
102
}
330
A
100
AcDbSymbolTableRecord
100
AcDbDimStyleTableRecord
  2
ME10_DIM_16
 70
     0
 41
7.0
 42
0.0
 44
2.0
 73
     0
 74
     0
 77
     1
 78
     8
140
7.0
147
4.0
172
     1
173
     1
176
     2
177
     2
178
     3
271
     3
340
12C
  0
DIMSTYLE
105
44E
102
{ACAD_REACTORS
330
44F
102
}
330
A
100
AcDbSymbolTableRecord
100
AcDbDimStyleTableRecord
  2
ME10_DIM_17
 70
     0
 41
7.0
 42
0.0
 44
2.0
 73
     0
 74
     0
 77
     1
 78
     8
140
7.0
147
4.0
172
     1
173
     1
176
     2
177
     2
178
     3
271
     3
340
12C
  0
DIMSTYLE
105
45B
102
{ACAD_REACTORS
330
45C
102
}
330
A
100
AcDbSymbolTableRecord
100
AcDbDimStyleTableRecord
  2
ME10_DIM_18
 70
     0
 41
7.0
 42
0.0
 44
2.0
 48
-9.0
 71
     1
 73
     0
 74
     0
 77
     1
 78
     8
140
7.0
146
0.6
147
4.0
172
     1
173
     1
176
     2
177
     2
178
     3
271
     3
272
     0
340
12C
  0
DIMSTYLE
105
466
102
{ACAD_REACTORS
330
467
102
}
330
A
100
AcDbSymbolTableRecord
100
AcDbDimStyleTableRecord
  2
ME10_DIM_19
 70
     0
 41
7.0
 42
0.0
 44
2.0
 73
     0
 74
     0
 77
     1
 78
     8
140
7.0
147
4.0
172
     1
173
     1
176
     2
177
     2
178
     3
271
     3
340
12C
  0
DIMSTYLE
105
471
102
{ACAD_REACTORS
330
472
102
}
330
A
100
AcDbSymbolTableRecord
100
AcDbDimStyleTableRecord
  2
ME10_DIM_20
 70
     0
 41
7.0
 42
0.0
 44
2.0
 73
     0
 74
     0
 77
     1
 78
     8
140
7.0
147
4.0
172
     1
173
     1
176
     2
177
     2
178
     3
271
     3
340
12C
  0
DIMSTYLE
105
47C
102
{ACAD_REACTORS
330
47D
102
}
330
A
100
AcDbSymbolTableRecord
100
AcDbDimStyleTableRecord
  2
ME10_DIM_21
 70
     0
 41
7.0
 42
0.0
 44
2.0
 73
     0
 74
     0
 77
     1
 78
     8
140
7.0
147
4.0
172
     1
173
     1
176
     2
177
     2
178
     3
271
     3
340
12C
  0
DIMSTYLE
105
489
102
{ACAD_REACTORS
330
48A
102
}
330
A
100
AcDbSymbolTableRecord
100
AcDbDimStyleTableRecord
  2
ME10_DIM_22
 70
     0
 41
7.0
 42
0.0
 44
2.0
 73
     0
 74
     0
 77
     1
 78
     8
140
7.0
147
4.0
172
     1
173
     1
176
     2
177
     2
178
     3
271
     3
340
12C
  0
DIMSTYLE
105
494
102
{ACAD_REACTORS
330
495
102
}
330
A
100
AcDbSymbolTableRecord
100
AcDbDimStyleTableRecord
  2
ME10_DIM_23
 70
     0
 41
7.0
 42
0.0
 44
2.0
 73
     0
 74
     0
 77
     1
 78
     8
140
7.0
147
4.0
172
     1
173
     1
176
     2
177
     2
178
     3
271
     3
340
12C
  0
DIMSTYLE
105
4A1
102
{ACAD_REACTORS
330
4A2
102
}
330
A
100
AcDbSymbolTableRecord
100
AcDbDimStyleTableRecord
  2
ME10_DIM_24
 70
     0
  3
{\Fgdt;n}<>
 41
7.0
 42
0.0
 44
2.0
 48
-5.0
 71
     1
 73
     0
 74
     0
 77
     1
 78
     8
140
7.0
146
0.6
147
4.0
172
     1
173
     1
176
     2
177
     2
178
     3
271
     3
272
     0
340
12C
  0
DIMSTYLE
105
4C7
102
{ACAD_REACTORS
330
4C8
102
}
330
A
100
AcDbSymbolTableRecord
100
AcDbDimStyleTableRecord
  2
ME10_DIM_25
 70
     0
 41
7.0
 42
0.0
 44
2.0
 73
     0
 74
     0
 77
     1
 78
     8
140
7.0
147
4.0
172
     1
173
     1
176
     2
177
     2
178
     3
271
     3
340
12C
  0
ENDTAB
  0
TABLE
  2
BLOCK_RECORD
  5
1
330
0
100
AcDbSymbolTable
 70
    29
  0
BLOCK_RECORD
  5
1F
330
1
100
AcDbSymbolTableRecord
100
AcDbBlockTableRecord
  2
*Model_Space
340
22
  0
BLOCK_RECORD
  5
1B
330
1
100
AcDbSymbolTableRecord
100
AcDbBlockTableRecord
  2
*Paper_Space
340
1E
  0
BLOCK_RECORD
  5
23
330
1
100
AcDbSymbolTableRecord
100
AcDbBlockTableRecord
  2
*Paper_Space0
340
26
  0
BLOCK_RECORD
  5
33
330
1
100
AcDbSymbolTableRecord
100
AcDbBlockTableRecord
  2
tb_frame_A3
340
0
102
{BLKREFS
331
4F
102
}
  0
BLOCK_RECORD
  5
36
330
1
100
AcDbSymbolTableRecord
100
AcDbBlockTableRecord
  2
Winkelflanschdose_8-polig_drehbar__1
340
0
102
{BLKREFS
331
50
102
}
  0
BLOCK_RECORD
  5
39
330
1
100
AcDbSymbolTableRecord
100
AcDbBlockTableRecord
  2
Linsenschraube_DIN_7985_-_M2_5_x_6_-__-___2
340
0
102
{BLKREFS
331
51
102
}
  0
BLOCK_RECORD
  5
3C
330
1
100
AcDbSymbolTableRecord
100
AcDbBlockTableRecord
  2
Linsenschraube_DIN_7985_-_M2_5_x_6_-__-___3
340
0
102
{BLKREFS
331
52
102
}
  0
BLOCK_RECORD
  5
3F
330
1
100
AcDbSymbolTableRecord
100
AcDbBlockTableRecord
  2
O-Ring
340
0
102
{BLKREFS
331
43
102
}
  0
BLOCK_RECORD
  5
42
330
1
100
AcDbSymbolTableRecord
100
AcDbBlockTableRecord
  2
Winkelflanschdose_8-polig_drehbar__4
340
0
102
{BLKREFS
331
53
102
}
  0
BLOCK_RECORD
  5
46
330
1
100
AcDbSymbolTableRecord
100
AcDbBlockTableRecord
  2
Flanschlagerschild
340
0
102
{BLKREFS
331
54
102
}
  0
BLOCK_RECORD
  5
49
330
1
100
AcDbSymbolTableRecord
100
AcDbBlockTableRecord
  2
Rotor
340
0
102
{BLKREFS
331
55
102
}
  0
BLOCK_RECORD
  5
4C
330
1
100
AcDbSymbolTableRecord
100
AcDbBlockTableRecord
  2
Radialdichtring_B15x30x7
340
0
102
{BLKREFS
331
56
102
}
  0
BLOCK_RECORD
  5
3F2
330
1
100
AcDbSymbolTableRecord
100
AcDbBlockTableRecord
  2
*D10
340
0
  0
BLOCK_RECORD
  5
3FD
330
1
100
AcDbSymbolTableRecord
100
AcDbBlockTableRecord
  2
*D11
340
0
  0
BLOCK_RECORD
  5
408
330
1
100
AcDbSymbolTableRecord
100
AcDbBlockTableRecord
  2
*D12
340
0
  0
BLOCK_RECORD
  5
413
330
1
100
AcDbSymbolTableRecord
100
AcDbBlockTableRecord
  2
*D13
340
0
  0
BLOCK_RECORD
  5
41E
330
1
100
AcDbSymbolTableRecord
100
AcDbBlockTableRecord
  2
*D14
340
0
  0
BLOCK_RECORD
  5
42B
330
1
100
AcDbSymbolTableRecord
100
AcDbBlockTableRecord
  2
*D15
340
0
  0
BLOCK_RECORD
  5
438
330
1
100
AcDbSymbolTableRecord
100
AcDbBlockTableRecord
  2
*D16
340
0
  0
BLOCK_RECORD
  5
445
330
1
100
AcDbSymbolTableRecord
100
AcDbBlockTableRecord
  2
*D17
340
0
  0
BLOCK_RECORD
  5
450
330
1
100
AcDbSymbolTableRecord
100
AcDbBlockTableRecord
  2
*D18
340
0
  0
BLOCK_RECORD
  5
45D
330
1
100
AcDbSymbolTableRecord
100
AcDbBlockTableRecord
  2
*D19
340
0
  0
BLOCK_RECORD
  5
468
330
1
100
AcDbSymbolTableRecord
100
AcDbBlockTableRecord
  2
*D20
340
0
  0
BLOCK_RECORD
  5
473
330
1
100
AcDbSymbolTableRecord
100
AcDbBlockTableRecord
  2
*D21
340
0
  0
BLOCK_RECORD
  5
47E
330
1
100
AcDbSymbolTableRecord
100
AcDbBlockTableRecord
  2
*D22
340
0
  0
BLOCK_RECORD
  5
48B
330
1
100
AcDbSymbolTableRecord
100
AcDbBlockTableRecord
  2
*D23
340
0
  0
BLOCK_RECORD
  5
496
330
1
100
AcDbSymbolTableRecord
100
AcDbBlockTableRecord
  2
*D24
340
0
  0
BLOCK_RECORD
  5
4A3
330
1
100
AcDbSymbolTableRecord
100
AcDbBlockTableRecord
  2
*D25
340
0
102
{BLKREFS
331
4AA
102
}
  0
BLOCK_RECORD
  5
4AB
330
1
100
AcDbSymbolTableRecord
100
AcDbBlockTableRecord
  2
*D26
340
0
102
{BLKREFS
331
4B1
102
}
  0
BLOCK_RECORD
  5
4B2
330
1
100
AcDbSymbolTableRecord
100
AcDbBlockTableRecord
  2
*D27
340
0
102
{BLKREFS
331
4BB
102
}
  0
BLOCK_RECORD
  5
4BC
330
1
100
AcDbSymbolTableRecord
100
AcDbBlockTableRecord
  2
*D28
340
0
  0
ENDTAB
  0
ENDSEC
  0
SECTION
  2
BLOCKS
  0
BLOCK
  5
20
330
1F
100
AcDbEntity
  8
0
100
AcDbBlockBegin
  2
*Model_Space
 70
     0
 71
     0
 10
0.0
 20
0.0
 30
0.0
  3
*Model_Space
  1

  0
ENDBLK
  5
21
330
1F
100
AcDbEntity
  8
0
100
AcDbBlockEnd
  0
BLOCK
  5
1C
330
1B
100
AcDbEntity
 67
     1
  8
0
100
AcDbBlockBegin
  2
*Paper_Space
 70
     0
 71
     0
 10
0.0
 20
0.0
 30
0.0
  3
*Paper_Space
  1

  0
ENDBLK
  5
1D
330
1B
100
AcDbEntity
 67
     1
  8
0
100
AcDbBlockEnd
  0
BLOCK
  5
24
330
23
100
AcDbEntity
  8
0
100
AcDbBlockBegin
  2
*Paper_Space0
 70
     0
 71
     0
 10
0.0
 20
0.0
 30
0.0
  3
*Paper_Space0
  1

  0
ENDBLK
  5
25
330
23
100
AcDbEntity
  8
0
100
AcDbBlockEnd
  0
BLOCK
  5
34
330
33
100
AcDbEntity
  8
0
100
AcDbBlockBegin
  2
tb_frame_A3
 70
     0
 71
     0
 10
0.0
 20
0.0
 30
0.0
  3
tb_frame_A3
  1

  0
POINT
  5
57
330
33
100
AcDbEntity
  8
1
 62
   250
100
AcDbPoint
 10
205.0
 20
-142.5
 30
0.0
  0
LINE
  5
58
330
33
100
AcDbEntity
  8
0
  6
Continuous
 62
     2
100
AcDbLine
 10
-198.880000000001
 20
0.00000000000001
 30
0.0
 11
-187.880000000001
 21
0.00000000000001
 31
0.0
  0
LINE
  5
59
330
33
100
AcDbEntity
  8
1
  6
Continuous
 62
     7
100
AcDbLine
 10
-187.880000000001
 20
142.0
 30
0.0
 11
-187.880000000001
 21
-142.5
 31
0.0
  0
LINE
  5
5A
330
33
100
AcDbEntity
  8
1
  6
Continuous
 62
     7
100
AcDbLine
 10
205.0
 20
142.0
 30
0.0
 11
-187.880000000001
 21
142.0
 31
0.0
  0
LINE
  5
5B
330
33
100
AcDbEntity
  8
1
  6
Continuous
 62
     7
100
AcDbLine
 10
205.0
 20
-142.5
 30
0.0
 11
205.0
 21
142.0
 31
0.0
  0
LINE
  5
5C
330
33
100
AcDbEntity
  8
1
  6
Continuous
 62
     7
100
AcDbLine
 10
-187.880000000001
 20
-142.5
 30
0.0
 11
205.0
 21
-142.5
 31
0.0
  0
LINE
  5
5D
330
33
100
AcDbEntity
  8
1
  6
Continuous
 62
     7
100
AcDbLine
 10
22.11999999999898
 20
-142.5
 30
0.0
 11
22.11999999999898
 21
-87.51000000000022
 31
0.0
  0
LINE
  5
5E
330
33
100
AcDbEntity
  8
1
  6
Continuous
 62
     2
100
AcDbLine
 10
75.45999999999992
 20
-100.2000000000007
 30
0.0
 11
22.11999999999898
 21
-100.2000000000007
 31
0.0
  0
LINE
  5
5F
330
33
100
AcDbEntity
  8
1
  6
Continuous
 62
     7
100
AcDbLine
 10
205.0
 20
-125.5799999999999
 30
0.0
 11
22.11999999999898
 21
-125.5799999999999
 31
0.0
  0
LINE
  5
60
330
33
100
AcDbEntity
  8
1
  6
Continuous
 62
     7
100
AcDbLine
 10
37.35999999999888
 20
-125.5799999999999
 30
0.0
 11
37.35999999999888
 21
-142.5
 31
0.0
  0
LINE
  5
61
330
33
100
AcDbEntity
  8
1
  6
Continuous
 62
     7
100
AcDbLine
 10
128.8000000000002
 20
-87.51000000000022
 30
0.0
 11
128.8000000000002
 21
-142.5
 31
0.0
  0
LINE
  5
62
330
33
100
AcDbEntity
  8
1
  6
Continuous
 62
     7
100
AcDbLine
 10
128.8000000000002
 20
-91.73999999999978
 30
0.0
 11
205.0
 21
-91.73999999999978
 31
0.0
  0
LINE
  5
63
330
33
100
AcDbEntity
  8
1
  6
Continuous
 62
     7
100
AcDbLine
 10
166.8999999999996
 20
-87.51000000000022
 30
0.0
 11
166.8999999999996
 21
-91.73999999999978
 31
0.0
  0
LINE
  5
64
330
33
100
AcDbEntity
  8
1
  6
Continuous
 62
     7
100
AcDbLine
 10
128.8000000000002
 20
-138.2700000000004
 30
0.0
 11
205.0
 21
-138.2700000000004
 31
0.0
  0
LINE
  5
65
330
33
100
AcDbEntity
  8
1
  6
Continuous
 62
     7
100
AcDbLine
 10
192.3000000000002
 20
-134.0400000000009
 30
0.0
 11
205.0
 21
-134.0400000000009
 31
0.0
  0
LINE
  5
66
330
33
100
AcDbEntity
  8
1
  6
Continuous
 62
     7
100
AcDbLine
 10
192.3000000000002
 20
-125.5799999999999
 30
0.0
 11
192.3000000000002
 21
-138.2700000000004
 31
0.0
  0
LINE
  5
67
330
33
100
AcDbEntity
  8
1
  6
Continuous
 62
     2
100
AcDbLine
 10
22.11999999999898
 20
-91.73999999999978
 30
0.0
 11
75.45999999999992
 21
-91.73999999999978
 31
0.0
  0
LINE
  5
68
330
33
100
AcDbEntity
  8
1
  6
Continuous
 62
     2
100
AcDbLine
 10
22.11999999999898
 20
-95.97000000000116
 30
0.0
 11
75.45999999999992
 21
-95.97000000000116
 31
0.0
  0
LINE
  5
69
330
33
100
AcDbEntity
  8
1
  6
Continuous
 62
     2
100
AcDbLine
 10
22.11999999999898
 20
-104.4300000000003
 30
0.0
 11
75.45999999999992
 21
-104.4300000000003
 31
0.0
  0
LINE
  5
6A
330
33
100
AcDbEntity
  8
1
  6
Continuous
 62
     2
100
AcDbLine
 10
37.35999999999888
 20
-108.6599999999999
 30
0.0
 11
37.35999999999888
 21
-125.5799999999999
 31
0.0
  0
LINE
  5
6B
330
33
100
AcDbEntity
  8
1
  6
Continuous
 62
     2
100
AcDbLine
 10
22.11999999999898
 20
-112.8899999999994
 30
0.0
 11
75.45999999999992
 21
-112.8899999999994
 31
0.0
  0
LINE
  5
6C
330
33
100
AcDbEntity
  8
1
  6
Continuous
 62
     2
100
AcDbLine
 10
22.11999999999898
 20
-121.3500000000004
 30
0.0
 11
75.45999999999992
 21
-121.3500000000004
 31
0.0
  0
LINE
  5
6D
330
33
100
AcDbEntity
  8
1
  6
Continuous
 62
     7
100
AcDbLine
 10
22.11999999999898
 20
-87.51000000000022
 30
0.0
 11
205.0
 21
-87.51000000000022
 31
0.0
  0
LINE
  5
6E
330
33
100
AcDbEntity
  8
1
  6
Continuous
 62
     7
100
AcDbLine
 10
75.45999999999992
 20
-87.51000000000022
 30
0.0
 11
75.45999999999992
 21
-108.6599999999999
 31
0.0
  0
LINE
  5
6F
330
33
100
AcDbEntity
  8
1
  6
Continuous
 62
     7
100
AcDbLine
 10
75.45999999999992
 20
-108.6599999999999
 30
0.0
 11
75.45999999999992
 21
-125.5799999999999
 31
0.0
  0
LINE
  5
70
330
33
100
AcDbEntity
  8
1
  6
Continuous
 62
     2
100
AcDbLine
 10
75.45999999999992
 20
-117.1200000000008
 30
0.0
 11
22.11999999999898
 21
-117.1200000000008
 31
0.0
  0
LINE
  5
71
330
33
100
AcDbEntity
  8
1
  6
Continuous
 62
     2
100
AcDbLine
 10
27.19999999999891
 20
-87.51000000000022
 30
0.0
 11
27.19999999999891
 21
-108.6599999999999
 31
0.0
  0
LINE
  5
72
330
33
100
AcDbEntity
  8
1
  6
Continuous
 62
     2
100
AcDbLine
 10
42.43999999999869
 20
-87.51000000000022
 30
0.0
 11
42.43999999999869
 21
-108.6599999999999
 31
0.0
  0
LINE
  5
73
330
33
100
AcDbEntity
  8
1
  6
Continuous
 62
     7
100
AcDbLine
 10
22.11999999999898
 20
-108.6599999999999
 30
0.0
 11
205.0
 21
-108.6599999999999
 31
0.0
  0
LINE
  5
74
330
33
100
AcDbEntity
  8
1
  6
Continuous
 62
     2
100
AcDbLine
 10
60.21999999999832
 20
-87.51000000000022
 30
0.0
 11
60.21999999999832
 21
-108.6599999999999
 31
0.0
  0
LINE
  5
75
330
33
100
AcDbEntity
  8
1
  6
Continuous
 62
     2
100
AcDbLine
 10
67.83999999999912
 20
-87.51000000000022
 30
0.0
 11
67.83999999999912
 21
-108.6599999999999
 31
0.0
  0
LINE
  5
76
330
33
100
AcDbEntity
  8
1
  6
Continuous
 62
     7
100
AcDbLine
 10
102.1300000000001
 20
-87.51000000000022
 30
0.0
 11
102.1300000000001
 21
-108.6599999999999
 31
0.0
  0
LINE
  5
77
330
33
100
AcDbEntity
  8
1
  6
Continuous
 62
     2
100
AcDbLine
 10
55.13999999999851
 20
-108.6599999999999
 30
0.0
 11
55.13999999999851
 21
-125.5799999999999
 31
0.0
  0
LINE
  5
78
102
{ACAD_REACTORS
330
15D
330
15D
102
}
330
33
100
AcDbEntity
  8
1
  6
Continuous
 62
     2
100
AcDbLine
 10
173.1516542509982
 20
-118.4199999999999
 30
0.0
 11
173.1516542509982
 21
-111.2199999999999
 31
0.0
  0
LINE
  5
79
102
{ACAD_REACTORS
330
161
330
161
102
}
330
33
100
AcDbEntity
  8
1
  6
Continuous
 62
     2
100
AcDbLine
 10
169.8516542509982
 20
-115.0950442138285
 30
0.0
 11
169.8516542509982
 21
-119.4199999999999
 31
0.0
  0
LINE
  5
7A
102
{ACAD_REACTORS
330
161
330
161
102
}
330
33
100
AcDbEntity
  8
1
  6
Continuous
 62
     2
100
AcDbLine
 10
169.8516542509982
 20
-110.2199999999999
 30
0.0
 11
169.8516542509982
 21
-113.8826635858394
 31
0.0
  0
LINE
  5
7B
102
{ACAD_REACTORS
330
161
330
161
102
}
330
33
100
AcDbEntity
  8
1
  6
Continuous
 62
     2
100
AcDbLine
 10
169.8516542509982
 20
-115.0950442138285
 30
0.0
 11
171.1024763583806
 21
-119.4199999999999
 31
0.0
  0
LINE
  5
7C
102
{ACAD_REACTORS
330
161
330
161
102
}
330
33
100
AcDbEntity
  8
1
  6
Continuous
 62
     2
100
AcDbLine
 10
171.0854042804337
 20
-110.2199999999999
 30
0.0
 11
169.8516542509982
 21
-113.8826635858394
 31
0.0
  0
LINE
  5
7D
102
{ACAD_REACTORS
330
161
330
161
102
}
330
33
100
AcDbEntity
  8
1
  6
Continuous
 62
     2
100
AcDbLine
 10
171.1024763583806
 20
-119.4199999999999
 30
0.0
 11
172.3516542509982
 21
-119.4199999999999
 31
0.0
  0
LINE
  5
7E
102
{ACAD_REACTORS
330
161
330
161
102
}
330
33
100
AcDbEntity
  8
1
  6
Continuous
 62
     2
100
AcDbLine
 10
171.0854042804337
 20
-110.2199999999999
 30
0.0
 11
172.3516542509982
 21
-110.2199999999999
 31
0.0
  0
LINE
  5
7F
102
{ACAD_REACTORS
330
161
330
161
102
}
330
33
100
AcDbEntity
  8
1
  6
Continuous
 62
     2
100
AcDbLine
 10
170.9200628688759
 20
-114.4699999999999
 30
0.0
 11
172.3516542509982
 21
-119.4199999999999
 31
0.0
  0
LINE
  5
80
102
{ACAD_REACTORS
330
161
330
161
102
}
330
33
100
AcDbEntity
  8
1
  6
Continuous
 62
     2
100
AcDbLine
 10
172.3516542509982
 20
-110.2199999999999
 30
0.0
 11
170.9200628688759
 21
-114.4699999999999
 31
0.0
  0
LINE
  5
81
102
{ACAD_REACTORS
330
15E
330
15E
102
}
330
33
100
AcDbEntity
  8
1
  6
Continuous
 62
     2
100
AcDbLine
 10
181.3516542509982
 20
-115.1199999999999
 30
0.0
 11
181.3516542509982
 21
-118.4199999999999
 31
0.0
  0
LINE
  5
82
102
{ACAD_REACTORS
330
15E
330
15E
102
}
330
33
100
AcDbEntity
  8
1
  6
Continuous
 62
     2
100
AcDbLine
 10
181.3516542509982
 20
-113.8199999999999
 30
0.0
 11
181.3516542509982
 21
-111.2199999999999
 31
0.0
  0
LINE
  5
83
102
{ACAD_REACTORS
330
15C
330
15C
102
}
330
33
100
AcDbEntity
  8
1
  6
Continuous
 62
     2
100
AcDbLine
 10
191.2516542509982
 20
-111.3199999999999
 30
0.0
 11
191.2516542509982
 21
-111.9699999999999
 31
0.0
  0
LINE
  5
84
102
{ACAD_REACTORS
330
15C
330
15C
102
}
330
33
100
AcDbEntity
  8
1
  6
Continuous
 62
     2
100
AcDbLine
 10
191.2516542509982
 20
-111.3199999999999
 30
0.0
 11
191.9016542509982
 21
-111.3199999999999
 31
0.0
  0
LINE
  5
85
102
{ACAD_REACTORS
330
162
330
162
102
}
330
33
100
AcDbEntity
  8
1
  6
Continuous
 62
     2
100
AcDbLine
 10
187.8516542509982
 20
-118.30758746051
 30
0.0
 11
189.2516542509982
 21
-118.30758746051
 31
0.0
  0
LINE
  5
86
102
{ACAD_REACTORS
330
162
330
162
102
}
330
33
100
AcDbEntity
  8
1
  6
Continuous
 62
     2
100
AcDbLine
 10
187.8516542509982
 20
-110.2199999999999
 30
0.0
 11
187.8516542509982
 21
-118.30758746051
 31
0.0
  0
LINE
  5
87
102
{ACAD_REACTORS
330
15C
330
15C
102
}
330
33
100
AcDbEntity
  8
1
  6
Continuous
 62
     2
100
AcDbLine
 10
191.2516542509982
 20
-118.30758746051
 30
0.0
 11
191.2516542509982
 21
-111.9699999999999
 31
0.0
  0
LINE
  5
88
102
{ACAD_REACTORS
330
15C
330
15C
102
}
330
33
100
AcDbEntity
  8
1
  6
Continuous
 62
     2
100
AcDbLine
 10
191.9016542509982
 20
-118.30758746051
 30
0.0
 11
191.2516542509982
 21
-118.30758746051
 31
0.0
  0
LINE
  5
89
102
{ACAD_REACTORS
330
15C
330
15C
102
}
330
33
100
AcDbEntity
  8
1
  6
Continuous
 62
     2
100
AcDbLine
 10
192.5516542509982
 20
-111.9699999999999
 30
0.0
 11
192.5516542509982
 21
-117.65758746051
 31
0.0
  0
LINE
  5
8A
102
{ACAD_REACTORS
330
15F
330
15F
102
}
330
33
100
AcDbEntity
  8
1
  6
Continuous
 62
     2
100
AcDbLine
 10
183.3516542509982
 20
-117.65758746051
 30
0.0
 11
183.3516542509982
 21
-111.9699999999999
 31
0.0
  0
LINE
  5
8B
102
{ACAD_REACTORS
330
15F
330
15F
102
}
330
33
100
AcDbEntity
  8
1
  6
Continuous
 62
     2
100
AcDbLine
 10
184.6516542509982
 20
-111.9699999999999
 30
0.0
 11
184.6516542509982
 21
-117.65758746051
 31
0.0
  0
LINE
  5
8C
102
{ACAD_REACTORS
330
15E
330
15E
102
}
330
33
100
AcDbEntity
  8
1
  6
Continuous
 62
     2
100
AcDbLine
 10
178.8516542509982
 20
-115.0199999999999
 30
0.0
 11
179.5016542509982
 21
-115.0199999999999
 31
0.0
  0
LINE
  5
8D
102
{ACAD_REACTORS
330
15E
330
15E
102
}
330
33
100
AcDbEntity
  8
1
  6
Continuous
 62
     2
100
AcDbLine
 10
178.8516542509982
 20
-111.3199999999999
 30
0.0
 11
178.8516542509982
 21
-113.9199999999999
 31
0.0
  0
LINE
  5
8E
102
{ACAD_REACTORS
330
15E
330
15E
102
}
330
33
100
AcDbEntity
  8
1
  6
Continuous
 62
     2
100
AcDbLine
 10
180.1516542509982
 20
-117.65758746051
 30
0.0
 11
180.1516542509982
 21
-115.6699999999999
 31
0.0
  0
LINE
  5
8F
102
{ACAD_REACTORS
330
15E
330
15E
102
}
330
33
100
AcDbEntity
  8
1
  6
Continuous
 62
     2
100
AcDbLine
 10
178.8516542509982
 20
-118.30758746051
 30
0.0
 11
179.5016542509982
 21
-118.30758746051
 31
0.0
  0
LINE
  5
90
102
{ACAD_REACTORS
330
15E
330
15E
102
}
330
33
100
AcDbEntity
  8
1
  6
Continuous
 62
     2
100
AcDbLine
 10
178.8516542509982
 20
-115.0199999999999
 30
0.0
 11
178.8516542509982
 21
-118.30758746051
 31
0.0
  0
LINE
  5
91
102
{ACAD_REACTORS
330
15E
330
15E
102
}
330
33
100
AcDbEntity
  8
1
  6
Continuous
 62
     2
100
AcDbLine
 10
179.5016542509982
 20
-113.9199999999999
 30
0.0
 11
178.8516542509982
 21
-113.9199999999999
 31
0.0
  0
LINE
  5
92
102
{ACAD_REACTORS
330
15E
330
15E
102
}
330
33
100
AcDbEntity
  8
1
  6
Continuous
 62
     2
100
AcDbLine
 10
180.1516542509982
 20
-111.9699999999999
 30
0.0
 11
180.1516542509982
 21
-113.2699999999999
 31
0.0
  0
LINE
  5
93
102
{ACAD_REACTORS
330
15E
330
15E
102
}
330
33
100
AcDbEntity
  8
1
  6
Continuous
 62
     2
100
AcDbLine
 10
178.8516542509982
 20
-111.3199999999999
 30
0.0
 11
179.5016542509982
 21
-111.3199999999999
 31
0.0
  0
LINE
  5
94
102
{ACAD_REACTORS
330
15D
330
15D
102
}
330
33
100
AcDbEntity
  8
1
  6
Continuous
 62
     2
100
AcDbLine
 10
174.3516542509982
 20
-117.65758746051
 30
0.0
 11
174.3516542509982
 21
-111.9699999999999
 31
0.0
  0
LINE
  5
95
102
{ACAD_REACTORS
330
15D
330
15D
102
}
330
33
100
AcDbEntity
  8
1
  6
Continuous
 62
     2
100
AcDbLine
 10
175.6516542509982
 20
-111.9699999999999
 30
0.0
 11
175.6516542509982
 21
-117.65758746051
 31
0.0
  0
LINE
  5
96
102
{ACAD_REACTORS
330
15A
330
15A
102
}
330
33
100
AcDbEntity
  8
1
  6
Continuous
 62
     2
100
AcDbLine
 10
159.7415058473918
 20
-114.7199999999999
 30
0.0
 11
160.6516542509982
 21
-114.7199999999999
 31
0.0
  0
LINE
  5
97
330
33
100
AcDbEntity
  8
1
  6
Continuous
 62
     2
100
AcDbLine
 10
158.9016542509982
 20
-114.7199999999999
 30
0.0
 11
159.7415058473918
 21
-114.7199999999999
 31
0.0
  0
LINE
  5
98
102
{ACAD_REACTORS
330
15B
330
15B
102
}
330
33
100
AcDbEntity
  8
1
  6
Continuous
 62
     2
100
AcDbLine
 10
153.6516542509982
 20
-115.4199999999999
 30
0.0
 11
153.6516542509982
 21
-119.4199999999999
 31
0.0
  0
LINE
  5
99
102
{ACAD_REACTORS
330
15B
330
15B
102
}
330
33
100
AcDbEntity
  8
1
  6
Continuous
 62
     2
100
AcDbLine
 10
154.3016542509982
 20
-115.4199999999999
 30
0.0
 11
153.6516542509982
 21
-115.4199999999999
 31
0.0
  0
LINE
  5
9A
102
{ACAD_REACTORS
330
15B
330
15B
102
}
330
33
100
AcDbEntity
  8
1
  6
Continuous
 62
     2
100
AcDbLine
 10
153.6516542509982
 20
-114.2199999999999
 30
0.0
 11
154.3016542509982
 21
-114.2199999999999
 31
0.0
  0
LINE
  5
9B
102
{ACAD_REACTORS
330
15B
330
15B
102
}
330
33
100
AcDbEntity
  8
1
  6
Continuous
 62
     2
100
AcDbLine
 10
153.6516542509982
 20
-111.3199999999999
 30
0.0
 11
153.6516542509982
 21
-114.2199999999999
 31
0.0
  0
LINE
  5
9C
102
{ACAD_REACTORS
330
15B
330
15B
102
}
330
33
100
AcDbEntity
  8
1
  6
Continuous
 62
     2
100
AcDbLine
 10
153.6516542509982
 20
-111.3199999999999
 30
0.0
 11
154.3016542509982
 21
-111.3199999999999
 31
0.0
  0
LINE
  5
9D
102
{ACAD_REACTORS
330
159
330
159
102
}
330
33
100
AcDbEntity
  8
1
  6
Continuous
 62
     2
100
AcDbLine
 10
142.5516542509982
 20
-113.3199999999999
 30
0.0
 11
143.7516542509982
 21
-113.3199999999999
 31
0.0
  0
LINE
  5
9E
102
{ACAD_REACTORS
330
159
330
159
102
}
330
33
100
AcDbEntity
  8
1
  6
Continuous
 62
     2
100
AcDbLine
 10
142.5516542509982
 20
-111.9699999999999
 30
0.0
 11
142.5516542509982
 21
-113.3199999999999
 31
0.0
  0
LINE
  5
9F
102
{ACAD_REACTORS
330
159
330
159
102
}
330
33
100
AcDbEntity
  8
1
  6
Continuous
 62
     2
100
AcDbLine
 10
141.2516542509982
 20
-117.65758746051
 30
0.0
 11
141.2516542509982
 21
-111.9699999999999
 31
0.0
  0
LINE
  5
A0
102
{ACAD_REACTORS
330
159
330
159
102
}
330
33
100
AcDbEntity
  8
1
  6
Continuous
 62
     2
100
AcDbLine
 10
142.5516542509982
 20
-117.65758746051
 30
0.0
 11
142.5516542509982
 21
-115.9199999999999
 31
0.0
  0
LINE
  5
A1
102
{ACAD_REACTORS
330
160
330
160
102
}
330
33
100
AcDbEntity
  8
1
  6
Continuous
 62
     2
100
AcDbLine
 10
149.1516542509982
 20
-111.9699999999999
 30
0.0
 11
149.1516542509982
 21
-117.65758746051
 31
0.0
  0
LINE
  5
A2
102
{ACAD_REACTORS
330
160
330
160
102
}
330
33
100
AcDbEntity
  8
1
  6
Continuous
 62
     2
100
AcDbLine
 10
150.4516542509982
 20
-111.9699999999999
 30
0.0
 11
150.4516542509982
 21
-117.65758746051
 31
0.0
  0
LINE
  5
A3
102
{ACAD_REACTORS
330
163
330
163
102
}
330
33
100
AcDbEntity
  8
1
  6
Continuous
 62
     2
100
AcDbLine
 10
147.1516542509982
 20
-111.3199999999999
 30
0.0
 11
147.1516542509982
 21
-110.2199999999999
 31
0.0
  0
LINE
  5
A4
102
{ACAD_REACTORS
330
163
330
163
102
}
330
33
100
AcDbEntity
  8
1
  6
Continuous
 62
     2
100
AcDbLine
 10
145.8516542509982
 20
-111.3199999999999
 30
0.0
 11
147.1516542509982
 21
-111.3199999999999
 31
0.0
  0
LINE
  5
A5
102
{ACAD_REACTORS
330
164
330
164
102
}
330
33
100
AcDbEntity
  8
1
  6
Continuous
 62
     2
100
AcDbLine
 10
163.4516542509982
 20
-119.4199999999999
 30
0.0
 11
164.6516542509982
 21
-119.4199999999999
 31
0.0
  0
LINE
  5
A6
102
{ACAD_REACTORS
330
15A
330
15A
102
}
330
33
100
AcDbEntity
  8
1
  6
Continuous
 62
     2
100
AcDbLine
 10
158.9016542509982
 20
-115.9199999999999
 30
0.0
 11
159.4516542509982
 21
-115.9199999999999
 31
0.0
  0
LINE
  5
A7
102
{ACAD_REACTORS
330
15A
330
15A
102
}
330
33
100
AcDbEntity
  8
1
  6
Continuous
 62
     2
100
AcDbLine
 10
158.9016542509982
 20
-114.7199999999999
 30
0.0
 11
158.9016542509982
 21
-115.9199999999999
 31
0.0
  0
LINE
  5
A8
102
{ACAD_REACTORS
330
15A
330
15A
102
}
330
33
100
AcDbEntity
  8
1
  6
Continuous
 62
     2
100
AcDbLine
 10
158.9016542509982
 20
-114.7199999999999
 30
0.0
 11
159.7415058473918
 21
-114.7199999999999
 31
0.0
  0
LINE
  5
A9
102
{ACAD_REACTORS
330
165
330
165
102
}
330
33
100
AcDbEntity
  8
1
  6
Continuous
 62
     2
100
AcDbLine
 10
161.4516542509982
 20
-110.2199999999999
 30
0.0
 11
161.4516542509982
 21
-119.4199999999999
 31
0.0
  0
LINE
  5
AA
102
{ACAD_REACTORS
330
165
330
165
102
}
330
33
100
AcDbEntity
  8
1
  6
Continuous
 62
     2
100
AcDbLine
 10
162.6516542509982
 20
-119.4199999999999
 30
0.0
 11
162.6516542509982
 21
-110.2199999999999
 31
0.0
  0
LINE
  5
AB
102
{ACAD_REACTORS
330
164
330
164
102
}
330
33
100
AcDbEntity
  8
1
  6
Continuous
 62
     2
100
AcDbLine
 10
163.4516542509982
 20
-110.2199999999999
 30
0.0
 11
163.4516542509982
 21
-119.4199999999999
 31
0.0
  0
LINE
  5
AC
102
{ACAD_REACTORS
330
164
330
164
102
}
330
33
100
AcDbEntity
  8
1
  6
Continuous
 62
     2
100
AcDbLine
 10
164.6516542509982
 20
-119.4199999999999
 30
0.0
 11
164.6516542509982
 21
-110.2199999999999
 31
0.0
  0
LINE
  5
AD
102
{ACAD_REACTORS
330
165
330
165
102
}
330
33
100
AcDbEntity
  8
1
  6
Continuous
 62
     2
100
AcDbLine
 10
161.4516542509982
 20
-119.4199999999999
 30
0.0
 11
162.6516542509982
 21
-119.4199999999999
 31
0.0
  0
LINE
  5
AE
102
{ACAD_REACTORS
330
164
330
164
102
}
330
33
100
AcDbEntity
  8
1
  6
Continuous
 62
     2
100
AcDbLine
 10
163.4516542509982
 20
-110.2199999999999
 30
0.0
 11
164.6516542509982
 21
-110.2199999999999
 31
0.0
  0
LINE
  5
AF
102
{ACAD_REACTORS
330
165
330
165
102
}
330
33
100
AcDbEntity
  8
1
  6
Continuous
 62
     2
100
AcDbLine
 10
161.4516542509982
 20
-110.2199999999999
 30
0.0
 11
162.6516542509982
 21
-110.2199999999999
 31
0.0
  0
LINE
  5
B0
102
{ACAD_REACTORS
330
15B
330
15B
102
}
330
33
100
AcDbEntity
  8
1
  6
Continuous
 62
     2
100
AcDbLine
 10
153.6516542509982
 20
-119.4199999999999
 30
0.0
 11
152.4516542509982
 21
-119.4199999999999
 31
0.0
  0
LINE
  5
B1
102
{ACAD_REACTORS
330
15B
330
15B
102
}
330
33
100
AcDbEntity
  8
1
  6
Continuous
 62
     2
100
AcDbLine
 10
154.9516542509982
 20
-119.4199999999999
 30
0.0
 11
156.1516542509982
 21
-119.4199999999999
 31
0.0
  0
LINE
  5
B2
102
{ACAD_REACTORS
330
15B
330
15B
102
}
330
33
100
AcDbEntity
  8
1
  6
Continuous
 62
     2
100
AcDbLine
 10
154.9516542509982
 20
-116.0699999999999
 30
0.0
 11
154.9516542509982
 21
-119.4199999999999
 31
0.0
  0
LINE
  5
B3
102
{ACAD_REACTORS
330
15B
330
15B
102
}
330
33
100
AcDbEntity
  8
1
  6
Continuous
 62
     2
100
AcDbLine
 10
154.9516542509982
 20
-113.5699999999999
 30
0.0
 11
154.9516542509982
 21
-111.9699999999999
 31
0.0
  0
LINE
  5
B4
102
{ACAD_REACTORS
330
15A
330
15A
102
}
330
33
100
AcDbEntity
  8
1
  6
Continuous
 62
     2
100
AcDbLine
 10
159.4516542509982
 20
-117.65758746051
 30
0.0
 11
159.4516542509982
 21
-115.9199999999999
 31
0.0
  0
LINE
  5
B5
102
{ACAD_REACTORS
330
15A
330
15A
102
}
330
33
100
AcDbEntity
  8
1
  6
Continuous
 62
     2
100
AcDbLine
 10
158.1516542509982
 20
-111.9699999999999
 30
0.0
 11
158.1516542509982
 21
-117.65758746051
 31
0.0
  0
LINE
  5
B6
102
{ACAD_REACTORS
330
15A
330
15A
102
}
330
33
100
AcDbEntity
  8
1
  6
Continuous
 62
     2
100
AcDbLine
 10
159.4516542509982
 20
-113.3199999999999
 30
0.0
 11
159.4516542509982
 21
-111.9699999999999
 31
0.0
  0
LINE
  5
B7
102
{ACAD_REACTORS
330
15A
330
15A
102
}
330
33
100
AcDbEntity
  8
1
  6
Continuous
 62
     2
100
AcDbLine
 10
160.1516542509982
 20
-119.4199999999999
 30
0.0
 11
159.8046153744343
 21
-118.8199999999999
 31
0.0
  0
LINE
  5
B8
102
{ACAD_REACTORS
330
15A
330
15A
102
}
330
33
100
AcDbEntity
  8
1
  6
Continuous
 62
     2
100
AcDbLine
 10
160.6516542509982
 20
-119.4199999999999
 30
0.0
 11
160.1516542509982
 21
-119.4199999999999
 31
0.0
  0
LINE
  5
B9
102
{ACAD_REACTORS
330
159
330
159
102
}
330
33
100
AcDbEntity
  8
1
  6
Continuous
 62
     2
100
AcDbLine
 10
141.0516542509982
 20
-110.2199999999999
 30
0.0
 11
142.7516542509982
 21
-110.2199999999999
 31
0.0
  0
LINE
  5
BA
102
{ACAD_REACTORS
330
159
330
159
102
}
330
33
100
AcDbEntity
  8
1
  6
Continuous
 62
     2
100
AcDbLine
 10
140.0516542509982
 20
-111.2199999999999
 30
0.0
 11
140.0516542509982
 21
-118.4199999999999
 31
0.0
  0
LINE
  5
BB
102
{ACAD_REACTORS
330
15A
330
15A
102
}
330
33
100
AcDbEntity
  8
1
  6
Continuous
 62
     2
100
AcDbLine
 10
156.9516542509982
 20
-118.4199999999999
 30
0.0
 11
156.9516542509982
 21
-111.2199999999999
 31
0.0
  0
LINE
  5
BC
102
{ACAD_REACTORS
330
15A
330
15A
102
}
330
33
100
AcDbEntity
  8
1
  6
Continuous
 62
     2
100
AcDbLine
 10
157.9516542509982
 20
-119.4199999999999
 30
0.0
 11
158.8173222162131
 21
-119.4199999999999
 31
0.0
  0
LINE
  5
BD
102
{ACAD_REACTORS
330
15C
330
15C
102
}
330
33
100
AcDbEntity
  8
1
  6
Continuous
 62
     2
100
AcDbLine
 10
193.7516542509982
 20
-111.2199999999999
 30
0.0
 11
193.7516542509982
 21
-118.4199999999999
 31
0.0
  0
LINE
  5
BE
102
{ACAD_REACTORS
330
15C
330
15C
102
}
330
33
100
AcDbEntity
  8
1
  6
Continuous
 62
     2
100
AcDbLine
 10
192.7516542509982
 20
-119.4199999999999
 30
0.0
 11
190.0516542509982
 21
-119.4199999999999
 31
0.0
  0
LINE
  5
BF
102
{ACAD_REACTORS
330
15D
330
15D
102
}
330
33
100
AcDbEntity
  8
1
  6
Continuous
 62
     2
100
AcDbLine
 10
176.8516542509982
 20
-111.2199999999999
 30
0.0
 11
176.8516542509982
 21
-118.4199999999999
 31
0.0
  0
LINE
  5
C0
102
{ACAD_REACTORS
330
15C
330
15C
102
}
330
33
100
AcDbEntity
  8
1
  6
Continuous
 62
     2
100
AcDbLine
 10
190.0516542509982
 20
-110.2199999999999
 30
0.0
 11
192.7516542509982
 21
-110.2199999999999
 31
0.0
  0
LINE
  5
C1
102
{ACAD_REACTORS
330
15C
330
15C
102
}
330
33
100
AcDbEntity
  8
1
  6
Continuous
 62
     2
100
AcDbLine
 10
190.0516542509982
 20
-119.4199999999999
 30
0.0
 11
190.0516542509982
 21
-110.2199999999999
 31
0.0
  0
LINE
  5
C2
102
{ACAD_REACTORS
330
162
330
162
102
}
330
33
100
AcDbEntity
  8
1
  6
Continuous
 62
     2
100
AcDbLine
 10
186.6516542509982
 20
-110.2199999999999
 30
0.0
 11
187.8516542509982
 21
-110.2199999999999
 31
0.0
  0
LINE
  5
C3
102
{ACAD_REACTORS
330
162
330
162
102
}
330
33
100
AcDbEntity
  8
1
  6
Continuous
 62
     2
100
AcDbLine
 10
189.2516542509982
 20
-119.4199999999999
 30
0.0
 11
189.2516542509982
 21
-118.30758746051
 31
0.0
  0
LINE
  5
C4
102
{ACAD_REACTORS
330
162
330
162
102
}
330
33
100
AcDbEntity
  8
1
  6
Continuous
 62
     2
100
AcDbLine
 10
186.6516542509982
 20
-119.4199999999999
 30
0.0
 11
189.2516542509982
 21
-119.4199999999999
 31
0.0
  0
LINE
  5
C5
102
{ACAD_REACTORS
330
162
330
162
102
}
330
33
100
AcDbEntity
  8
1
  6
Continuous
 62
     2
100
AcDbLine
 10
186.6516542509982
 20
-110.2199999999999
 30
0.0
 11
186.6516542509982
 21
-119.4199999999999
 31
0.0
  0
LINE
  5
C6
102
{ACAD_REACTORS
330
15F
330
15F
102
}
330
33
100
AcDbEntity
  8
1
  6
Continuous
 62
     2
100
AcDbLine
 10
183.1516542509982
 20
-110.2199999999999
 30
0.0
 11
184.8516542509982
 21
-110.2199999999999
 31
0.0
  0
LINE
  5
C7
102
{ACAD_REACTORS
330
15F
330
15F
102
}
330
33
100
AcDbEntity
  8
1
  6
Continuous
 62
     2
100
AcDbLine
 10
185.8516542509982
 20
-111.2199999999999
 30
0.0
 11
185.8516542509982
 21
-118.4199999999999
 31
0.0
  0
LINE
  5
C8
102
{ACAD_REACTORS
330
15F
330
15F
102
}
330
33
100
AcDbEntity
  8
1
  6
Continuous
 62
     2
100
AcDbLine
 10
183.1516542509982
 20
-119.4199999999999
 30
0.0
 11
184.8516542509982
 21
-119.4199999999999
 31
0.0
  0
LINE
  5
C9
102
{ACAD_REACTORS
330
15F
330
15F
102
}
330
33
100
AcDbEntity
  8
1
  6
Continuous
 62
     2
100
AcDbLine
 10
182.1516542509982
 20
-111.2199999999999
 30
0.0
 11
182.1516542509982
 21
-118.4199999999999
 31
0.0
  0
LINE
  5
CA
102
{ACAD_REACTORS
330
15E
330
15E
102
}
330
33
100
AcDbEntity
  8
1
  6
Continuous
 62
     2
100
AcDbLine
 10
177.6516542509982
 20
-119.4199999999999
 30
0.0
 11
180.3516542509982
 21
-119.4199999999999
 31
0.0
  0
LINE
  5
CB
102
{ACAD_REACTORS
330
15E
330
15E
102
}
330
33
100
AcDbEntity
  8
1
  6
Continuous
 62
     2
100
AcDbLine
 10
180.3516542509982
 20
-110.2199999999999
 30
0.0
 11
177.6516542509982
 21
-110.2199999999999
 31
0.0
  0
LINE
  5
CC
102
{ACAD_REACTORS
330
15E
330
15E
102
}
330
33
100
AcDbEntity
  8
1
  6
Continuous
 62
     2
100
AcDbLine
 10
177.6516542509982
 20
-110.2199999999999
 30
0.0
 11
177.6516542509982
 21
-119.4199999999999
 31
0.0
  0
LINE
  5
CD
102
{ACAD_REACTORS
330
15D
330
15D
102
}
330
33
100
AcDbEntity
  8
1
  6
Continuous
 62
     2
100
AcDbLine
 10
174.1516542509982
 20
-119.4199999999999
 30
0.0
 11
175.8516542509982
 21
-119.4199999999999
 31
0.0
  0
LINE
  5
CE
102
{ACAD_REACTORS
330
15D
330
15D
102
}
330
33
100
AcDbEntity
  8
1
  6
Continuous
 62
     2
100
AcDbLine
 10
174.1516542509982
 20
-110.2199999999999
 30
0.0
 11
175.8516542509982
 21
-110.2199999999999
 31
0.0
  0
LINE
  5
CF
330
33
100
AcDbEntity
  8
1
  6
Continuous
 62
     2
100
AcDbLine
 10
168.6516542509982
 20
-119.4199999999999
 30
0.0
 11
169.8516542509982
 21
-119.4199999999999
 31
0.0
  0
LINE
  5
D0
102
{ACAD_REACTORS
330
161
330
161
102
}
330
33
100
AcDbEntity
  8
1
  6
Continuous
 62
     2
100
AcDbLine
 10
168.6516542509982
 20
-119.4199999999999
 30
0.0
 11
168.6516542509982
 21
-110.2199999999999
 31
0.0
  0
LINE
  5
D1
102
{ACAD_REACTORS
330
161
330
161
102
}
330
33
100
AcDbEntity
  8
1
  6
Continuous
 62
     2
100
AcDbLine
 10
168.6516542509982
 20
-119.4199999999999
 30
0.0
 11
169.8516542509982
 21
-119.4199999999999
 31
0.0
  0
LINE
  5
D2
102
{ACAD_REACTORS
330
161
330
161
102
}
330
33
100
AcDbEntity
  8
1
  6
Continuous
 62
     2
100
AcDbLine
 10
168.6516542509982
 20
-110.2199999999999
 30
0.0
 11
169.8516542509982
 21
-110.2199999999999
 31
0.0
  0
LINE
  5
D3
102
{ACAD_REACTORS
330
15A
330
15A
102
}
330
33
100
AcDbEntity
  8
1
  6
Continuous
 62
     2
100
AcDbLine
 10
160.6516542509982
 20
-113.3199999999999
 30
0.0
 11
160.6516542509983
 21
-111.2199999999999
 31
0.0
  0
LINE
  5
D4
102
{ACAD_REACTORS
330
15A
330
15A
102
}
330
33
100
AcDbEntity
  8
1
  6
Continuous
 62
     2
100
AcDbLine
 10
160.6516542509982
 20
-113.3199999999999
 30
0.0
 11
159.4516542509982
 21
-113.3199999999999
 31
0.0
  0
LINE
  5
D5
102
{ACAD_REACTORS
330
15A
330
15A
102
}
330
33
100
AcDbEntity
  8
1
  6
Continuous
 62
     2
100
AcDbLine
 10
160.6516542509982
 20
-119.4199999999999
 30
0.0
 11
160.6516542509982
 21
-114.7199999999999
 31
0.0
  0
LINE
  5
D6
102
{ACAD_REACTORS
330
15A
330
15A
102
}
330
33
100
AcDbEntity
  8
1
  6
Continuous
 62
     2
100
AcDbLine
 10
157.9516542509982
 20
-110.2199999999999
 30
0.0
 11
159.6516542509982
 21
-110.2199999999999
 31
0.0
  0
LINE
  5
D7
102
{ACAD_REACTORS
330
15B
330
15B
102
}
330
33
100
AcDbEntity
  8
1
  6
Continuous
 62
     2
100
AcDbLine
 10
156.1516542509982
 20
-115.6603414185126
 30
0.0
 11
156.1516542509982
 21
-119.4199999999999
 31
0.0
  0
LINE
  5
D8
102
{ACAD_REACTORS
330
15B
330
15B
102
}
330
33
100
AcDbEntity
  8
1
  6
Continuous
 62
     2
100
AcDbLine
 10
156.1516542509982
 20
-114.0043621302671
 30
0.0
 11
156.1516542509982
 21
-111.2199999999999
 31
0.0
  0
LINE
  5
D9
102
{ACAD_REACTORS
330
15B
330
15B
102
}
330
33
100
AcDbEntity
  8
1
  6
Continuous
 62
     2
100
AcDbLine
 10
152.4516542509982
 20
-110.2199999999999
 30
0.0
 11
155.1516542509982
 21
-110.2199999999999
 31
0.0
  0
LINE
  5
DA
102
{ACAD_REACTORS
330
15B
330
15B
102
}
330
33
100
AcDbEntity
  8
1
  6
Continuous
 62
     2
100
AcDbLine
 10
152.4516542509982
 20
-110.2199999999999
 30
0.0
 11
152.4516542509982
 21
-119.4199999999999
 31
0.0
  0
LINE
  5
DB
102
{ACAD_REACTORS
330
160
330
160
102
}
330
33
100
AcDbEntity
  8
1
  6
Continuous
 62
     2
100
AcDbLine
 10
151.6516542509982
 20
-111.2199999999999
 30
0.0
 11
151.6516542509982
 21
-118.4199999999999
 31
0.0
  0
LINE
  5
DC
102
{ACAD_REACTORS
330
160
330
160
102
}
330
33
100
AcDbEntity
  8
1
  6
Continuous
 62
     2
100
AcDbLine
 10
147.9516542509982
 20
-111.2199999999999
 30
0.0
 11
147.9516542509982
 21
-118.4199999999999
 31
0.0
  0
LINE
  5
DD
102
{ACAD_REACTORS
330
160
330
160
102
}
330
33
100
AcDbEntity
  8
1
  6
Continuous
 62
     2
100
AcDbLine
 10
150.6516542509982
 20
-119.4199999999999
 30
0.0
 11
148.9516542509982
 21
-119.4199999999999
 31
0.0
  0
LINE
  5
DE
102
{ACAD_REACTORS
330
160
330
160
102
}
330
33
100
AcDbEntity
  8
1
  6
Continuous
 62
     2
100
AcDbLine
 10
148.9516542509982
 20
-110.2199999999999
 30
0.0
 11
150.6516542509982
 21
-110.2199999999999
 31
0.0
  0
LINE
  5
DF
102
{ACAD_REACTORS
330
159
330
159
102
}
330
33
100
AcDbEntity
  8
1
  6
Continuous
 62
     2
100
AcDbLine
 10
141.0516542509982
 20
-119.4199999999999
 30
0.0
 11
141.9016542509982
 21
-119.4199999999999
 31
0.0
  0
LINE
  5
E0
102
{ACAD_REACTORS
330
159
330
159
102
}
330
33
100
AcDbEntity
  8
1
  6
Continuous
 62
     2
100
AcDbLine
 10
143.2516542509982
 20
-119.4199999999999
 30
0.0
 11
142.9048783308657
 21
-118.8199999999999
 31
0.0
  0
LINE
  5
E1
102
{ACAD_REACTORS
330
159
330
159
102
}
330
33
100
AcDbEntity
  8
1
  6
Continuous
 62
     2
100
AcDbLine
 10
143.7516542509982
 20
-114.7199999999999
 30
0.0
 11
143.7516542509982
 21
-119.4199999999999
 31
0.0
  0
LINE
  5
E2
102
{ACAD_REACTORS
330
163
330
163
102
}
330
33
100
AcDbEntity
  8
1
  6
Continuous
 62
     2
100
AcDbLine
 10
147.1516542509982
 20
-119.4199999999999
 30
0.0
 11
147.1516542509982
 21
-118.30758746051
 31
0.0
  0
LINE
  5
E3
102
{ACAD_REACTORS
330
163
330
163
102
}
330
33
100
AcDbEntity
  8
1
  6
Continuous
 62
     2
100
AcDbLine
 10
144.5516542509982
 20
-119.4199999999999
 30
0.0
 11
147.1516542509982
 21
-119.4199999999999
 31
0.0
  0
LINE
  5
E4
102
{ACAD_REACTORS
330
163
330
163
102
}
330
33
100
AcDbEntity
  8
1
  6
Continuous
 62
     2
100
AcDbLine
 10
144.5516542509982
 20
-110.2199999999999
 30
0.0
 11
144.5516542509982
 21
-119.4199999999999
 31
0.0
  0
LINE
  5
E5
102
{ACAD_REACTORS
330
163
330
163
102
}
330
33
100
AcDbEntity
  8
1
  6
Continuous
 62
     2
100
AcDbLine
 10
147.1516542509982
 20
-110.2199999999999
 30
0.0
 11
144.5516542509982
 21
-110.2199999999999
 31
0.0
  0
LINE
  5
E6
102
{ACAD_REACTORS
330
159
330
159
102
}
330
33
100
AcDbEntity
  8
1
  6
Continuous
 62
     2
100
AcDbLine
 10
143.7516542509982
 20
-111.2199999999999
 30
0.0
 11
143.7516542509982
 21
-113.3199999999999
 31
0.0
  0
LINE
  5
E7
102
{ACAD_REACTORS
330
159
330
159
102
}
330
33
100
AcDbEntity
  8
1
  6
Continuous
 62
     2
100
AcDbLine
 10
143.7516542509982
 20
-119.4199999999999
 30
0.0
 11
143.2516542509982
 21
-119.4199999999999
 31
0.0
  0
LINE
  5
E8
102
{ACAD_REACTORS
330
159
330
159
102
}
330
33
100
AcDbEntity
  8
1
  6
Continuous
 62
     2
100
AcDbLine
 10
141.9927287849846
 20
-114.7199999999999
 30
0.0
 11
141.9927287849846
 21
-115.9199999999999
 31
0.0
  0
LINE
  5
E9
102
{ACAD_REACTORS
330
159
330
159
102
}
330
33
100
AcDbEntity
  8
1
  6
Continuous
 62
     2
100
AcDbLine
 10
141.9927287849846
 20
-114.7199999999999
 30
0.0
 11
143.7516542509982
 21
-114.7199999999999
 31
0.0
  0
LINE
  5
EA
330
33
100
AcDbEntity
  8
1
  6
Continuous
 62
     2
100
AcDbLine
 10
141.9927287849846
 20
-115.9199999999999
 30
0.0
 11
142.2516542509982
 21
-115.9199999999999
 31
0.0
  0
LINE
  5
EB
102
{ACAD_REACTORS
330
159
330
159
102
}
330
33
100
AcDbEntity
  8
1
  6
Continuous
 62
     2
100
AcDbLine
 10
141.9927287849846
 20
-115.9199999999999
 30
0.0
 11
142.5516542509982
 21
-115.9199999999999
 31
0.0
  0
LINE
  5
EC
102
{ACAD_REACTORS
330
163
330
163
102
}
330
33
100
AcDbEntity
  8
1
  6
Continuous
 62
     2
100
AcDbLine
 10
145.8516542509982
 20
-111.3199999999999
 30
0.0
 11
145.8516542509982
 21
-113.9199999999999
 31
0.0
  0
LINE
  5
ED
102
{ACAD_REACTORS
330
163
330
163
102
}
330
33
100
AcDbEntity
  8
1
  6
Continuous
 62
     2
100
AcDbLine
 10
145.8516542509982
 20
-118.30758746051
 30
0.0
 11
147.1516542509982
 21
-118.30758746051
 31
0.0
  0
LINE
  5
EE
102
{ACAD_REACTORS
330
163
330
163
102
}
330
33
100
AcDbEntity
  8
1
  6
Continuous
 62
     2
100
AcDbLine
 10
145.8516542509982
 20
-113.9199999999999
 30
0.0
 11
147.1516542509982
 21
-113.9199999999999
 31
0.0
  0
LINE
  5
EF
102
{ACAD_REACTORS
330
163
330
163
102
}
330
33
100
AcDbEntity
  8
1
  6
Continuous
 62
     2
100
AcDbLine
 10
147.1516542509982
 20
-113.9199999999999
 30
0.0
 11
147.1516542509982
 21
-115.0199999999999
 31
0.0
  0
LINE
  5
F0
102
{ACAD_REACTORS
330
163
330
163
102
}
330
33
100
AcDbEntity
  8
1
  6
Continuous
 62
     2
100
AcDbLine
 10
145.8516542509982
 20
-115.0199999999999
 30
0.0
 11
147.1516542509982
 21
-115.0199999999999
 31
0.0
  0
LINE
  5
F1
102
{ACAD_REACTORS
330
163
330
163
102
}
330
33
100
AcDbEntity
  8
1
  6
Continuous
 62
     2
100
AcDbLine
 10
145.8516542509982
 20
-115.0199999999999
 30
0.0
 11
145.8516542509982
 21
-118.30758746051
 31
0.0
  0
ARC
  5
F2
102
{ACAD_REACTORS
330
15E
330
15E
102
}
330
33
100
AcDbEntity
  8
1
  6
Continuous
 62
     2
100
AcDbCircle
 10
180.7016542509982
 20
-115.1199999999999
 30
0.0
 40
0.6500000000000057
100
AcDbArc
 50
0.0
 51
90.0
  0
ARC
  5
F3
102
{ACAD_REACTORS
330
15E
330
15E
102
}
330
33
100
AcDbEntity
  8
1
  6
Continuous
 62
     2
100
AcDbCircle
 10
180.7016542509982
 20
-113.8199999999999
 30
0.0
 40
0.6500000000000057
100
AcDbArc
 50
-90.0
 51
0.0
  0
ARC
  5
F4
102
{ACAD_REACTORS
330
15A
330
15A
102
}
330
33
100
AcDbEntity
  8
1
  6
Continuous
 62
     2
100
AcDbCircle
 10
158.8327793484388
 20
-118.3331447179281
 30
0.0
 40
1.086965191302833
100
AcDbArc
 50
-90.8147991292736
 51
-26.60924039545096
  0
ARC
  5
F5
102
{ACAD_REACTORS
330
15B
330
15B
102
}
330
33
100
AcDbEntity
  8
1
  6
Continuous
 62
     2
100
AcDbCircle
 10
155.3161055621215
 20
-115.6535223168009
 30
0.0
 40
0.8355765145285912
100
AcDbArc
 50
-0.46759342609272
 51
85.98158622994607
  0
ARC
  5
F6
102
{ACAD_REACTORS
330
15B
330
15B
102
}
330
33
100
AcDbEntity
  8
1
  6
Continuous
 62
     2
100
AcDbCircle
 10
155.3000342667233
 20
-113.9710002560295
 30
0.0
 40
0.8522732028340286
100
AcDbArc
 50
-84.9766809757147
 51
-2.24339224114474
  0
ARC
  5
F7
102
{ACAD_REACTORS
330
159
330
159
102
}
330
33
100
AcDbEntity
  8
1
  6
Continuous
 62
     2
100
AcDbCircle
 10
141.9264261003899
 20
-118.3227040643326
 30
0.0
 40
1.097575516743276
100
AcDbArc
 50
-91.2932531058712
 51
-26.94184191294435
  0
ARC
  5
F8
102
{ACAD_REACTORS
330
15E
330
15E
102
}
330
33
100
AcDbEntity
  8
1
  6
Continuous
 62
     2
100
AcDbCircle
 10
179.5016542509982
 20
-117.65758746051
 30
0.0
 40
0.6500000000000057
100
AcDbArc
 50
-90.0
 51
0.0
  0
ARC
  5
F9
102
{ACAD_REACTORS
330
15E
330
15E
102
}
330
33
100
AcDbEntity
  8
1
  6
Continuous
 62
     2
100
AcDbCircle
 10
179.5016542509982
 20
-115.6699999999999
 30
0.0
 40
0.6500000000000057
100
AcDbArc
 50
0.0
 51
90.0
  0
ARC
  5
FA
102
{ACAD_REACTORS
330
15E
330
15E
102
}
330
33
100
AcDbEntity
  8
1
  6
Continuous
 62
     2
100
AcDbCircle
 10
179.5016542509982
 20
-113.2699999999999
 30
0.0
 40
0.6500000000000057
100
AcDbArc
 50
-90.0
 51
0.0
  0
ARC
  5
FB
102
{ACAD_REACTORS
330
15E
330
15E
102
}
330
33
100
AcDbEntity
  8
1
  6
Continuous
 62
     2
100
AcDbCircle
 10
179.5016542509982
 20
-111.9699999999999
 30
0.0
 40
0.6500000000000057
100
AcDbArc
 50
0.0
 51
90.0
  0
ARC
  5
FC
102
{ACAD_REACTORS
330
15D
330
15D
102
}
330
33
100
AcDbEntity
  8
1
  6
Continuous
 62
     2
100
AcDbCircle
 10
175.0016542509982
 20
-117.65758746051
 30
0.0
 40
0.6500000000000057
100
AcDbArc
 50
-90.0
 51
0.0
  0
ARC
  5
FD
102
{ACAD_REACTORS
330
15D
330
15D
102
}
330
33
100
AcDbEntity
  8
1
  6
Continuous
 62
     2
100
AcDbCircle
 10
175.0016542509982
 20
-117.65758746051
 30
0.0
 40
0.6500000000000057
100
AcDbArc
 50
180.0
 51
-90.0
  0
ARC
  5
FE
102
{ACAD_REACTORS
330
15D
330
15D
102
}
330
33
100
AcDbEntity
  8
1
  6
Continuous
 62
     2
100
AcDbCircle
 10
175.0016542509982
 20
-111.9699999999999
 30
0.0
 40
0.6500000000000057
100
AcDbArc
 50
0.0
 51
90.0
  0
ARC
  5
FF
102
{ACAD_REACTORS
330
15D
330
15D
102
}
330
33
100
AcDbEntity
  8
1
  6
Continuous
 62
     2
100
AcDbCircle
 10
175.0016542509982
 20
-111.9699999999999
 30
0.0
 40
0.6500000000000057
100
AcDbArc
 50
90.0
 51
180.0
  0
ARC
  5
100
102
{ACAD_REACTORS
330
15F
330
15F
102
}
330
33
100
AcDbEntity
  8
1
  6
Continuous
 62
     2
100
AcDbCircle
 10
184.0016542509982
 20
-117.65758746051
 30
0.0
 40
0.6500000000000057
100
AcDbArc
 50
-90.0
 51
0.0
  0
ARC
  5
101
102
{ACAD_REACTORS
330
15F
330
15F
102
}
330
33
100
AcDbEntity
  8
1
  6
Continuous
 62
     2
100
AcDbCircle
 10
184.0016542509982
 20
-117.65758746051
 30
0.0
 40
0.6500000000000057
100
AcDbArc
 50
180.0
 51
-90.0
  0
ARC
  5
102
102
{ACAD_REACTORS
330
15F
330
15F
102
}
330
33
100
AcDbEntity
  8
1
  6
Continuous
 62
     2
100
AcDbCircle
 10
184.0016542509982
 20
-111.9699999999999
 30
0.0
 40
0.6500000000000057
100
AcDbArc
 50
90.0
 51
180.0
  0
ARC
  5
103
102
{ACAD_REACTORS
330
15F
330
15F
102
}
330
33
100
AcDbEntity
  8
1
  6
Continuous
 62
     2
100
AcDbCircle
 10
184.0016542509982
 20
-111.9699999999999
 30
0.0
 40
0.6500000000000057
100
AcDbArc
 50
0.0
 51
90.0
  0
ARC
  5
104
102
{ACAD_REACTORS
330
15C
330
15C
102
}
330
33
100
AcDbEntity
  8
1
  6
Continuous
 62
     2
100
AcDbCircle
 10
191.9016542509982
 20
-117.65758746051
 30
0.0
 40
0.6500000000000057
100
AcDbArc
 50
-90.0
 51
0.0
  0
ARC
  5
105
102
{ACAD_REACTORS
330
15C
330
15C
102
}
330
33
100
AcDbEntity
  8
1
  6
Continuous
 62
     2
100
AcDbCircle
 10
191.9016542509982
 20
-111.9699999999999
 30
0.0
 40
0.6500000000000057
100
AcDbArc
 50
0.0
 51
90.0
  0
ARC
  5
106
102
{ACAD_REACTORS
330
159
330
159
102
}
330
33
100
AcDbEntity
  8
1
  6
Continuous
 62
     2
100
AcDbCircle
 10
141.9016542509982
 20
-117.65758746051
 30
0.0
 40
0.6500000000000057
100
AcDbArc
 50
-90.0
 51
0.0
  0
ARC
  5
107
102
{ACAD_REACTORS
330
159
330
159
102
}
330
33
100
AcDbEntity
  8
1
  6
Continuous
 62
     2
100
AcDbCircle
 10
141.9016542509982
 20
-117.65758746051
 30
0.0
 40
0.6500000000000057
100
AcDbArc
 50
180.0
 51
-90.0
  0
ARC
  5
108
102
{ACAD_REACTORS
330
159
330
159
102
}
330
33
100
AcDbEntity
  8
1
  6
Continuous
 62
     2
100
AcDbCircle
 10
141.9016542509982
 20
-111.9699999999999
 30
0.0
 40
0.6500000000000057
100
AcDbArc
 50
0.0
 51
90.0
  0
ARC
  5
109
102
{ACAD_REACTORS
330
159
330
159
102
}
330
33
100
AcDbEntity
  8
1
  6
Continuous
 62
     2
100
AcDbCircle
 10
141.9016542509982
 20
-111.9699999999999
 30
0.0
 40
0.6500000000000057
100
AcDbArc
 50
90.0
 51
180.0
  0
ARC
  5
10A
102
{ACAD_REACTORS
330
15A
330
15A
102
}
330
33
100
AcDbEntity
  8
1
  6
Continuous
 62
     2
100
AcDbCircle
 10
158.8016542509982
 20
-117.65758746051
 30
0.0
 40
0.6500000000000057
100
AcDbArc
 50
-90.0
 51
0.0
  0
ARC
  5
10B
102
{ACAD_REACTORS
330
15A
330
15A
102
}
330
33
100
AcDbEntity
  8
1
  6
Continuous
 62
     2
100
AcDbCircle
 10
158.8016542509982
 20
-117.65758746051
 30
0.0
 40
0.6500000000000057
100
AcDbArc
 50
180.0
 51
-90.0
  0
ARC
  5
10C
102
{ACAD_REACTORS
330
15A
330
15A
102
}
330
33
100
AcDbEntity
  8
1
  6
Continuous
 62
     2
100
AcDbCircle
 10
158.8016542509982
 20
-111.9699999999999
 30
0.0
 40
0.6499999999999773
100
AcDbArc
 50
0.0
 51
90.0
  0
ARC
  5
10D
102
{ACAD_REACTORS
330
15A
330
15A
102
}
330
33
100
AcDbEntity
  8
1
  6
Continuous
 62
     2
100
AcDbCircle
 10
158.8016542509982
 20
-111.9699999999999
 30
0.0
 40
0.6500000000000057
100
AcDbArc
 50
90.0
 51
180.0
  0
ARC
  5
10E
102
{ACAD_REACTORS
330
15B
330
15B
102
}
330
33
100
AcDbEntity
  8
1
  6
Continuous
 62
     2
100
AcDbCircle
 10
154.3016542509982
 20
-113.5699999999999
 30
0.0
 40
0.6500000000000057
100
AcDbArc
 50
-90.0
 51
0.0
  0
ARC
  5
10F
102
{ACAD_REACTORS
330
15B
330
15B
102
}
330
33
100
AcDbEntity
  8
1
  6
Continuous
 62
     2
100
AcDbCircle
 10
154.3016542509982
 20
-116.0699999999999
 30
0.0
 40
0.6499999999999773
100
AcDbArc
 50
0.0
 51
90.0
  0
ARC
  5
110
102
{ACAD_REACTORS
330
15B
330
15B
102
}
330
33
100
AcDbEntity
  8
1
  6
Continuous
 62
     2
100
AcDbCircle
 10
154.3016542509982
 20
-111.9699999999999
 30
0.0
 40
0.6499999999999773
100
AcDbArc
 50
0.0
 51
90.0
  0
ARC
  5
111
102
{ACAD_REACTORS
330
160
330
160
102
}
330
33
100
AcDbEntity
  8
1
  6
Continuous
 62
     2
100
AcDbCircle
 10
149.8016542509982
 20
-117.65758746051
 30
0.0
 40
0.6500000000000057
100
AcDbArc
 50
-90.0
 51
0.0
  0
ARC
  5
112
102
{ACAD_REACTORS
330
160
330
160
102
}
330
33
100
AcDbEntity
  8
1
  6
Continuous
 62
     2
100
AcDbCircle
 10
149.8016542509982
 20
-117.65758746051
 30
0.0
 40
0.6500000000000057
100
AcDbArc
 50
180.0
 51
-90.0
  0
ARC
  5
113
102
{ACAD_REACTORS
330
160
330
160
102
}
330
33
100
AcDbEntity
  8
1
  6
Continuous
 62
     2
100
AcDbCircle
 10
149.8016542509982
 20
-111.9699999999999
 30
0.0
 40
0.6499999999999773
100
AcDbArc
 50
0.0
 51
90.0
  0
ARC
  5
114
102
{ACAD_REACTORS
330
160
330
160
102
}
330
33
100
AcDbEntity
  8
1
  6
Continuous
 62
     2
100
AcDbCircle
 10
149.8016542509982
 20
-111.9699999999999
 30
0.0
 40
0.6500000000000057
100
AcDbArc
 50
90.0
 51
180.0
  0
ARC
  5
115
102
{ACAD_REACTORS
330
159
330
159
102
}
330
33
100
AcDbEntity
  8
1
  6
Continuous
 62
     2
100
AcDbCircle
 10
141.0516542509982
 20
-111.2199999999999
 30
0.0
 40
1.0
100
AcDbArc
 50
90.0
 51
180.0
  0
ARC
  5
116
102
{ACAD_REACTORS
330
15A
330
15A
102
}
330
33
100
AcDbEntity
  8
1
  6
Continuous
 62
     2
100
AcDbCircle
 10
157.9516542509982
 20
-118.4199999999999
 30
0.0
 40
1.0
100
AcDbArc
 50
180.0
 51
-90.0
  0
ARC
  5
117
102
{ACAD_REACTORS
330
15C
330
15C
102
}
330
33
100
AcDbEntity
  8
1
  6
Continuous
 62
     2
100
AcDbCircle
 10
192.7516542509982
 20
-118.4199999999999
 30
0.0
 40
1.0
100
AcDbArc
 50
-90.0
 51
0.0
  0
ARC
  5
118
102
{ACAD_REACTORS
330
15D
330
15D
102
}
330
33
100
AcDbEntity
  8
1
  6
Continuous
 62
     2
100
AcDbCircle
 10
174.1516542509982
 20
-118.4199999999999
 30
0.0
 40
1.0
100
AcDbArc
 50
180.0
 51
-90.0
  0
ARC
  5
119
102
{ACAD_REACTORS
330
15D
330
15D
102
}
330
33
100
AcDbEntity
  8
1
  6
Continuous
 62
     2
100
AcDbCircle
 10
175.8516542509982
 20
-118.4199999999999
 30
0.0
 40
1.0
100
AcDbArc
 50
-90.0
 51
0.0
  0
ARC
  5
11A
102
{ACAD_REACTORS
330
15E
330
15E
102
}
330
33
100
AcDbEntity
  8
1
  6
Continuous
 62
     2
100
AcDbCircle
 10
180.3516542509982
 20
-118.4199999999999
 30
0.0
 40
1.0
100
AcDbArc
 50
-90.0
 51
0.0
  0
ARC
  5
11B
102
{ACAD_REACTORS
330
15F
330
15F
102
}
330
33
100
AcDbEntity
  8
1
  6
Continuous
 62
     2
100
AcDbCircle
 10
183.1516542509982
 20
-118.4199999999999
 30
0.0
 40
1.0
100
AcDbArc
 50
180.0
 51
-90.0
  0
ARC
  5
11C
102
{ACAD_REACTORS
330
15F
330
15F
102
}
330
33
100
AcDbEntity
  8
1
  6
Continuous
 62
     2
100
AcDbCircle
 10
184.8516542509982
 20
-118.4199999999999
 30
0.0
 40
1.0
100
AcDbArc
 50
-90.0
 51
0.0
  0
ARC
  5
11D
102
{ACAD_REACTORS
330
15C
330
15C
102
}
330
33
100
AcDbEntity
  8
1
  6
Continuous
 62
     2
100
AcDbCircle
 10
192.7516542509982
 20
-111.2199999999999
 30
0.0
 40
1.0
100
AcDbArc
 50
0.0
 51
90.0
  0
ARC
  5
11E
102
{ACAD_REACTORS
330
15F
330
15F
102
}
330
33
100
AcDbEntity
  8
1
  6
Continuous
 62
     2
100
AcDbCircle
 10
183.1516542509982
 20
-111.2199999999999
 30
0.0
 40
1.0
100
AcDbArc
 50
90.0
 51
180.0
  0
ARC
  5
11F
102
{ACAD_REACTORS
330
15F
330
15F
102
}
330
33
100
AcDbEntity
  8
1
  6
Continuous
 62
     2
100
AcDbCircle
 10
184.8516542509982
 20
-111.2199999999999
 30
0.0
 40
1.0
100
AcDbArc
 50
0.0
 51
90.0
  0
ARC
  5
120
102
{ACAD_REACTORS
330
15E
330
15E
102
}
330
33
100
AcDbEntity
  8
1
  6
Continuous
 62
     2
100
AcDbCircle
 10
180.3516542509982
 20
-111.2199999999999
 30
0.0
 40
1.0
100
AcDbArc
 50
0.0
 51
90.0
  0
ARC
  5
121
102
{ACAD_REACTORS
330
15D
330
15D
102
}
330
33
100
AcDbEntity
  8
1
  6
Continuous
 62
     2
100
AcDbCircle
 10
175.8516542509982
 20
-111.2199999999999
 30
0.0
 40
1.0
100
AcDbArc
 50
0.0
 51
90.0
  0
ARC
  5
122
102
{ACAD_REACTORS
330
15D
330
15D
102
}
330
33
100
AcDbEntity
  8
1
  6
Continuous
 62
     2
100
AcDbCircle
 10
174.1516542509982
 20
-111.2199999999999
 30
0.0
 40
1.0
100
AcDbArc
 50
90.0
 51
180.0
  0
ARC
  5
123
102
{ACAD_REACTORS
330
15A
330
15A
102
}
330
33
100
AcDbEntity
  8
1
  6
Continuous
 62
     2
100
AcDbCircle
 10
159.6516542509982
 20
-111.2199999999999
 30
0.0
 40
1.000000000000085
100
AcDbArc
 50
0.0
 51
90.0
  0
ARC
  5
124
102
{ACAD_REACTORS
330
15A
330
15A
102
}
330
33
100
AcDbEntity
  8
1
  6
Continuous
 62
     2
100
AcDbCircle
 10
157.9516542509982
 20
-111.2199999999999
 30
0.0
 40
1.0
100
AcDbArc
 50
90.0
 51
180.0
  0
ARC
  5
125
102
{ACAD_REACTORS
330
15B
330
15B
102
}
330
33
100
AcDbEntity
  8
1
  6
Continuous
 62
     2
100
AcDbCircle
 10
155.1516542509982
 20
-111.2199999999999
 30
0.0
 40
1.0
100
AcDbArc
 50
0.0
 51
90.0
  0
ARC
  5
126
102
{ACAD_REACTORS
330
160
330
160
102
}
330
33
100
AcDbEntity
  8
1
  6
Continuous
 62
     2
100
AcDbCircle
 10
150.6516542509982
 20
-118.4199999999999
 30
0.0
 40
1.0
100
AcDbArc
 50
-90.0
 51
0.0
  0
ARC
  5
127
102
{ACAD_REACTORS
330
160
330
160
102
}
330
33
100
AcDbEntity
  8
1
  6
Continuous
 62
     2
100
AcDbCircle
 10
148.9516542509982
 20
-118.4199999999999
 30
0.0
 40
1.0
100
AcDbArc
 50
180.0
 51
-90.0
  0
ARC
  5
128
102
{ACAD_REACTORS
330
160
330
160
102
}
330
33
100
AcDbEntity
  8
1
  6
Continuous
 62
     2
100
AcDbCircle
 10
150.6516542509982
 20
-111.2199999999999
 30
0.0
 40
1.0
100
AcDbArc
 50
0.0
 51
90.0
  0
ARC
  5
129
102
{ACAD_REACTORS
330
160
330
160
102
}
330
33
100
AcDbEntity
  8
1
  6
Continuous
 62
     2
100
AcDbCircle
 10
148.9516542509982
 20
-111.2199999999999
 30
0.0
 40
1.0
100
AcDbArc
 50
90.0
 51
180.0
  0
ARC
  5
12A
102
{ACAD_REACTORS
330
159
330
159
102
}
330
33
100
AcDbEntity
  8
1
  6
Continuous
 62
     2
100
AcDbCircle
 10
141.0516542509982
 20
-118.4199999999999
 30
0.0
 40
1.0
100
AcDbArc
 50
180.0
 51
-90.0
  0
ARC
  5
12B
102
{ACAD_REACTORS
330
159
330
159
102
}
330
33
100
AcDbEntity
  8
1
  6
Continuous
 62
     2
100
AcDbCircle
 10
142.7516542509982
 20
-111.2199999999999
 30
0.0
 40
1.0
100
AcDbArc
 50
0.0
 51
90.0
  0
MTEXT
  5
12D
330
33
100
AcDbEntity
  8
1
 62
     3
100
AcDbMText
 10
76.91500000000008
 20
-98.08500000000004
 30
0.0
 40
2.2
 41
0.0
 71
     4
 72
     1
  1
Allgemein-\Ptoleranzen\PDIN ISO 2768-mK
  7
CONVERTER_11
 73
     1
 44
1.32052821128451
  0
MTEXT
  5
12F
330
33
100
AcDbEntity
  8
1
 62
     3
100
AcDbMText
 10
103.5850000000001
 20
-98.08500000000004
 30
0.0
 40
2.2
 41
0.0
 71
     4
 72
     1
  1
Oberflächen\PDIN ISO 1302\PReihe 2
  7
CONVERTER_12
 73
     1
 44
1.32052821128451
  0
TEXT
  5
130
330
33
100
AcDbEntity
  8
0
 62
     2
100
AcDbText
 10
201.4516239034123
 20
-137.153912141408
 30
0.0
 40
1.8
  1
Bl.
 41
0.9
  7
CONVERTER_12
100
AcDbText
  0
TEXT
  5
131
330
33
100
AcDbEntity
  8
1
 62
     2
100
AcDbText
 10
23.11999999999898
 20
-107.6599999999999
 30
0.0
 40
1.8
  1
Nr.
 41
0.9
  7
CONVERTER_12
100
AcDbText
  0
TEXT
  5
132
330
33
100
AcDbEntity
  8
1
 62
     2
100
AcDbText
 10
28.19999999999891
 20
-107.6599999999999
 30
0.0
 40
1.8
  1
Änderung
 41
0.9
  7
CONVERTER_12
100
AcDbText
  0
TEXT
  5
133
330
33
100
AcDbEntity
  8
1
 62
     2
100
AcDbText
 10
43.43999999999869
 20
-107.6599999999999
 30
0.0
 40
1.8
  1
Datum
 41
0.9
  7
CONVERTER_12
100
AcDbText
  0
TEXT
  5
134
330
33
100
AcDbEntity
  8
1
 62
     2
100
AcDbText
 10
61.21999999999832
 20
-107.6599999999999
 30
0.0
 40
1.8
  1
Name
 41
0.72
  7
CONVERTER_11
100
AcDbText
  0
TEXT
  5
135
330
33
100
AcDbEntity
  8
1
 62
     2
100
AcDbText
 10
68.83999999999912
 20
-107.6599999999999
 30
0.0
 40
1.8
  1
Gepr.
 41
0.72
  7
CONVERTER_11
100
AcDbText
  0
TEXT
  5
136
330
33
100
AcDbEntity
  8
1
 62
     2
100
AcDbText
 10
41.95202796696901
 20
-111.8899999999994
 30
0.0
 40
1.8
  1
Datum
 41
0.9
  7
CONVERTER_12
100
AcDbText
  0
TEXT
  5
137
330
33
100
AcDbEntity
  8
1
 62
     2
100
AcDbText
 10
59.73202796696876
 20
-111.8899999999994
 30
0.0
 40
1.8
  1
Name
 41
0.9
  7
CONVERTER_12
100
AcDbText
  0
TEXT
  5
138
330
33
100
AcDbEntity
  8
1
 62
     2
100
AcDbText
 10
23.11999999999898
 20
-116.1200000000008
 30
0.0
 40
1.8
  1
Bearb.
 41
0.9
  7
CONVERTER_12
100
AcDbText
  0
TEXT
  5
139
330
33
100
AcDbEntity
  8
1
 62
     2
100
AcDbText
 10
23.11999999999898
 20
-120.3500000000004
 30
0.0
 40
1.8
  1
Gepr.
 41
0.9
  7
CONVERTER_12
100
AcDbText
  0
TEXT
  5
13A
330
33
100
AcDbEntity
  8
1
 62
     2
100
AcDbText
 10
23.11999999999898
 20
-124.5799999999999
 30
0.0
 40
1.8
  1
Norm.
 41
0.9
  7
CONVERTER_12
100
AcDbText
  0
TEXT
  5
13B
330
33
100
AcDbEntity
  8
1
 62
     2
100
AcDbText
 10
75.95999999999992
 20
-111.2899999999994
 30
0.0
 40
1.8
  1
Typ
 41
0.9
  7
CONVERTER_12
100
AcDbText
  0
TEXT
  5
13C
330
33
100
AcDbEntity
  8
1
 62
     2
100
AcDbText
 10
23.11999999999898
 20
-129.5799999999999
 30
0.0
 40
1.8
  1
Maßstab
 41
0.9
  7
CONVERTER_12
100
AcDbText
  0
TEXT
  5
13D
330
33
100
AcDbEntity
  8
1
 62
     2
100
AcDbText
 10
38.35999999999888
 20
-129.5799999999999
 30
0.0
 40
1.8
  1
Benennung
 41
0.9
  7
CONVERTER_12
100
AcDbText
  0
TEXT
  5
13E
330
33
100
AcDbEntity
  8
1
 62
     2
100
AcDbText
 10
130.8962833787473
 20
-129.2145722070854
 30
0.0
 40
1.8
  1
Z.-Nr.
 41
0.9
  7
CONVERTER_12
100
AcDbText
  0
MTEXT
  5
13F
330
33
100
AcDbEntity
  8
1
 62
     2
100
AcDbMText
 10
129.8000000000002
 20
-89.625
 30
0.0
 40
1.8
 41
0.0
 71
     4
 72
     1
  1
Urheberschutz  DIN 34
  7
CONVERTER_12
 73
     1
 44
1.32052821128451
  0
MTEXT
  5
140
330
33
100
AcDbEntity
  8
1
 62
     2
100
AcDbMText
 10
167.8999999999996
 20
-89.625
 30
0.0
 40
1.8
 41
0.0
 71
     4
 72
     1
  1
Gewicht
  7
CONVERTER_12
 73
     1
 44
1.32052821128451
  0
TEXT
  5
141
330
33
100
AcDbEntity
  8
1
 62
     2
100
AcDbText
 10
129.8000000000002
 20
-94.97000000000116
 30
0.0
 40
1.8
  1
Werkstoff
 41
0.9
  7
CONVERTER_12
100
AcDbText
  0
MTEXT
  5
142
330
33
100
AcDbEntity
  8
1
 62
     2
100
AcDbMText
 10
129.868213777145
 20
-140.3850000000002
 30
0.0
 40
1.8
 41
0.0
 71
     4
 72
     1
  1
Ers.
  7
CONVERTER_12
 73
     1
 44
1.32052821128451
  0
TEXT
  5
143
330
33
100
AcDbEntity
  8
1
 62
     2
100
AcDbText
 10
193.3000000000002
 20
-129.5799999999999
 30
0.0
 40
1.8
  1
Bl.
 41
0.9
  7
CONVERTER_12
100
AcDbText
  0
MTEXT
  5
145
330
33
100
AcDbEntity
  8
1
 62
     7
100
AcDbMText
 10
160.55
 20
-133.28
 30
0.0
 40
5.0
 41
0.0
 71
     5
 72
     1
  1
K3002
  7
CONVERTER_13
 73
     1
 44
1.32052821128451
  0
MTEXT
  5
146
330
33
100
AcDbEntity
  8
1
 62
     3
100
AcDbMText
 10
200.375
 20
-129.81
 30
0.0
 40
3.0
 41
0.0
 71
     5
 72
     1
  1
1
  7
CONVERTER_11
 73
     1
 44
1.32052821128451
  0
MTEXT
  5
147
330
33
100
AcDbEntity
  8
1
 62
     2
100
AcDbMText
 10
196.85
 20
-136.25
 30
0.0
 40
1.8
 41
0.0
 71
     5
 72
     1
  1
1
  7
CONVERTER_12
 73
     1
 44
1.32052821128451
  0
MTEXT
  5
148
330
33
100
AcDbEntity
  8
1
 62
     7
100
AcDbMText
 10
83.60500000000002
 20
-136.33
 30
0.0
 40
5.0
 41
0.0
 71
     5
 72
     1
  1
Maßblatt
  7
CONVERTER_11
 73
     1
 44
1.32052821128451
  0
MTEXT
  5
149
330
33
100
AcDbEntity
  8
1
 62
     2
100
AcDbMText
 10
65.29999999999995
 20
-115.005
 30
0.0
 40
1.8
 41
0.0
 71
     5
 72
     1
  1
HI
  7
CONVERTER_12
 73
     1
 44
1.32052821128451
  0
MTEXT
  5
14A
330
33
100
AcDbEntity
  8
1
 62
     2
100
AcDbMText
 10
46.25
 20
-115.005
 30
0.0
 40
1.8
 41
0.0
 71
     5
 72
     1
  1
27.01.09
  7
CONVERTER_12
 73
     1
 44
1.32052821128451
  0
MTEXT
  5
14B
330
33
100
AcDbEntity
  8
1
 62
     7
100
AcDbMText
 10
29.74000000000001
 20
-136.535
 30
0.0
 40
5.0
 41
0.0
 71
     5
 72
     1
  1
1:2
  7
CONVERTER_13
 73
     1
 44
1.32052821128451
  0
MTEXT
  5
14D
330
33
100
AcDbEntity
  8
1
 62
     3
100
AcDbMText
 10
102.13
 20
-113.625
 30
0.0
 40
2.5
 41
0.0
 71
     5
 72
     1
  1
KSY 310... Q (/S23)
  7
CONVERTER_14
 73
     1
 44
1.32052821128451
  0
MTEXT
  5
14E
330
33
100
AcDbEntity
  8
1
 62
     3
100
AcDbMText
 10
102.13
 20
-118.125
 30
0.0
 40
2.5
 41
0.0
 71
     5
 72
     1
  1
 
  7
CONVERTER_14
 73
     1
 44
1.32052821128451
  0
MTEXT
  5
14F
330
33
100
AcDbEntity
  8
1
 62
     3
100
AcDbMText
 10
102.13
 20
-122.625
 30
0.0
 40
2.5
 41
0.0
 71
     5
 72
     1
  1
 
  7
CONVERTER_14
 73
     1
 44
1.32052821128451
  0
MTEXT
  5
150
330
33
100
AcDbEntity
  8
1
 62
     3
100
AcDbMText
 10
168.9000000000001
 20
-96.19999999999983
 30
0.0
 40
2.5
 41
0.0
 71
     5
 72
     1
  1
 
  7
CONVERTER_12
 73
     1
 44
1.32052821128451
  0
MTEXT
  5
151
330
33
100
AcDbEntity
  8
1
 62
     3
100
AcDbMText
 10
168.9000000000001
 20
-100.6999999999998
 30
0.0
 40
2.5
 41
0.0
 71
     5
 72
     1
  1
 
  7
CONVERTER_12
 73
     1
 44
1.32052821128451
  0
MTEXT
  5
152
330
33
100
AcDbEntity
  8
1
 62
     3
100
AcDbMText
 10
168.9000000000001
 20
-105.1999999999998
 30
0.0
 40
2.5
 41
0.0
 71
     5
 72
     1
  1
 
  7
CONVERTER_12
 73
     1
 44
1.32052821128451
  0
MTEXT
  5
153
330
33
100
AcDbEntity
  8
1
 62
     2
100
AcDbMText
 10
46.25
 20
-119.2350000000014
 30
0.0
 40
1.8
 41
0.0
 71
     5
 72
     1
  1
27.01.09
  7
CONVERTER_12
 73
     1
 44
1.32052821128451
  0
MTEXT
  5
154
330
33
100
AcDbEntity
  8
1
 62
     2
100
AcDbMText
 10
65.29999999999995
 20
-119.2350000000014
 30
0.0
 40
1.8
 41
0.0
 71
     5
 72
     1
  1
 
  7
CONVERTER_12
 73
     1
 44
1.32052821128451
  0
MTEXT
  5
155
330
33
100
AcDbEntity
  8
1
 62
     2
100
AcDbMText
 10
138.090984385273
 20
-140.3850000000002
 30
0.0
 40
1.8
 41
0.0
 71
     4
 72
     1
  1
 
  7
CONVERTER_12
 73
     1
 44
1.32052821128451
  0
MTEXT
  5
156
330
33
100
AcDbEntity
  8
1
 62
     2
100
AcDbMText
 10
171.146150406868
 20
-140.3850000000002
 30
0.0
 40
1.8
 41
0.0
 71
     4
 72
     1
  1
 
  7
CONVERTER_12
 73
     1
 44
1.32052821128451
  0
MTEXT
  5
158
330
33
100
AcDbEntity
  8
1
 62
     2
100
AcDbMText
 10
166.6516542509982
 20
-123.0199999999999
 30
0.0
 40
2.8
 41
0.0
 71
     5
 72
     1
  1
GmbH & Co. KG
  7
CONVERTER_15
 73
     1
 44
1.32052821128451
  0
HATCH
  5
159
330
33
100
AcDbEntity
  8
1
  6
Continuous
 62
     2
100
AcDbHatch
 10
0.0
 20
0.0
 30
0.0
210
0.0
220
0.0
230
1.0
  2
_USER
 70
     0
 71
     1
 91
        1
 92
        1
 93
       22
 72
     1
 10
143.7516542509982
 20
-114.7199999999999
 11
143.7516542509982
 21
-119.4199999999999
 72
     1
 10
143.7516542509982
 20
-119.4199999999999
 11
143.2516542509982
 21
-119.4199999999999
 72
     1
 10
143.2516542509982
 20
-119.4199999999999
 11
142.9048783308657
 21
-118.8199999999999
 72
     2
 10
141.9264261003899
 20
-118.3227040643326
 40
1.097575516743276
 50
26.94184191294435
 51
91.2932531058712
 73
     0
 72
     1
 10
141.9016542509982
 20
-119.4199999999999
 11
141.0516542509982
 21
-119.4199999999999
 72
     2
 10
141.0516542509982
 20
-118.4199999999999
 40
1.0
 50
90.0
 51
180.0
 73
     0
 72
     1
 10
140.0516542509982
 20
-118.4199999999999
 11
140.0516542509982
 21
-111.2199999999999
 72
     2
 10
141.0516542509982
 20
-111.2199999999999
 40
1.0
 50
180.0
 51
270.0
 73
     0
 72
     1
 10
141.0516542509982
 20
-110.2199999999999
 11
142.7516542509982
 21
-110.2199999999999
 72
     2
 10
142.7516542509982
 20
-111.2199999999999
 40
1.0
 50
270.0
 51
360.0
 73
     0
 72
     1
 10
143.7516542509982
 20
-111.2199999999999
 11
143.7516542509982
 21
-113.3199999999999
 72
     1
 10
143.7516542509982
 20
-113.3199999999999
 11
142.5516542509982
 21
-113.3199999999999
 72
     1
 10
142.5516542509982
 20
-113.3199999999999
 11
142.5516542509982
 21
-111.9699999999999
 72
     2
 10
141.9016542509982
 20
-111.9699999999999
 40
0.6500000000000057
 50
0.0
 51
90.0
 73
     1
 72
     2
 10
141.9016542509982
 20
-111.9699999999999
 40
0.6500000000000057
 50
90.0
 51
180.0
 73
     1
 72
     1
 10
141.2516542509982
 20
-111.9699999999999
 11
141.2516542509982
 21
-117.65758746051
 72
     2
 10
141.9016542509982
 20
-117.65758746051
 40
0.6500000000000057
 50
180.0
 51
270.0
 73
     1
 72
     2
 10
141.9016542509982
 20
-117.65758746051
 40
0.6500000000000057
 50
270.0
 51
360.0
 73
     1
 72
     1
 10
142.5516542509982
 20
-117.65758746051
 11
142.5516542509982
 21
-115.9199999999999
 72
     1
 10
142.5516542509982
 20
-115.9199999999999
 11
141.9927287849846
 21
-115.9199999999999
 72
     1
 10
141.9927287849846
 20
-115.9199999999999
 11
141.9927287849846
 21
-114.7199999999999
 72
     1
 10
141.9927287849846
 20
-114.7199999999999
 11
143.7516542509982
 21
-114.7199999999999
 97
       22
330
E1
330
E7
330
E0
330
F7
330
DF
330
12A
330
BA
330
115
330
B9
330
12B
330
E6
330
9D
330
9E
330
108
330
109
330
9F
330
107
330
106
330
A0
330
EB
330
E8
330
E9
 75
     1
 76
     0
 52
90.00000000000003
 41
0.15
 77
     0
 78
     1
 53
90.00000000000003
 43
0.0
 44
0.0
 45
-0.15
 46
-0.0000000000000001
 79
     0
 98
        1
 10
0.0
 20
0.0
  0
HATCH
  5
15A
330
33
100
AcDbEntity
  8
1
  6
Continuous
 62
     2
100
AcDbHatch
 10
0.0
 20
0.0
 30
0.0
210
0.0
220
0.0
230
1.0
  2
_USER
 70
     0
 71
     1
 91
        1
 92
        1
 93
       23
 72
     2
 10
158.8016542509982
 20
-117.65758746051
 40
0.6500000000000057
 50
270.0
 51
360.0
 73
     1
 72
     1
 10
159.4516542509982
 20
-117.65758746051
 11
159.4516542509982
 21
-115.9199999999999
 72
     1
 10
159.4516542509982
 20
-115.9199999999999
 11
158.9016542509982
 21
-115.9199999999999
 72
     1
 10
158.9016542509982
 20
-115.9199999999999
 11
158.9016542509982
 21
-114.7199999999999
 72
     1
 10
158.9016542509982
 20
-114.7199999999999
 11
159.7415058473918
 21
-114.7199999999999
 72
     1
 10
159.7415058473918
 20
-114.7199999999999
 11
160.6516542509982
 21
-114.7199999999999
 72
     1
 10
160.6516542509982
 20
-114.7199999999999
 11
160.6516542509982
 21
-119.4199999999999
 72
     1
 10
160.6516542509982
 20
-119.4199999999999
 11
160.1516542509982
 21
-119.4199999999999
 72
     1
 10
160.1516542509982
 20
-119.4199999999999
 11
159.8046153744343
 21
-118.8199999999999
 72
     2
 10
158.8327793484388
 20
-118.3331447179281
 40
1.086965191302833
 50
26.60924039545096
 51
90.8147991292736
 73
     0
 72
     1
 10
158.8173222162131
 20
-119.4199999999999
 11
157.9516542509982
 21
-119.4199999999999
 72
     2
 10
157.9516542509982
 20
-118.4199999999999
 40
1.0
 50
90.0
 51
180.0
 73
     0
 72
     1
 10
156.9516542509982
 20
-118.4199999999999
 11
156.9516542509982
 21
-111.2199999999999
 72
     2
 10
157.9516542509982
 20
-111.2199999999999
 40
1.0
 50
180.0
 51
270.0
 73
     0
 72
     1
 10
157.9516542509982
 20
-110.2199999999999
 11
159.6516542509982
 21
-110.2199999999999
 72
     2
 10
159.6516542509982
 20
-111.2199999999999
 40
1.000000000000085
 50
270.0
 51
360.0
 73
     0
 72
     1
 10
160.6516542509983
 20
-111.2199999999999
 11
160.6516542509982
 21
-113.3199999999999
 72
     1
 10
160.6516542509982
 20
-113.3199999999999
 11
159.4516542509982
 21
-113.3199999999999
 72
     1
 10
159.4516542509982
 20
-113.3199999999999
 11
159.4516542509982
 21
-111.9699999999999
 72
     2
 10
158.8016542509982
 20
-111.9699999999999
 40
0.6499999999999773
 50
0.0
 51
90.0
 73
     1
 72
     2
 10
158.8016542509982
 20
-111.9699999999999
 40
0.6500000000000057
 50
90.0
 51
180.0
 73
     1
 72
     1
 10
158.1516542509982
 20
-111.9699999999999
 11
158.1516542509982
 21
-117.65758746051
 72
     2
 10
158.8016542509982
 20
-117.65758746051
 40
0.6500000000000057
 50
180.0
 51
270.0
 73
     1
 97
       23
330
10A
330
B4
330
A6
330
A7
330
A8
330
96
330
D5
330
B8
330
B7
330
F4
330
BC
330
116
330
BB
330
124
330
D6
330
123
330
D3
330
D4
330
B6
330
10C
330
10D
330
B5
330
10B
 75
     1
 76
     0
 52
90.00000000000003
 41
0.15
 77
     0
 78
     1
 53
90.00000000000003
 43
0.0
 44
0.0
 45
-0.15
 46
-0.0000000000000001
 79
     0
 98
        1
 10
0.0
 20
0.0
  0
HATCH
  5
15B
330
33
100
AcDbEntity
  8
1
  6
Continuous
 62
     2
100
AcDbHatch
 10
0.0
 20
0.0
 30
0.0
210
0.0
220
0.0
230
1.0
  2
_USER
 70
     0
 71
     1
 91
        2
 92
        1
 93
       13
 72
     1
 10
156.1516542509982
 20
-115.6603414185126
 11
156.1516542509982
 21
-119.4199999999999
 72
     1
 10
156.1516542509982
 20
-119.4199999999999
 11
154.9516542509982
 21
-119.4199999999999
 72
     1
 10
154.9516542509982
 20
-119.4199999999999
 11
154.9516542509982
 21
-116.0699999999999
 72
     2
 10
154.3016542509982
 20
-116.0699999999999
 40
0.6499999999999773
 50
0.0
 51
90.0
 73
     1
 72
     1
 10
154.3016542509982
 20
-115.4199999999999
 11
153.6516542509982
 21
-115.4199999999999
 72
     1
 10
153.6516542509982
 20
-115.4199999999999
 11
153.6516542509982
 21
-119.4199999999999
 72
     1
 10
153.6516542509982
 20
-119.4199999999999
 11
152.4516542509982
 21
-119.4199999999999
 72
     1
 10
152.4516542509982
 20
-119.4199999999999
 11
152.4516542509982
 21
-110.2199999999999
 72
     1
 10
152.4516542509982
 20
-110.2199999999999
 11
155.1516542509982
 21
-110.2199999999999
 72
     2
 10
155.1516542509982
 20
-111.2199999999999
 40
1.0
 50
270.0
 51
360.0
 73
     0
 72
     1
 10
156.1516542509982
 20
-111.2199999999999
 11
156.1516542509982
 21
-114.0043621302671
 72
     2
 10
155.3000342667233
 20
-113.9710002560295
 40
0.8522732028340286
 50
2.243392241144742
 51
84.9766809757147
 73
     0
 72
     2
 10
155.3161055621215
 20
-115.6535223168009
 40
0.8355765145285912
 50
274.0184137700539
 51
360.4675934260927
 73
     0
 97
       13
330
D7
330
B1
330
B2
330
10F
330
99
330
98
330
B0
330
DA
330
D9
330
125
330
D8
330
F6
330
F5
 92
       16
 93
        6
 72
     1
 10
154.3016542509982
 20
-111.3199999999999
 11
153.6516542509982
 21
-111.3199999999999
 72
     1
 10
153.6516542509982
 20
-111.3199999999999
 11
153.6516542509982
 21
-114.2199999999999
 72
     1
 10
153.6516542509982
 20
-114.2199999999999
 11
154.3016542509982
 21
-114.2199999999999
 72
     2
 10
154.3016542509982
 20
-113.5699999999999
 40
0.6500000000000057
 50
270.0
 51
360.0
 73
     1
 72
     1
 10
154.9516542509982
 20
-113.5699999999999
 11
154.9516542509982
 21
-111.9699999999999
 72
     2
 10
154.3016542509982
 20
-111.9699999999999
 40
0.6499999999999773
 50
0.0
 51
90.0
 73
     1
 97
        6
330
B3
330
10E
330
9A
330
9B
330
9C
330
110
 75
     1
 76
     0
 52
90.00000000000003
 41
0.15
 77
     0
 78
     1
 53
90.00000000000003
 43
0.0
 44
0.0
 45
-0.15
 46
-0.0000000000000001
 79
     0
 98
        1
 10
0.0
 20
0.0
  0
HATCH
  5
15C
330
33
100
AcDbEntity
  8
1
  6
Continuous
 62
     2
100
AcDbHatch
 10
0.0
 20
0.0
 30
0.0
210
0.0
220
0.0
230
1.0
  2
_USER
 70
     0
 71
     1
 91
        2
 92
        1
 93
        6
 72
     1
 10
190.0516542509982
 20
-110.2199999999999
 11
190.0516542509982
 21
-119.4199999999999
 72
     1
 10
190.0516542509982
 20
-119.4199999999999
 11
192.7516542509982
 21
-119.4199999999999
 72
     2
 10
192.7516542509982
 20
-118.4199999999999
 40
1.0
 50
270.0
 51
360.0
 73
     1
 72
     1
 10
193.7516542509982
 20
-118.4199999999999
 11
193.7516542509982
 21
-111.2199999999999
 72
     2
 10
192.7516542509982
 20
-111.2199999999999
 40
1.0
 50
0.0
 51
90.0
 73
     1
 72
     1
 10
192.7516542509982
 20
-110.2199999999999
 11
190.0516542509982
 21
-110.2199999999999
 97
        6
330
11D
330
BD
330
117
330
BE
330
C1
330
C0
 92
       16
 93
        7
 72
     1
 10
192.5516542509982
 20
-111.9699999999999
 11
192.5516542509982
 21
-117.65758746051
 72
     2
 10
191.9016542509982
 20
-117.65758746051
 40
0.6500000000000057
 50
0.0
 51
90.0
 73
     0
 72
     1
 10
191.9016542509982
 20
-118.30758746051
 11
191.2516542509982
 21
-118.30758746051
 72
     1
 10
191.2516542509982
 20
-118.30758746051
 11
191.2516542509982
 21
-111.9699999999999
 72
     1
 10
191.2516542509982
 20
-111.9699999999999
 11
191.2516542509982
 21
-111.3199999999999
 72
     1
 10
191.2516542509982
 20
-111.3199999999999
 11
191.9016542509982
 21
-111.3199999999999
 72
     2
 10
191.9016542509982
 20
-111.9699999999999
 40
0.6500000000000057
 50
270.0
 51
360.0
 73
     0
 97
        7
330
89
330
104
330
88
330
87
330
83
330
84
330
105
 75
     1
 76
     0
 52
90.00000000000003
 41
0.15
 77
     0
 78
     1
 53
90.00000000000003
 43
0.0
 44
0.0
 45
-0.15
 46
-0.0000000000000001
 79
     0
 98
        1
 10
0.0
 20
0.0
  0
HATCH
  5
15D
330
33
100
AcDbEntity
  8
1
  6
Continuous
 62
     2
100
AcDbHatch
 10
0.0
 20
0.0
 30
0.0
210
0.0
220
0.0
230
1.0
  2
_USER
 70
     0
 71
     1
 91
        2
 92
        1
 93
        8
 72
     1
 10
174.1516542509982
 20
-110.2199999999999
 11
175.8516542509982
 21
-110.2199999999999
 72
     2
 10
175.8516542509982
 20
-111.2199999999999
 40
1.0
 50
270.0
 51
360.0
 73
     0
 72
     1
 10
176.8516542509982
 20
-111.2199999999999
 11
176.8516542509982
 21
-118.4199999999999
 72
     2
 10
175.8516542509982
 20
-118.4199999999999
 40
1.0
 50
0.0
 51
90.0
 73
     0
 72
     1
 10
175.8516542509982
 20
-119.4199999999999
 11
174.1516542509982
 21
-119.4199999999999
 72
     2
 10
174.1516542509982
 20
-118.4199999999999
 40
1.0
 50
90.0
 51
180.0
 73
     0
 72
     1
 10
173.1516542509982
 20
-118.4199999999999
 11
173.1516542509982
 21
-111.2199999999999
 72
     2
 10
174.1516542509982
 20
-111.2199999999999
 40
1.0
 50
180.0
 51
270.0
 73
     0
 97
        8
330
CE
330
121
330
BF
330
119
330
CD
330
118
330
78
330
122
 92
       16
 93
        6
 72
     1
 10
174.3516542509982
 20
-111.9699999999999
 11
174.3516542509982
 21
-117.65758746051
 72
     2
 10
175.0016542509982
 20
-117.65758746051
 40
0.6500000000000057
 50
180.0
 51
270.0
 73
     1
 72
     2
 10
175.0016542509982
 20
-117.65758746051
 40
0.6500000000000057
 50
270.0
 51
360.0
 73
     1
 72
     1
 10
175.6516542509982
 20
-117.65758746051
 11
175.6516542509982
 21
-111.9699999999999
 72
     2
 10
175.0016542509982
 20
-111.9699999999999
 40
0.6500000000000057
 50
0.0
 51
90.0
 73
     1
 72
     2
 10
175.0016542509982
 20
-111.9699999999999
 40
0.6500000000000057
 50
90.0
 51
180.0
 73
     1
 97
        6
330
FE
330
95
330
FC
330
FD
330
94
330
FF
 75
     1
 76
     0
 52
90.00000000000003
 41
0.15
 77
     0
 78
     1
 53
90.00000000000003
 43
0.0
 44
0.0
 45
-0.15
 46
-0.0000000000000001
 79
     0
 98
        1
 10
0.0
 20
0.0
  0
HATCH
  5
15E
330
33
100
AcDbEntity
  8
1
  6
Continuous
 62
     2
100
AcDbHatch
 10
0.0
 20
0.0
 30
0.0
210
0.0
220
0.0
230
1.0
  2
_USER
 70
     0
 71
     1
 91
        3
 92
        1
 93
        9
 72
     1
 10
177.6516542509982
 20
-110.2199999999999
 11
177.6516542509982
 21
-119.4199999999999
 72
     1
 10
177.6516542509982
 20
-119.4199999999999
 11
180.3516542509982
 21
-119.4199999999999
 72
     2
 10
180.3516542509982
 20
-118.4199999999999
 40
1.0
 50
270.0
 51
360.0
 73
     1
 72
     1
 10
181.3516542509982
 20
-118.4199999999999
 11
181.3516542509982
 21
-115.1199999999999
 72
     2
 10
180.7016542509982
 20
-115.1199999999999
 40
0.6500000000000057
 50
0.0
 51
90.0
 73
     1
 72
     2
 10
180.7016542509982
 20
-113.8199999999999
 40
0.6500000000000057
 50
270.0
 51
360.0
 73
     1
 72
     1
 10
181.3516542509982
 20
-113.8199999999999
 11
181.3516542509982
 21
-111.2199999999999
 72
     2
 10
180.3516542509982
 20
-111.2199999999999
 40
1.0
 50
0.0
 51
90.0
 73
     1
 72
     1
 10
180.3516542509982
 20
-110.2199999999999
 11
177.6516542509982
 21
-110.2199999999999
 97
        9
330
120
330
82
330
F3
330
F2
330
81
330
11A
330
CA
330
CC
330
CB
 92
       16
 93
        6
 72
     1
 10
180.1516542509982
 20
-111.9699999999999
 11
180.1516542509982
 21
-113.2699999999999
 72
     2
 10
179.5016542509982
 20
-113.2699999999999
 40
0.6500000000000057
 50
0.0
 51
90.0
 73
     0
 72
     1
 10
179.5016542509982
 20
-113.9199999999999
 11
178.8516542509982
 21
-113.9199999999999
 72
     1
 10
178.8516542509982
 20
-113.9199999999999
 11
178.8516542509982
 21
-111.3199999999999
 72
     1
 10
178.8516542509982
 20
-111.3199999999999
 11
179.5016542509982
 21
-111.3199999999999
 72
     2
 10
179.5016542509982
 20
-111.9699999999999
 40
0.6500000000000057
 50
270.0
 51
360.0
 73
     0
 97
        6
330
92
330
FA
330
91
330
8D
330
93
330
FB
 92
       16
 93
        6
 72
     1
 10
179.5016542509982
 20
-115.0199999999999
 11
178.8516542509982
 21
-115.0199999999999
 72
     1
 10
178.8516542509982
 20
-115.0199999999999
 11
178.8516542509982
 21
-118.30758746051
 72
     1
 10
178.8516542509982
 20
-118.30758746051
 11
179.5016542509982
 21
-118.30758746051
 72
     2
 10
179.5016542509982
 20
-117.65758746051
 40
0.6500000000000057
 50
270.0
 51
360.0
 73
     1
 72
     1
 10
180.1516542509982
 20
-117.65758746051
 11
180.1516542509982
 21
-115.6699999999999
 72
     2
 10
179.5016542509982
 20
-115.6699999999999
 40
0.6500000000000057
 50
0.0
 51
90.0
 73
     1
 97
        6
330
8E
330
F8
330
8F
330
90
330
8C
330
F9
 75
     1
 76
     0
 52
90.00000000000003
 41
0.15
 77
     0
 78
     1
 53
90.00000000000003
 43
0.0
 44
0.0
 45
-0.15
 46
-0.0000000000000001
 79
     0
 98
        1
 10
0.0
 20
0.0
  0
HATCH
  5
15F
330
33
100
AcDbEntity
  8
1
  6
Continuous
 62
     2
100
AcDbHatch
 10
0.0
 20
0.0
 30
0.0
210
0.0
220
0.0
230
1.0
  2
_USER
 70
     0
 71
     1
 91
        2
 92
        1
 93
        8
 72
     1
 10
183.1516542509982
 20
-110.2199999999999
 11
184.8516542509982
 21
-110.2199999999999
 72
     2
 10
184.8516542509982
 20
-111.2199999999999
 40
1.0
 50
270.0
 51
360.0
 73
     0
 72
     1
 10
185.8516542509982
 20
-111.2199999999999
 11
185.8516542509982
 21
-118.4199999999999
 72
     2
 10
184.8516542509982
 20
-118.4199999999999
 40
1.0
 50
0.0
 51
90.0
 73
     0
 72
     1
 10
184.8516542509982
 20
-119.4199999999999
 11
183.1516542509982
 21
-119.4199999999999
 72
     2
 10
183.1516542509982
 20
-118.4199999999999
 40
1.0
 50
90.0
 51
180.0
 73
     0
 72
     1
 10
182.1516542509982
 20
-118.4199999999999
 11
182.1516542509982
 21
-111.2199999999999
 72
     2
 10
183.1516542509982
 20
-111.2199999999999
 40
1.0
 50
180.0
 51
270.0
 73
     0
 97
        8
330
C6
330
11F
330
C7
330
11C
330
C8
330
11B
330
C9
330
11E
 92
       16
 93
        6
 72
     1
 10
184.6516542509982
 20
-111.9699999999999
 11
184.6516542509982
 21
-117.65758746051
 72
     2
 10
184.0016542509982
 20
-117.65758746051
 40
0.6500000000000057
 50
0.0
 51
90.0
 73
     0
 72
     2
 10
184.0016542509982
 20
-117.65758746051
 40
0.6500000000000057
 50
90.0
 51
180.0
 73
     0
 72
     1
 10
183.3516542509982
 20
-117.65758746051
 11
183.3516542509982
 21
-111.9699999999999
 72
     2
 10
184.0016542509982
 20
-111.9699999999999
 40
0.6500000000000057
 50
180.0
 51
270.0
 73
     0
 72
     2
 10
184.0016542509982
 20
-111.9699999999999
 40
0.6500000000000057
 50
270.0
 51
360.0
 73
     0
 97
        6
330
8B
330
100
330
101
330
8A
330
102
330
103
 75
     1
 76
     0
 52
90.00000000000003
 41
0.15
 77
     0
 78
     1
 53
90.00000000000003
 43
0.0
 44
0.0
 45
-0.15
 46
-0.0000000000000001
 79
     0
 98
        1
 10
0.0
 20
0.0
  0
HATCH
  5
160
330
33
100
AcDbEntity
  8
1
  6
Continuous
 62
     2
100
AcDbHatch
 10
0.0
 20
0.0
 30
0.0
210
0.0
220
0.0
230
1.0
  2
_USER
 70
     0
 71
     1
 91
        2
 92
        1
 93
        8
 72
     2
 10
148.9516542509982
 20
-111.2199999999999
 40
1.0
 50
90.0
 51
180.0
 73
     1
 72
     1
 10
147.9516542509982
 20
-111.2199999999999
 11
147.9516542509982
 21
-118.4199999999999
 72
     2
 10
148.9516542509982
 20
-118.4199999999999
 40
1.0
 50
180.0
 51
270.0
 73
     1
 72
     1
 10
148.9516542509982
 20
-119.4199999999999
 11
150.6516542509982
 21
-119.4199999999999
 72
     2
 10
150.6516542509982
 20
-118.4199999999999
 40
1.0
 50
270.0
 51
360.0
 73
     1
 72
     1
 10
151.6516542509982
 20
-118.4199999999999
 11
151.6516542509982
 21
-111.2199999999999
 72
     2
 10
150.6516542509982
 20
-111.2199999999999
 40
1.0
 50
0.0
 51
90.0
 73
     1
 72
     1
 10
150.6516542509982
 20
-110.2199999999999
 11
148.9516542509982
 21
-110.2199999999999
 97
        8
330
128
330
DB
330
126
330
DD
330
127
330
DC
330
129
330
DE
 92
       16
 93
        6
 72
     1
 10
149.1516542509982
 20
-111.9699999999999
 11
149.1516542509982
 21
-117.65758746051
 72
     2
 10
149.8016542509982
 20
-117.65758746051
 40
0.6500000000000057
 50
180.0
 51
270.0
 73
     1
 72
     2
 10
149.8016542509982
 20
-117.65758746051
 40
0.6500000000000057
 50
270.0
 51
360.0
 73
     1
 72
     1
 10
150.4516542509982
 20
-117.65758746051
 11
150.4516542509982
 21
-111.9699999999999
 72
     2
 10
149.8016542509982
 20
-111.9699999999999
 40
0.6499999999999773
 50
0.0
 51
90.0
 73
     1
 72
     2
 10
149.8016542509982
 20
-111.9699999999999
 40
0.6500000000000057
 50
90.0
 51
180.0
 73
     1
 97
        6
330
113
330
A2
330
111
330
112
330
A1
330
114
 75
     1
 76
     0
 52
90.00000000000003
 41
0.15
 77
     0
 78
     1
 53
90.00000000000003
 43
0.0
 44
0.0
 45
-0.15
 46
-0.0000000000000001
 79
     0
 98
        1
 10
0.0
 20
0.0
  0
HATCH
  5
161
330
33
100
AcDbEntity
  8
1
  6
Continuous
 62
     2
100
AcDbHatch
 10
0.0
 20
0.0
 30
0.0
210
0.0
220
0.0
230
1.0
  2
_USER
 70
     0
 71
     1
 91
        1
 92
        1
 93
       11
 72
     1
 10
169.8516542509982
 20
-110.2199999999999
 11
169.8516542509982
 21
-113.8826635858394
 72
     1
 10
169.8516542509982
 20
-113.8826635858394
 11
171.0854042804337
 21
-110.2199999999999
 72
     1
 10
171.0854042804337
 20
-110.2199999999999
 11
172.3516542509982
 21
-110.2199999999999
 72
     1
 10
172.3516542509982
 20
-110.2199999999999
 11
170.9200628688759
 21
-114.4699999999999
 72
     1
 10
170.9200628688759
 20
-114.4699999999999
 11
172.3516542509982
 21
-119.4199999999999
 72
     1
 10
172.3516542509982
 20
-119.4199999999999
 11
171.1024763583806
 21
-119.4199999999999
 72
     1
 10
171.1024763583806
 20
-119.4199999999999
 11
169.8516542509982
 21
-115.0950442138285
 72
     1
 10
169.8516542509982
 20
-115.0950442138285
 11
169.8516542509982
 21
-119.4199999999999
 72
     1
 10
169.8516542509982
 20
-119.4199999999999
 11
168.6516542509982
 21
-119.4199999999999
 72
     1
 10
168.6516542509982
 20
-119.4199999999999
 11
168.6516542509982
 21
-110.2199999999999
 72
     1
 10
168.6516542509982
 20
-110.2199999999999
 11
169.8516542509982
 21
-110.2199999999999
 97
       11
330
7A
330
7C
330
7E
330
80
330
7F
330
7D
330
7B
330
79
330
D1
330
D0
330
D2
 75
     1
 76
     0
 52
90.00000000000003
 41
0.15
 77
     0
 78
     1
 53
90.00000000000003
 43
0.0
 44
0.0
 45
-0.15
 46
-0.0000000000000001
 79
     0
 98
        1
 10
0.0
 20
0.0
  0
HATCH
  5
162
330
33
100
AcDbEntity
  8
1
  6
Continuous
 62
     2
100
AcDbHatch
 10
0.0
 20
0.0
 30
0.0
210
0.0
220
0.0
230
1.0
  2
_USER
 70
     0
 71
     1
 91
        1
 92
        1
 93
        6
 72
     1
 10
187.8516542509982
 20
-118.30758746051
 11
187.8516542509982
 21
-110.2199999999999
 72
     1
 10
187.8516542509982
 20
-110.2199999999999
 11
186.6516542509982
 21
-110.2199999999999
 72
     1
 10
186.6516542509982
 20
-110.2199999999999
 11
186.6516542509982
 21
-119.4199999999999
 72
     1
 10
186.6516542509982
 20
-119.4199999999999
 11
189.2516542509982
 21
-119.4199999999999
 72
     1
 10
189.2516542509982
 20
-119.4199999999999
 11
189.2516542509982
 21
-118.30758746051
 72
     1
 10
189.2516542509982
 20
-118.30758746051
 11
187.8516542509982
 21
-118.30758746051
 97
        6
330
C3
330
C4
330
C5
330
C2
330
86
330
85
 75
     1
 76
     0
 52
90.00000000000003
 41
0.15
 77
     0
 78
     1
 53
90.00000000000003
 43
0.0
 44
0.0
 45
-0.15
 46
-0.0000000000000001
 79
     0
 98
        1
 10
0.0
 20
0.0
  0
HATCH
  5
163
330
33
100
AcDbEntity
  8
1
  6
Continuous
 62
     2
100
AcDbHatch
 10
0.0
 20
0.0
 30
0.0
210
0.0
220
0.0
230
1.0
  2
_USER
 70
     0
 71
     1
 91
        1
 92
        1
 93
       12
 72
     1
 10
144.5516542509982
 20
-110.2199999999999
 11
144.5516542509982
 21
-119.4199999999999
 72
     1
 10
144.5516542509982
 20
-119.4199999999999
 11
147.1516542509982
 21
-119.4199999999999
 72
     1
 10
147.1516542509982
 20
-119.4199999999999
 11
147.1516542509982
 21
-118.30758746051
 72
     1
 10
147.1516542509982
 20
-118.30758746051
 11
145.8516542509982
 21
-118.30758746051
 72
     1
 10
145.8516542509982
 20
-118.30758746051
 11
145.8516542509982
 21
-115.0199999999999
 72
     1
 10
145.8516542509982
 20
-115.0199999999999
 11
147.1516542509982
 21
-115.0199999999999
 72
     1
 10
147.1516542509982
 20
-115.0199999999999
 11
147.1516542509982
 21
-113.9199999999999
 72
     1
 10
147.1516542509982
 20
-113.9199999999999
 11
145.8516542509982
 21
-113.9199999999999
 72
     1
 10
145.8516542509982
 20
-113.9199999999999
 11
145.8516542509982
 21
-111.3199999999999
 72
     1
 10
145.8516542509982
 20
-111.3199999999999
 11
147.1516542509982
 21
-111.3199999999999
 72
     1
 10
147.1516542509982
 20
-111.3199999999999
 11
147.1516542509982
 21
-110.2199999999999
 72
     1
 10
147.1516542509982
 20
-110.2199999999999
 11
144.5516542509982
 21
-110.2199999999999
 97
       12
330
A3
330
A4
330
EC
330
EE
330
EF
330
F0
330
F1
330
ED
330
E2
330
E3
330
E4
330
E5
 75
     1
 76
     0
 52
90.00000000000003
 41
0.15
 77
     0
 78
     1
 53
90.00000000000003
 43
0.0
 44
0.0
 45
-0.15
 46
-0.0000000000000001
 79
     0
 98
        1
 10
0.0
 20
0.0
  0
HATCH
  5
164
330
33
100
AcDbEntity
  8
1
  6
Continuous
 62
     2
100
AcDbHatch
 10
0.0
 20
0.0
 30
0.0
210
0.0
220
0.0
230
1.0
  2
_USER
 70
     0
 71
     1
 91
        1
 92
        1
 93
        4
 72
     1
 10
163.4516542509982
 20
-110.2199999999999
 11
163.4516542509982
 21
-119.4199999999999
 72
     1
 10
163.4516542509982
 20
-119.4199999999999
 11
164.6516542509982
 21
-119.4199999999999
 72
     1
 10
164.6516542509982
 20
-119.4199999999999
 11
164.6516542509982
 21
-110.2199999999999
 72
     1
 10
164.6516542509982
 20
-110.2199999999999
 11
163.4516542509982
 21
-110.2199999999999
 97
        4
330
AC
330
A5
330
AB
330
AE
 75
     1
 76
     0
 52
90.00000000000003
 41
0.15
 77
     0
 78
     1
 53
90.00000000000003
 43
0.0
 44
0.0
 45
-0.15
 46
-0.0000000000000001
 79
     0
 98
        1
 10
0.0
 20
0.0
  0
HATCH
  5
165
330
33
100
AcDbEntity
  8
1
  6
Continuous
 62
     2
100
AcDbHatch
 10
0.0
 20
0.0
 30
0.0
210
0.0
220
0.0
230
1.0
  2
_USER
 70
     0
 71
     1
 91
        1
 92
        1
 93
        4
 72
     1
 10
161.4516542509982
 20
-110.2199999999999
 11
161.4516542509982
 21
-119.4199999999999
 72
     1
 10
161.4516542509982
 20
-119.4199999999999
 11
162.6516542509982
 21
-119.4199999999999
 72
     1
 10
162.6516542509982
 20
-119.4199999999999
 11
162.6516542509982
 21
-110.2199999999999
 72
     1
 10
162.6516542509982
 20
-110.2199999999999
 11
161.4516542509982
 21
-110.2199999999999
 97
        4
330
AA
330
AD
330
A9
330
AF
 75
     1
 76
     0
 52
90.00000000000003
 41
0.15
 77
     0
 78
     1
 53
90.00000000000003
 43
0.0
 44
0.0
 45
-0.15
 46
-0.0000000000000001
 79
     0
 98
        1
 10
0.0
 20
0.0
  0
ENDBLK
  5
35
330
33
100
AcDbEntity
  8
0
100
AcDbBlockEnd
  0
BLOCK
  5
37
330
36
100
AcDbEntity
  8
0
100
AcDbBlockBegin
  2
Winkelflanschdose_8-polig_drehbar__1
 70
     0
 71
     0
 10
354.8254836891306
 20
581.51293335638
 30
0.0
  3
Winkelflanschdose_8-polig_drehbar__1
  1

  0
LINE
  5
166
330
36
100
AcDbEntity
  8
1
  6
Continuous
 62
     7
100
AcDbLine
 10
24.83454704867857
 20
199.7999756716064
 30
0.0
 11
24.83454704867857
 21
178.1999756716065
 31
0.0
  0
LINE
  5
167
330
36
100
AcDbEntity
  8
AM_VIS
  6
Continuous
 62
     7
100
AcDbLine
 10
19.63454704867847
 20
199.7999756716064
 30
0.0
 11
18.93454704867843
 21
200.4999756716066
 31
0.0
  0
LINE
  5
168
330
36
100
AcDbEntity
  8
AM_VIS
  6
Continuous
 62
     7
100
AcDbLine
 10
19.63454704867847
 20
178.1999756716065
 30
0.0
 11
19.63454704867847
 21
188.9999756716066
 31
0.0
  0
LINE
  5
169
330
36
100
AcDbEntity
  8
AM_VIS
  6
Continuous
 62
     7
100
AcDbLine
 10
19.63454704867847
 20
178.1999756716065
 30
0.0
 11
24.83454704867857
 21
178.1999756716065
 31
0.0
  0
LINE
  5
16A
330
36
100
AcDbEntity
  8
AM_VIS
  6
Continuous
 62
     7
100
AcDbLine
 10
18.93454704867843
 20
177.4999756716066
 30
0.0
 11
18.93454704867843
 21
185.0490266716064
 31
0.0
  0
LINE
  5
16B
330
36
100
AcDbEntity
  8
AM_VIS
  6
Continuous
 62
     7
100
AcDbLine
 10
19.46094304867841
 20
187.0557536716066
 30
0.0
 11
18.93454704867843
 21
185.0490266716064
 31
0.0
  0
LINE
  5
16C
330
36
100
AcDbEntity
  8
AM_VIS
  6
Continuous
 62
     7
100
AcDbLine
 10
19.63454704867847
 20
188.9999756716066
 30
0.0
 11
19.46094304867841
 21
187.0557536716066
 31
0.0
  0
LINE
  5
16D
330
36
100
AcDbEntity
  8
AM_VIS
  6
Continuous
 62
     7
100
AcDbLine
 10
19.46094304867841
 20
190.9441976716064
 30
0.0
 11
19.63454704867847
 21
188.9999756716066
 31
0.0
  0
LINE
  5
16E
330
36
100
AcDbEntity
  8
AM_VIS
  6
Continuous
 62
     7
100
AcDbLine
 10
18.93454704867843
 20
192.9509246716066
 30
0.0
 11
19.46094304867841
 21
190.9441976716064
 31
0.0
  0
LINE
  5
16F
330
36
100
AcDbEntity
  8
AM_VIS
  6
Continuous
 62
     7
100
AcDbLine
 10
18.93454704867843
 20
177.4999756716066
 30
0.0
 11
19.63454704867847
 21
178.1999756716065
 31
0.0
  0
LINE
  5
170
330
36
100
AcDbEntity
  8
AM_VIS
  6
Continuous
 62
     7
100
AcDbLine
 10
18.93454704867843
 20
192.9509246716066
 30
0.0
 11
18.93454704867843
 21
200.4999756716066
 31
0.0
  0
LINE
  5
171
330
36
100
AcDbEntity
  8
AM_VIS
  6
Continuous
 62
     7
100
AcDbLine
 10
19.63454704867847
 20
188.9999756716066
 30
0.0
 11
19.63454704867847
 21
199.7999756716064
 31
0.0
  0
LINE
  5
172
330
36
100
AcDbEntity
  8
AM_VIS
  6
Continuous
 62
     7
100
AcDbLine
 10
24.83454704867857
 20
199.7999756716064
 30
0.0
 11
19.63454704867847
 21
199.7999756716064
 31
0.0
  0
ENDBLK
  5
38
330
36
100
AcDbEntity
  8
0
100
AcDbBlockEnd
  0
BLOCK
  5
3A
330
39
100
AcDbEntity
  8
0
100
AcDbBlockBegin
  2
Linsenschraube_DIN_7985_-_M2_5_x_6_-__-___2
 70
     0
 71
     0
 10
-44.58989599999997
 20
164.4999756716065
 30
0.0
  3
Linsenschraube_DIN_7985_-_M2_5_x_6_-__-___2
  1

  0
POINT
  5
173
330
39
100
AcDbEntity
  8
1
 62
     3
 60
     1
100
AcDbPoint
 10
170.8093975133095
 20
165.9999756716066
 30
0.0
  0
LINE
  5
174
330
39
100
AcDbEntity
  8
1
  6
LONG_DASHED
 62
     2
100
AcDbLine
 10
178.8093975133085
 20
165.9999756716066
 30
0.0
 11
179.8928021119806
 21
167.8764874816606
 31
0.0
  0
LINE
  5
175
330
39
100
AcDbEntity
  8
1
  6
LONG_DASHED
 62
     2
100
AcDbLine
 10
177.7259929146364
 20
167.8764874816606
 30
0.0
 11
178.8093975133085
 21
165.9999756716066
 31
0.0
  0
LINE
  5
176
330
39
100
AcDbEntity
  8
1
  6
Continuous
 62
     7
100
AcDbLine
 10
177.5593975133085
 20
165.9999756716066
 30
0.0
 11
180.0593975133085
 21
165.9999756716066
 31
0.0
  0
LINE
  5
177
330
39
100
AcDbEntity
  8
1
  6
Continuous
 62
     7
100
AcDbLine
 10
176.3093975133085
 20
167.2999756716066
 30
0.0
 11
181.3093975133085
 21
167.2999756716066
 31
0.0
  0
LINE
  5
178
330
39
100
AcDbEntity
  8
1
  6
Continuous
 62
     7
100
AcDbLine
 10
176.3093975133085
 20
165.9999756716066
 30
0.0
 11
176.3093975133085
 21
167.2999756716066
 31
0.0
  0
LINE
  5
179
330
39
100
AcDbEntity
  8
1
  6
Continuous
 62
     7
100
AcDbLine
 10
181.3093975133085
 20
165.9999756716066
 30
0.0
 11
176.3093975133085
 21
165.9999756716066
 31
0.0
  0
LINE
  5
17A
330
39
100
AcDbEntity
  8
1
  6
Continuous
 62
     7
100
AcDbLine
 10
181.3093975133085
 20
167.2999756716066
 30
0.0
 11
181.3093975133085
 21
165.9999756716066
 31
0.0
  0
LINE
  5
17B
330
39
100
AcDbEntity
  8
1
  6
LONG_DASHED
 62
     2
100
AcDbLine
 10
198.8093975133085
 20
165.9999756716066
 30
0.0
 11
199.8928021119806
 21
167.8764874816606
 31
0.0
  0
LINE
  5
17C
330
39
100
AcDbEntity
  8
1
  6
LONG_DASHED
 62
     2
100
AcDbLine
 10
197.7259929146364
 20
167.8764874816606
 30
0.0
 11
198.8093975133085
 21
165.9999756716066
 31
0.0
  0
LINE
  5
17D
330
39
100
AcDbEntity
  8
1
  6
Continuous
 62
     7
100
AcDbLine
 10
197.5593975133085
 20
165.9999756716066
 30
0.0
 11
200.0593975133085
 21
165.9999756716066
 31
0.0
  0
LINE
  5
17E
330
39
100
AcDbEntity
  8
1
  6
Continuous
 62
     7
100
AcDbLine
 10
196.3093975133085
 20
167.2999756716066
 30
0.0
 11
201.3093975133086
 21
167.2999756716066
 31
0.0
  0
LINE
  5
17F
330
39
100
AcDbEntity
  8
1
  6
Continuous
 62
     7
100
AcDbLine
 10
196.3093975133085
 20
165.9999756716066
 30
0.0
 11
196.3093975133085
 21
167.2999756716066
 31
0.0
  0
LINE
  5
180
330
39
100
AcDbEntity
  8
1
  6
Continuous
 62
     7
100
AcDbLine
 10
201.3093975133086
 20
165.9999756716066
 30
0.0
 11
196.3093975133085
 21
165.9999756716066
 31
0.0
  0
LINE
  5
181
330
39
100
AcDbEntity
  8
1
  6
Continuous
 62
     7
100
AcDbLine
 10
201.3093975133086
 20
167.2999756716066
 30
0.0
 11
201.3093975133086
 21
165.9999756716066
 31
0.0
  0
LINE
  5
182
330
39
100
AcDbEntity
  8
1
  6
LONG_DASHED
 62
     2
100
AcDbLine
 10
169.7259929146374
 20
167.8764874816606
 30
0.0
 11
170.8093975133095
 21
165.9999756716066
 31
0.0
  0
LINE
  5
183
330
39
100
AcDbEntity
  8
1
  6
LONG_DASHED
 62
     2
100
AcDbLine
 10
170.8093975133095
 20
165.9999756716066
 30
0.0
 11
171.8928021119817
 21
167.8764874816606
 31
0.0
  0
LINE
  5
184
330
39
100
AcDbEntity
  8
1
  6
Continuous
 62
     7
100
AcDbLine
 10
169.5593975133095
 20
165.9999756716066
 30
0.0
 11
172.0593975133095
 21
165.9999756716066
 31
0.0
  0
LINE
  5
185
330
39
100
AcDbEntity
  8
1
  6
Continuous
 62
     7
100
AcDbLine
 10
168.3093975133095
 20
167.2999756716066
 30
0.0
 11
173.3093975133095
 21
167.2999756716066
 31
0.0
  0
LINE
  5
186
330
39
100
AcDbEntity
  8
1
  6
Continuous
 62
     7
100
AcDbLine
 10
173.3093975133095
 20
167.2999756716066
 30
0.0
 11
173.3093975133095
 21
165.9999756716066
 31
0.0
  0
LINE
  5
187
330
39
100
AcDbEntity
  8
1
  6
Continuous
 62
     7
100
AcDbLine
 10
173.3093975133095
 20
165.9999756716066
 30
0.0
 11
168.3093975133095
 21
165.9999756716066
 31
0.0
  0
LINE
  5
188
330
39
100
AcDbEntity
  8
1
  6
Continuous
 62
     7
100
AcDbLine
 10
168.3093975133095
 20
165.9999756716066
 30
0.0
 11
168.3093975133095
 21
167.2999756716066
 31
0.0
  0
LINE
  5
189
330
39
100
AcDbEntity
  8
1
  6
LONG_DASHED
 62
     2
100
AcDbLine
 10
149.7259929146374
 20
167.8764874816606
 30
0.0
 11
150.8093975133095
 21
165.9999756716066
 31
0.0
  0
LINE
  5
18A
330
39
100
AcDbEntity
  8
1
  6
LONG_DASHED
 62
     2
100
AcDbLine
 10
150.8093975133095
 20
165.9999756716066
 30
0.0
 11
151.8928021119817
 21
167.8764874816606
 31
0.0
  0
LINE
  5
18B
330
39
100
AcDbEntity
  8
1
  6
Continuous
 62
     7
100
AcDbLine
 10
149.5593975133095
 20
165.9999756716066
 30
0.0
 11
152.0593975133095
 21
165.9999756716066
 31
0.0
  0
LINE
  5
18C
330
39
100
AcDbEntity
  8
1
  6
Continuous
 62
     7
100
AcDbLine
 10
148.3093975133095
 20
167.2999756716066
 30
0.0
 11
153.3093975133095
 21
167.2999756716066
 31
0.0
  0
LINE
  5
18D
330
39
100
AcDbEntity
  8
1
  6
Continuous
 62
     7
100
AcDbLine
 10
153.3093975133095
 20
167.2999756716066
 30
0.0
 11
153.3093975133095
 21
165.9999756716066
 31
0.0
  0
LINE
  5
18E
330
39
100
AcDbEntity
  8
1
  6
Continuous
 62
     7
100
AcDbLine
 10
153.3093975133095
 20
165.9999756716066
 30
0.0
 11
148.3093975133095
 21
165.9999756716066
 31
0.0
  0
LINE
  5
18F
330
39
100
AcDbEntity
  8
1
  6
Continuous
 62
     7
100
AcDbLine
 10
148.3093975133095
 20
165.9999756716066
 30
0.0
 11
148.3093975133095
 21
167.2999756716066
 31
0.0
  0
LINE
  5
190
330
39
100
AcDbEntity
  8
1
  6
LONG_DASHED
 62
     2
100
AcDbLine
 10
-22.83581254999368
 20
167.8764874816605
 30
0.0
 11
-21.75240795132158
 21
165.9999756716065
 31
0.0
  0
LINE
  5
191
330
39
100
AcDbEntity
  8
1
  6
LONG_DASHED
 62
     2
100
AcDbLine
 10
-21.75240795132158
 20
165.9999756716065
 30
0.0
 11
-20.66900335264938
 21
167.8764874816605
 31
0.0
  0
LINE
  5
192
330
39
100
AcDbEntity
  8
1
  6
Continuous
 62
     7
100
AcDbLine
 10
-23.00240795132159
 20
165.9999756716065
 30
0.0
 11
-20.50240795132158
 21
165.9999756716065
 31
0.0
  0
LINE
  5
193
330
39
100
AcDbEntity
  8
1
  6
Continuous
 62
     7
100
AcDbLine
 10
-24.25240795132159
 20
167.2999756716065
 30
0.0
 11
-19.25240795132158
 21
167.2999756716065
 31
0.0
  0
LINE
  5
194
330
39
100
AcDbEntity
  8
1
  6
Continuous
 62
     7
100
AcDbLine
 10
-19.25240795132158
 20
167.2999756716065
 30
0.0
 11
-19.25240795132158
 21
165.9999756716065
 31
0.0
  0
LINE
  5
195
330
39
100
AcDbEntity
  8
1
  6
Continuous
 62
     7
100
AcDbLine
 10
-19.25240795132158
 20
165.9999756716065
 30
0.0
 11
-24.25240795132159
 21
165.9999756716065
 31
0.0
  0
LINE
  5
196
330
39
100
AcDbEntity
  8
1
  6
Continuous
 62
     7
100
AcDbLine
 10
-24.25240795132159
 20
165.9999756716065
 30
0.0
 11
-24.25240795132159
 21
167.2999756716065
 31
0.0
  0
ARC
  5
197
330
39
100
AcDbEntity
  8
1
  6
Continuous
 62
     7
100
AcDbCircle
 10
178.8093975133085
 20
163.1856899573209
 30
0.0
 40
4.814285714285702
100
AcDbArc
 50
58.71550708558246
 51
121.2844929144176
  0
ARC
  5
198
330
39
100
AcDbEntity
  8
1
  6
Continuous
 62
     7
100
AcDbCircle
 10
198.8093975133085
 20
163.1856899573209
 30
0.0
 40
4.814285714285746
100
AcDbArc
 50
58.71550708558159
 51
121.2844929144176
  0
ARC
  5
199
330
39
100
AcDbEntity
  8
1
  6
Continuous
 62
     7
100
AcDbCircle
 10
170.8093975133095
 20
163.1856899573209
 30
0.0
 40
4.814285714285702
100
AcDbArc
 50
58.71550708558246
 51
121.2844929144176
  0
ARC
  5
19A
330
39
100
AcDbEntity
  8
1
  6
Continuous
 62
     7
100
AcDbCircle
 10
150.8093975133095
 20
163.1856899573209
 30
0.0
 40
4.814285714285702
100
AcDbArc
 50
58.71550708558246
 51
121.2844929144176
  0
ARC
  5
19B
330
39
100
AcDbEntity
  8
1
  6
Continuous
 62
     7
100
AcDbCircle
 10
-21.75240795132158
 20
163.1856899573208
 30
0.0
 40
4.814285714285702
100
AcDbArc
 50
58.71550708558246
 51
121.2844929144177
  0
ENDBLK
  5
3B
330
39
100
AcDbEntity
  8
0
100
AcDbBlockEnd
  0
BLOCK
  5
3D
330
3C
100
AcDbEntity
  8
0
100
AcDbBlockBegin
  2
Linsenschraube_DIN_7985_-_M2_5_x_6_-__-___3
 70
     0
 71
     0
 10
-64.52365599999987
 20
-56.55955924482868
 30
0.0
  3
Linsenschraube_DIN_7985_-_M2_5_x_6_-__-___3
  1

  0
LINE
  5
19C
330
3C
100
AcDbEntity
  8
1
  6
LONG_DASHED
 62
     2
100
AcDbLine
 10
-2.90205354999377
 20
167.8764874816606
 30
0.0
 11
-1.81864895132158
 21
165.9999756716066
 31
0.0
  0
LINE
  5
19D
330
3C
100
AcDbEntity
  8
1
  6
LONG_DASHED
 62
     2
100
AcDbLine
 10
-1.81864895132158
 20
165.9999756716066
 30
0.0
 11
-0.73524435264936
 21
167.8764874816606
 31
0.0
  0
LINE
  5
19E
330
3C
100
AcDbEntity
  8
1
  6
Continuous
 62
     7
100
AcDbLine
 10
-3.06864895132158
 20
165.9999756716066
 30
0.0
 11
-0.56864895132158
 21
165.9999756716066
 31
0.0
  0
LINE
  5
19F
330
3C
100
AcDbEntity
  8
1
  6
Continuous
 62
     7
100
AcDbLine
 10
-4.31864895132158
 20
167.2999756716066
 30
0.0
 11
0.68135104867842
 21
167.2999756716066
 31
0.0
  0
LINE
  5
1A0
330
3C
100
AcDbEntity
  8
1
  6
Continuous
 62
     7
100
AcDbLine
 10
0.68135104867842
 20
167.2999756716066
 30
0.0
 11
0.68135104867842
 21
165.9999756716066
 31
0.0
  0
LINE
  5
1A1
330
3C
100
AcDbEntity
  8
1
  6
Continuous
 62
     7
100
AcDbLine
 10
0.68135104867842
 20
165.9999756716066
 30
0.0
 11
-4.31864895132158
 21
165.9999756716066
 31
0.0
  0
LINE
  5
1A2
330
3C
100
AcDbEntity
  8
1
  6
Continuous
 62
     7
100
AcDbLine
 10
-4.31864895132158
 20
165.9999756716066
 30
0.0
 11
-4.31864895132158
 21
167.2999756716066
 31
0.0
  0
ARC
  5
1A3
330
3C
100
AcDbEntity
  8
1
  6
Continuous
 62
     7
100
AcDbCircle
 10
-1.81864895132158
 20
163.1856899573209
 30
0.0
 40
4.814285714285703
100
AcDbArc
 50
58.71550708558244
 51
121.2844929144176
  0
ENDBLK
  5
3E
330
3C
100
AcDbEntity
  8
0
100
AcDbBlockEnd
  0
BLOCK
  5
40
330
3F
100
AcDbEntity
  8
0
100
AcDbBlockBegin
  2
O-Ring
 70
     0
 71
     0
 10
311.1068877153185
 20
-119.2593453266859
 30
0.0
  3
O-Ring
  1

  0
LINE
  5
1A4
330
3F
100
AcDbEntity
  8
1
  6
Continuous
 62
     7
100
AcDbLine
 10
13.33454704867843
 20
199.7886114126711
 30
0.0
 11
13.33454704867843
 21
200.3636114126711
 31
0.0
  0
LINE
  5
1A5
330
3F
100
AcDbEntity
  8
1
  6
Continuous
 62
     7
100
AcDbLine
 10
13.33454704867843
 20
177.6136114126711
 30
0.0
 11
13.33454704867843
 21
178.1886114126711
 31
0.0
  0
ARC
  5
1A6
102
{ACAD_REACTORS
330
1A9
330
1A9
102
}
330
3F
100
AcDbEntity
  8
1
  6
Continuous
 62
     7
100
AcDbCircle
 10
12.53454704867843
 20
200.3636114126711
 30
0.0
 40
0.8000000000000007
100
AcDbArc
 50
180.0
 51
0.0
  0
ARC
  5
1A7
102
{ACAD_REACTORS
330
1A9
330
1A9
102
}
330
3F
100
AcDbEntity
  8
1
  6
Continuous
 62
     7
100
AcDbCircle
 10
12.53454704867843
 20
200.3636114126711
 30
0.0
 40
0.8000000000000007
100
AcDbArc
 50
0.0
 51
180.0
  0
CIRCLE
  5
1A8
102
{ACAD_REACTORS
330
1AA
330
1AA
102
}
330
3F
100
AcDbEntity
  8
1
  6
Continuous
 62
     7
100
AcDbCircle
 10
12.53454704867843
 20
177.6136114126711
 30
0.0
 40
0.8000000000000007
  0
HATCH
  5
1A9
330
3F
100
AcDbEntity
  8
1
  6
Continuous
 62
     2
100
AcDbHatch
 10
0.0
 20
0.0
 30
0.0
210
0.0
220
0.0
230
1.0
  2
CUSTOM0
 70
     0
 71
     1
 91
        1
 92
        1
 93
        2
 72
     2
 10
12.53454704867843
 20
200.3636114126711
 40
0.8000000000000007
 50
180.0
 51
360.0
 73
     1
 72
     2
 10
12.53454704867843
 20
200.3636114126711
 40
0.8000000000000007
 50
0.0
 51
180.0
 73
     1
 97
        2
330
1A6
330
1A7
 75
     1
 76
     2
 52
45.0
 41
0.5
 77
     0
 78
     2
 53
45.0
 43
0.0
 44
0.0
 45
-0.7071067811865475
 46
0.0000000000000001
 79
     0
 53
135.0
 43
0.0
 44
0.0
 45
0.0000000000000003
 46
-0.7071067811865475
 79
     0
 98
        1
 10
0.0
 20
0.0
  0
HATCH
  5
1AA
330
3F
100
AcDbEntity
  8
1
  6
Continuous
 62
     2
100
AcDbHatch
 10
0.0
 20
0.0
 30
0.0
210
0.0
220
0.0
230
1.0
  2
CUSTOM1
 70
     0
 71
     1
 91
        1
 92
        1
 93
        1
 72
     2
 10
12.53454704867843
 20
177.6136114126711
 40
0.8000000000000007
 50
0.0
 51
360.0
 73
     1
 97
        1
330
1A8
 75
     1
 76
     2
 52
45.0
 41
0.5
 77
     0
 78
     2
 53
45.0
 43
0.0
 44
0.0
 45
-0.7071067811865475
 46
0.0000000000000001
 79
     0
 53
135.0
 43
0.0
 44
0.0
 45
0.0000000000000003
 46
-0.7071067811865475
 79
     0
 98
        1
 10
0.0
 20
0.0
  0
ENDBLK
  5
41
330
3F
100
AcDbEntity
  8
0
100
AcDbBlockEnd
  0
BLOCK
  5
44
330
42
100
AcDbEntity
  8
0
100
AcDbBlockBegin
  2
Winkelflanschdose_8-polig_drehbar__4
 70
     0
 71
     0
 10
359.5238149551591
 20
-0.66173146347131
 30
0.0
  3
Winkelflanschdose_8-polig_drehbar__4
  1

  0
INSERT
  5
43
330
42
100
AcDbEntity
  8
1
100
AcDbBlockReference
  2
O-Ring
 10
311.1068877153185
 20
-119.2593453266859
 30
0.0
  0
POINT
  5
1AB
330
42
100
AcDbEntity
  8
1
 62
     3
 60
     1
100
AcDbPoint
 10
1.12124704867842
 20
172.4999756716066
 30
0.0
  0
POINT
  5
1AC
330
42
100
AcDbEntity
  8
1
 62
     3
 60
     1
100
AcDbPoint
 10
1.12124704867842
 20
172.4999765129528
 30
0.0
  0
POINT
  5
1AD
330
42
100
AcDbEntity
  8
1
 62
     3
 60
     1
100
AcDbPoint
 10
159.809397513309
 20
172.4999893805347
 30
0.0
  0
POINT
  5
1AE
330
42
100
AcDbEntity
  8
1
 62
     3
 60
     1
100
AcDbPoint
 10
159.809397513309
 20
176.5400398772295
 30
0.0
  0
POINT
  5
1AF
330
42
100
AcDbEntity
  8
1
 62
     3
 60
     1
100
AcDbPoint
 10
161.809397513309
 20
172.4999874009067
 30
0.0
  0
POINT
  5
1B0
330
42
100
AcDbEntity
  8
1
 62
     3
 60
     1
100
AcDbPoint
 10
161.809397513309
 20
176.5400398772295
 30
0.0
  0
POINT
  5
1B1
330
42
100
AcDbEntity
  8
1
 62
     3
 60
     1
100
AcDbPoint
 10
173.6593975133091
 20
165.9999756716066
 30
0.0
  0
POINT
  5
1B2
330
42
100
AcDbEntity
  8
1
 62
     3
 60
     1
100
AcDbPoint
 10
173.6593975133091
 20
175.9999756716066
 30
0.0
  0
LINE
  5
1B3
330
42
100
AcDbEntity
  8
1
  6
DOT_CENTER
 62
     2
100
AcDbLine
 10
188.8093975133085
 20
159.356115776019
 30
0.0
 11
188.8093975133085
 21
202.7499756716067
 31
0.0
  0
LINE
  5
1B4
330
42
100
AcDbEntity
  8
1
  6
DOT_CENTER
 62
     2
100
AcDbLine
 10
202.5593975133084
 20
188.9999756716068
 30
0.0
 11
175.0593975133086
 21
188.9999756716068
 31
0.0
  0
LINE
  5
1B5
330
42
100
AcDbEntity
  8
AM_VIS
  6
Continuous
 62
     7
100
AcDbLine
 10
193.728746513309
 20
199.4499756716066
 30
0.0
 11
193.728524513309
 21
199.4499756716066
 31
0.0
  0
LINE
  5
1B6
330
42
100
AcDbEntity
  8
AM_VIS
  6
Continuous
 62
     2
100
AcDbLine
 10
196.856316513309
 20
197.4934286716066
 30
0.0
 11
196.8562138280446
 21
197.4934288678576
 31
0.0
  0
LINE
  5
1B7
330
42
100
AcDbEntity
  8
AM_VIS
  6
Continuous
 62
     7
100
AcDbLine
 10
201.659397513309
 20
161.9999993233656
 30
0.0
 11
201.659397513309
 21
162.000024761585
 31
0.0
  0
LINE
  5
1B8
330
42
100
AcDbEntity
  8
AM_VIS
  6
Continuous
 62
     7
100
AcDbLine
 10
201.659397513309
 20
165.9999756716066
 30
0.0
 11
200.8093975133089
 21
165.9999756716066
 31
0.0
  0
LINE
  5
1B9
330
42
100
AcDbEntity
  8
AM_VIS
  6
Continuous
 62
     7
100
AcDbLine
 10
201.659397513309
 20
162.000024761585
 30
0.0
 11
200.5381504646305
 21
162.000023651759
 31
0.0
  0
LINE
  5
1BA
330
42
100
AcDbEntity
  8
AM_VIS
  6
Continuous
 62
     7
100
AcDbLine
 10
178.785741513309
 20
165.9999756716066
 30
0.0
 11
176.8093975133089
 21
165.9999756716066
 31
0.0
  0
LINE
  5
1BB
330
42
100
AcDbEntity
  8
AM_VIS
  6
Continuous
 62
     7
100
AcDbLine
 10
176.6429950439642
 20
162.0
 30
0.0
 11
175.959397513309
 21
161.9999993233656
 31
0.0
  0
LINE
  5
1BC
330
42
100
AcDbEntity
  8
AM_VIS
  6
Continuous
 62
     7
100
AcDbLine
 10
188.225741513309
 20
165.9999756716066
 30
0.0
 11
178.785741513309
 21
165.9999756716066
 31
0.0
  0
LINE
  5
1BD
330
42
100
AcDbEntity
  8
AM_VIS
  6
Continuous
 62
     7
100
AcDbLine
 10
198.833053513309
 20
165.9999756716066
 30
0.0
 11
189.393053513309
 21
165.9999756716066
 31
0.0
  0
LINE
  5
1BE
330
42
100
AcDbEntity
  8
AM_VIS
  6
Continuous
 62
     7
100
AcDbLine
 10
200.8093975133089
 20
172.5000002684885
 30
0.0
 11
200.8093975133089
 21
185.4999756716064
 31
0.0
  0
LINE
  5
1BF
330
42
100
AcDbEntity
  8
AM_VIS
  6
Continuous
 62
     7
100
AcDbLine
 10
198.618941513309
 20
181.2525343835384
 30
0.0
 11
198.618941513309
 21
165.9999756716066
 31
0.0
  0
LINE
  5
1C0
330
42
100
AcDbEntity
  8
AM_VIS
  6
Continuous
 62
     7
100
AcDbLine
 10
195.721187513309
 20
165.9999756716066
 30
0.0
 11
195.721187513309
 21
178.5847388045977
 31
0.0
  0
LINE
  5
1C1
330
42
100
AcDbEntity
  8
AM_VIS
  6
Continuous
 62
     7
100
AcDbLine
 10
200.8093975133089
 20
165.9999756716066
 30
0.0
 11
198.833053513309
 21
165.9999756716066
 31
0.0
  0
LINE
  5
1C2
330
42
100
AcDbEntity
  8
AM_VIS
  6
Continuous
 62
     7
100
AcDbLine
 10
201.659397513309
 20
162.000024761585
 30
0.0
 11
201.659397513309
 21
165.9999756716066
 31
0.0
  0
LINE
  5
1C3
330
42
100
AcDbEntity
  8
AM_VIS
  6
Continuous
 62
     7
100
AcDbLine
 10
181.897607513309
 20
178.5847388045979
 30
0.0
 11
181.897607513309
 21
165.9999756716065
 31
0.0
  0
LINE
  5
1C4
330
42
100
AcDbEntity
  8
AM_VIS
  6
Continuous
 62
     7
100
AcDbLine
 10
189.393053513309
 20
165.9999756716066
 30
0.0
 11
188.225741513309
 21
165.9999756716066
 31
0.0
  0
LINE
  5
1C5
330
42
100
AcDbEntity
  8
AM_VIS
  6
Continuous
 62
     7
100
AcDbLine
 10
176.8093975133089
 20
175.9999756716066
 30
0.0
 11
176.8093975133089
 21
165.9999756716066
 31
0.0
  0
LINE
  5
1C6
330
42
100
AcDbEntity
  8
AM_VIS
  6
Continuous
 62
     7
100
AcDbLine
 10
178.9998525133089
 20
165.9999756716066
 30
0.0
 11
178.9998525133089
 21
181.2525356497043
 31
0.0
  0
LINE
  5
1C7
330
42
100
AcDbEntity
  8
AM_VIS
  6
Continuous
 62
     7
100
AcDbLine
 10
175.959397513309
 20
165.9999756716066
 30
0.0
 11
175.959397513309
 21
161.9999993233656
 31
0.0
  0
LINE
  5
1C8
330
42
100
AcDbEntity
  8
AM_VIS
  6
Continuous
 62
     7
100
AcDbLine
 10
176.8093975133089
 20
165.9999756716066
 30
0.0
 11
175.9726595133089
 21
165.9999756716066
 31
0.0
  0
LINE
  5
1C9
330
42
100
AcDbEntity
  8
AM_VIS
  6
Continuous
 62
     7
100
AcDbLine
 10
175.9726595133089
 20
165.9999756716066
 30
0.0
 11
175.959397513309
 21
165.9999756716066
 31
0.0
  0
LINE
  5
1CA
330
42
100
AcDbEntity
  8
1
  6
Continuous
 62
     7
100
AcDbLine
 10
189.809397513309
 20
172.4999893805347
 30
0.0
 11
200.8093975133089
 21
172.5000002684885
 31
0.0
  0
LINE
  5
1CB
330
42
100
AcDbEntity
  8
AM_VIS
  6
Continuous
 62
     7
100
AcDbLine
 10
200.8093975133089
 20
165.9999756716066
 30
0.0
 11
200.8093975133089
 21
172.5000002684885
 31
0.0
  0
LINE
  5
1CC
330
42
100
AcDbEntity
  8
1
  6
Continuous
 62
     7
100
AcDbLine
 10
189.809397513309
 20
176.5400398772295
 30
0.0
 11
189.809397513309
 21
172.4999893805347
 31
0.0
  0
LINE
  5
1CD
330
42
100
AcDbEntity
  8
1
  6
Continuous
 62
     7
100
AcDbLine
 10
187.809397513309
 20
172.4999874009067
 30
0.0
 11
189.809397513309
 21
172.4999893805347
 31
0.0
  0
LINE
  5
1CE
330
42
100
AcDbEntity
  8
1
  6
Continuous
 62
     7
100
AcDbLine
 10
187.809397513309
 20
176.5400398772295
 30
0.0
 11
187.809397513309
 21
172.4999874009067
 31
0.0
  0
LINE
  5
1CF
330
42
100
AcDbEntity
  8
1
  6
Continuous
 62
     7
100
AcDbLine
 10
176.6429861356383
 20
172.4999763482366
 30
0.0
 11
187.809397513309
 21
172.4999874009067
 31
0.0
  0
LINE
  5
1D0
330
42
100
AcDbEntity
  8
1
  6
Continuous
 62
     7
100
AcDbLine
 10
175.959397513309
 20
175.9999756716066
 30
0.0
 11
175.959397513309
 21
165.9999756716066
 31
0.0
  0
LINE
  5
1D1
330
42
100
AcDbEntity
  8
1
  6
Continuous
 62
     7
100
AcDbLine
 10
176.8093975133089
 20
175.9999756716066
 30
0.0
 11
175.959397513309
 21
175.9999756716066
 31
0.0
  0
LINE
  5
1D2
330
42
100
AcDbEntity
  8
AM_VIS
  6
Continuous
 62
     7
100
AcDbLine
 10
176.8093975133089
 20
185.4999756716069
 30
0.0
 11
176.8093975133089
 21
175.9999756716066
 31
0.0
  0
LINE
  5
1D3
330
42
100
AcDbEntity
  8
1
  6
DOT_CENTER
 62
     2
100
AcDbLine
 10
174.5593975133094
 20
188.9999756716068
 30
0.0
 11
147.0593975133096
 21
188.9999756716068
 31
0.0
  0
LINE
  5
1D4
330
42
100
AcDbEntity
  8
1
  6
DOT_CENTER
 62
     2
100
AcDbLine
 10
160.8093975133095
 20
202.7499756716067
 30
0.0
 11
160.8093975133095
 21
159.356115776019
 31
0.0
  0
LINE
  5
1D5
330
42
100
AcDbEntity
  8
1
  6
DOT_CENTER
 62
     2
100
AcDbLine
 10
11.93454704867842
 20
188.9999756716066
 30
0.0
 11
20.93454704867843
 21
188.9999756716066
 31
0.0
  0
LINE
  5
1D6
330
42
100
AcDbEntity
  8
AM_VIS
  6
Continuous
 62
     7
100
AcDbLine
 10
10.93454704867842
 20
198.3196376716066
 30
0.0
 11
10.93454704867842
 21
197.3294626716066
 31
0.0
  0
LINE
  5
1D7
330
42
100
AcDbEntity
  8
1
  6
Continuous
 62
     7
100
AcDbLine
 10
-23.72875295132157
 20
172.5000002684885
 30
0.0
 11
-18.64054295132156
 21
172.4999952321071
 31
0.0
  0
LINE
  5
1D8
330
42
100
AcDbEntity
  8
AM_VIS
  6
Continuous
 62
     7
100
AcDbLine
 10
-18.64054295132156
 20
181.3438978082421
 30
0.0
 11
-18.64054295132156
 21
174.9999756716065
 31
0.0
  0
LINE
  5
1D9
330
42
100
AcDbEntity
  8
AM_VIS
  6
Continuous
 62
     7
100
AcDbLine
 10
-12.31240795132156
 20
165.9999756716066
 30
0.0
 11
-16.64054295132156
 21
165.9999756716065
 31
0.0
  0
LINE
  5
1DA
330
42
100
AcDbEntity
  8
1
  6
Continuous
 62
     7
100
AcDbLine
 10
-16.64054295132156
 20
174.9999756716065
 30
0.0
 11
-16.64054295132156
 21
165.9999756716065
 31
0.0
  0
LINE
  5
1DB
330
42
100
AcDbEntity
  8
AM_VIS
  6
Continuous
 62
     7
100
AcDbLine
 10
-16.64054295132156
 20
165.9999756716065
 30
0.0
 11
-18.64054295132156
 21
165.9999756716066
 31
0.0
  0
LINE
  5
1DC
330
42
100
AcDbEntity
  8
AM_VIS
  6
Continuous
 62
     7
100
AcDbLine
 10
-1.91920795132156
 20
165.9999756716066
 30
0.0
 11
-4.81696295132157
 21
165.9999756716065
 31
0.0
  0
LINE
  5
1DD
330
42
100
AcDbEntity
  8
AM_VIS
  6
Continuous
 62
     7
100
AcDbLine
 10
-1.70509695132167
 20
165.9999756716066
 30
0.0
 11
-1.91920795132156
 21
165.9999756716066
 31
0.0
  0
LINE
  5
1DE
330
42
100
AcDbEntity
  8
AM_VIS
  6
Continuous
 62
     2
100
AcDbLine
 10
-2.82283795132158
 20
180.6704886716066
 30
0.0
 11
-4.03876671023336
 21
180.6704886716066
 31
0.0
  0
LINE
  5
1DF
330
42
100
AcDbEntity
  8
AM_VIS
  6
Continuous
 62
     2
100
AcDbLine
 10
-4.19920995132158
 20
181.4836776716066
 30
0.0
 11
-4.98160677250418
 21
181.4836776716066
 31
0.0
  0
LINE
  5
1E0
330
42
100
AcDbEntity
  8
AM_VIS
  6
Continuous
 62
     7
100
AcDbLine
 10
-1.91920795132156
 20
178.7236966415615
 30
0.0
 11
-1.91920795132156
 21
165.9999756716066
 31
0.0
  0
LINE
  5
1E1
330
42
100
AcDbEntity
  8
AM_VIS
  6
Continuous
 62
     7
100
AcDbLine
 10
-4.81696295132157
 20
165.9999756716065
 30
0.0
 11
-4.81696295132157
 21
181.2821756716066
 31
0.0
  0
LINE
  5
1E2
330
42
100
AcDbEntity
  8
AM_VIS
  6
Continuous
 62
     7
100
AcDbLine
 10
0.27124704867843
 20
172.4999765129528
 30
0.0
 11
0.27124704867843
 21
176.4999756716066
 31
0.0
  0
LINE
  5
1E3
330
42
100
AcDbEntity
  8
AM_VIS
  6
Continuous
 62
     7
100
AcDbLine
 10
-5.35347095132157
 20
187.7845626716066
 30
0.0
 11
-8.94416595132116
 21
187.7845626716066
 31
0.0
  0
LINE
  5
1E4
330
42
100
AcDbEntity
  8
AM_VIS
  6
Continuous
 62
     2
100
AcDbLine
 10
-5.12673795132158
 20
183.5766156716066
 30
0.0
 11
-7.58594695132148
 21
183.5766156716066
 31
0.0
  0
LINE
  5
1E5
330
42
100
AcDbEntity
  8
AM_VIS
  6
Continuous
 62
     2
100
AcDbLine
 10
-5.28832495132157
 20
184.8712916716066
 30
0.0
 11
-9.53876895132156
 21
184.8712916716066
 31
0.0
  0
LINE
  5
1E6
330
42
100
AcDbEntity
  8
AM_VIS
  6
Continuous
 62
     2
100
AcDbLine
 10
-13.91873595132158
 20
184.8712916716066
 30
0.0
 11
-17.62639995132157
 21
184.8712916716066
 31
0.0
  0
LINE
  5
1E7
330
42
100
AcDbEntity
  8
AM_VIS
  6
Continuous
 62
     2
100
AcDbLine
 10
-5.35452495132158
 20
187.2523916716066
 30
0.0
 11
-16.45563395132167
 21
187.2523916716066
 31
0.0
  0
LINE
  5
1E8
330
42
100
AcDbEntity
  8
AM_VIS
  6
Continuous
 62
     2
100
AcDbLine
 10
-4.87659595132156
 20
182.6488556716066
 30
0.0
 11
-6.39805919105347
 21
182.6488556716066
 31
0.0
  0
LINE
  5
1E9
330
42
100
AcDbEntity
  8
AM_VIS
  6
Continuous
 62
     7
100
AcDbLine
 10
-21.53829995132156
 20
178.5799756716066
 30
0.0
 11
-18.64053795132158
 21
178.5799756716066
 31
0.0
  0
LINE
  5
1EA
330
42
100
AcDbEntity
  8
AM_VIS
  6
Continuous
 62
     2
100
AcDbLine
 10
-19.41873919240977
 20
180.6704886716066
 30
0.0
 11
-20.77365881809817
 21
180.6704886716066
 31
0.0
  0
LINE
  5
1EB
330
42
100
AcDbEntity
  8
AM_VIS
  6
Continuous
 62
     2
100
AcDbLine
 10
-23.63164884624178
 20
176.6227406716066
 30
0.0
 11
-24.45186195132157
 21
176.6227406716066
 31
0.0
  0
LINE
  5
1EC
330
42
100
AcDbEntity
  8
AM_VIS
  6
Continuous
 62
     2
100
AcDbLine
 10
-23.36972542697138
 20
176.8961296716066
 30
0.0
 11
-24.20471940655827
 21
176.8961296716066
 31
0.0
  0
LINE
  5
1ED
330
42
100
AcDbEntity
  8
AM_VIS
  6
Continuous
 62
     2
100
AcDbLine
 10
-23.07357111100177
 20
177.2015026716066
 30
0.0
 11
-23.92689353715297
 21
177.2015026716066
 31
0.0
  0
LINE
  5
1EE
330
42
100
AcDbEntity
  8
AM_VIS
  6
Continuous
 62
     2
100
AcDbLine
 10
-22.54411183123277
 20
177.7377746716066
 30
0.0
 11
-23.43899763726087
 21
177.7377746716066
 31
0.0
  0
LINE
  5
1EF
330
42
100
AcDbEntity
  8
AM_VIS
  6
Continuous
 62
     2
100
AcDbLine
 10
-22.04357585877617
 20
178.2336726716066
 30
0.0
 11
-22.98783367389017
 21
178.2336726716066
 31
0.0
  0
LINE
  5
1F0
330
42
100
AcDbEntity
  8
AM_VIS
  6
Continuous
 62
     2
100
AcDbLine
 10
-21.23568875715976
 20
179.0122196716066
 30
0.0
 11
-22.27951795132157
 21
179.0122196716066
 31
0.0
  0
LINE
  5
1F1
330
42
100
AcDbEntity
  8
AM_VIS
  6
Continuous
 62
     2
100
AcDbLine
 10
-20.52074969163107
 20
179.6795866716066
 30
0.0
 11
-21.65134253799816
 21
179.6795866716066
 31
0.0
  0
LINE
  5
1F2
330
42
100
AcDbEntity
  8
AM_VIS
  6
Continuous
 62
     2
100
AcDbLine
 10
-24.56545295132157
 20
176.4999756716066
 30
0.0
 11
-23.72875295132157
 21
176.4999756716066
 31
0.0
  0
LINE
  5
1F3
330
42
100
AcDbEntity
  8
AM_VIS
  6
Continuous
 62
     7
100
AcDbLine
 10
-23.72875295132157
 20
172.9999756716066
 30
0.0
 11
-23.72875295132157
 21
172.4999756716065
 31
0.0
  0
LINE
  5
1F4
330
42
100
AcDbEntity
  8
AM_VIS
  6
Continuous
 62
     7
100
AcDbLine
 10
-18.64054295132156
 20
174.9999756716065
 30
0.0
 11
-18.64054295132156
 21
165.9999756716066
 31
0.0
  0
LINE
  5
1F5
330
42
100
AcDbEntity
  8
AM_VIS
  6
Continuous
 62
     7
100
AcDbLine
 10
-8.94416595132116
 20
187.7845626716066
 30
0.0
 11
-23.72875295132157
 21
172.9999756716066
 31
0.0
  0
LINE
  5
1F6
330
42
100
AcDbEntity
  8
AM_VIS
  6
Continuous
 62
     7
100
AcDbLine
 10
-23.72875295132157
 20
176.4999756716066
 30
0.0
 11
-23.72875295132157
 21
172.9999756716066
 31
0.0
  0
LINE
  5
1F7
330
42
100
AcDbEntity
  8
AM_VIS
  6
Continuous
 62
     7
100
AcDbLine
 10
-24.56545295132157
 20
201.9999756716066
 30
0.0
 11
-24.56545295132157
 21
176.4999756716066
 31
0.0
  0
LINE
  5
1F8
330
42
100
AcDbEntity
  8
AM_VIS
  6
Continuous
 62
     2
100
AcDbLine
 10
-18.47589913013896
 20
181.4836776716066
 30
0.0
 11
-20.09878876881987
 21
181.4836776716066
 31
0.0
  0
LINE
  5
1F9
330
42
100
AcDbEntity
  8
AM_VIS
  6
Continuous
 62
     2
100
AcDbLine
 10
-17.05944671158967
 20
182.6488556716066
 30
0.0
 11
-19.19724637553637
 21
182.6488556716066
 31
0.0
  0
LINE
  5
1FA
330
42
100
AcDbEntity
  8
AM_VIS
  6
Continuous
 62
     2
100
AcDbLine
 10
-15.87155895132158
 20
183.5766156716066
 30
0.0
 11
-18.53045848790838
 21
183.5766156716066
 31
0.0
  0
LINE
  5
1FB
330
42
100
AcDbEntity
  8
AM_VIS
  6
Continuous
 62
     2
100
AcDbLine
 10
-5.35347095132157
 20
188.2993016716066
 30
0.0
 11
-16.21238795132156
 21
188.2993016716066
 31
0.0
  0
LINE
  5
1FC
330
42
100
AcDbEntity
  8
AM_VIS
  6
Continuous
 62
     2
100
AcDbLine
 10
-4.19920995132158
 20
196.5162736716066
 30
0.0
 11
-20.14811395132156
 21
196.5162736716066
 31
0.0
  0
LINE
  5
1FD
330
42
100
AcDbEntity
  8
AM_VIS
  6
Continuous
 62
     2
100
AcDbLine
 10
-4.87659595132156
 20
195.3510956716066
 30
0.0
 11
-19.21018895132157
 21
195.3510956716066
 31
0.0
  0
LINE
  5
1FE
330
42
100
AcDbEntity
  8
AM_VIS
  6
Continuous
 62
     2
100
AcDbLine
 10
-5.12673795132158
 20
194.4233356716066
 30
0.0
 11
-18.50943295132156
 21
194.4233356716066
 31
0.0
  0
LINE
  5
1FF
330
42
100
AcDbEntity
  8
AM_VIS
  6
Continuous
 62
     2
100
AcDbLine
 10
-5.33657495132157
 20
192.1219816716066
 30
0.0
 11
-17.04432495132157
 21
192.1219816716066
 31
0.0
  0
LINE
  5
200
330
42
100
AcDbEntity
  8
AM_VIS
  6
Continuous
 62
     2
100
AcDbLine
 10
-5.35452495132158
 20
190.7475596716066
 30
0.0
 11
-16.45563395132167
 21
190.7475596716066
 31
0.0
  0
LINE
  5
201
330
42
100
AcDbEntity
  8
AM_VIS
  6
Continuous
 62
     2
100
AcDbLine
 10
-5.35347095132157
 20
189.7006496716066
 30
0.0
 11
-16.21238795132156
 21
189.7006496716066
 31
0.0
  0
LINE
  5
202
330
42
100
AcDbEntity
  8
1
  6
Continuous
 62
     2
100
AcDbLine
 10
-17.62639995132157
 20
193.1286586716066
 30
0.0
 11
-5.28832495132157
 21
193.1286596716066
 31
0.0
  0
LINE
  5
203
330
42
100
AcDbEntity
  8
1
  6
Continuous
 62
     2
100
AcDbLine
 10
-20.83468055007486
 20
197.3294626716066
 30
0.0
 11
10.93454704867842
 21
197.3294626716066
 31
0.0
  0
LINE
  5
204
330
42
100
AcDbEntity
  8
AM_VIS
  6
Continuous
 62
     7
100
AcDbLine
 10
0.27124704867843
 20
165.9999756716065
 30
0.0
 11
-1.70509695132167
 21
165.9999756716066
 31
0.0
  0
LINE
  5
205
330
42
100
AcDbEntity
  8
AM_VIS
  6
Continuous
 62
     7
100
AcDbLine
 10
-23.72875295132157
 20
165.9999756716065
 30
0.0
 11
-24.57875295132157
 21
165.9999756716066
 31
0.0
  0
LINE
  5
206
330
42
100
AcDbEntity
  8
AM_VIS
  6
Continuous
 62
     7
100
AcDbLine
 10
-21.53829995132156
 20
165.9999756716065
 30
0.0
 11
-21.75240795132158
 21
165.9999756716065
 31
0.0
  0
LINE
  5
207
330
42
100
AcDbEntity
  8
AM_VIS
  6
Continuous
 62
     7
100
AcDbLine
 10
-24.57875295132157
 20
165.9999756716066
 30
0.0
 11
-24.57875295132157
 21
162.0
 31
0.0
  0
LINE
  5
208
330
42
100
AcDbEntity
  8
AM_VIS
  6
Continuous
 62
     7
100
AcDbLine
 10
-21.75240795132158
 20
165.9999756716065
 30
0.0
 11
-23.72875295132157
 21
165.9999756716065
 31
0.0
  0
LINE
  5
209
330
42
100
AcDbEntity
  8
AM_VIS
  6
Continuous
 62
     7
100
AcDbLine
 10
-4.81696295132157
 20
165.9999756716065
 30
0.0
 11
-11.14509695132158
 21
165.9999756716066
 31
0.0
  0
LINE
  5
20A
330
42
100
AcDbEntity
  8
AM_VIS
  6
Continuous
 62
     7
100
AcDbLine
 10
-11.14509695132158
 20
165.9999756716066
 30
0.0
 11
-12.31240795132156
 21
165.9999756716066
 31
0.0
  0
LINE
  5
20B
330
42
100
AcDbEntity
  8
AM_VIS
  6
Continuous
 62
     7
100
AcDbLine
 10
1.12124704867842
 20
165.9999756716065
 30
0.0
 11
0.27124704867843
 21
165.9999756716065
 31
0.0
  0
LINE
  5
20C
330
42
100
AcDbEntity
  8
1
  6
DOT_CENTER
 62
     2
100
AcDbLine
 10
-21.63885695132157
 20
166.5733251525486
 30
0.0
 11
-21.63885695132157
 21
159.6301587325096
 31
0.0
  0
LINE
  5
20D
330
42
100
AcDbEntity
  8
1
  6
DOT_CENTER
 62
     2
100
AcDbLine
 10
-1.81864895132158
 20
159.6301587325096
 30
0.0
 11
-1.81864895132158
 21
163.959093184374
 31
0.0
  0
LINE
  5
20E
330
42
100
AcDbEntity
  8
AM_VIS
  6
Continuous
 62
     7
100
AcDbLine
 10
-23.72875295132157
 20
172.5000002684885
 30
0.0
 11
-23.72875295132157
 21
165.9999756716065
 31
0.0
  0
LINE
  5
20F
330
42
100
AcDbEntity
  8
1
  6
Continuous
 62
     7
100
AcDbLine
 10
-16.64054295132156
 20
172.4999932524791
 30
0.0
 11
0.27124704867843
 21
172.4999765129528
 31
0.0
  0
LINE
  5
210
330
42
100
AcDbEntity
  8
AM_VIS
  6
Continuous
 62
     7
100
AcDbLine
 10
-23.72875295132157
 20
172.9999756716066
 30
0.0
 11
-23.72875295132157
 21
172.5000002684885
 31
0.0
  0
LINE
  5
211
330
42
100
AcDbEntity
  8
AM_VIS
  6
Continuous
 62
     7
100
AcDbLine
 10
0.27124704867843
 20
165.9999756716065
 30
0.0
 11
0.27124704867843
 21
172.4999765129528
 31
0.0
  0
LINE
  5
212
330
42
100
AcDbEntity
  8
1
  6
Continuous
 62
     3
100
AcDbLine
 10
1.02587004867844
 20
185.8779696716066
 30
0.0
 11
1.02587004867844
 21
192.1219816716066
 31
0.0
  0
LINE
  5
213
330
42
100
AcDbEntity
  8
1
  6
Continuous
 62
     3
100
AcDbLine
 10
-5.33657495132157
 20
185.8779696716066
 30
0.0
 11
-5.33657495132157
 21
192.1219816716066
 31
0.0
  0
LINE
  5
214
330
42
100
AcDbEntity
  8
1
  6
Continuous
 62
     3
100
AcDbLine
 10
-20.83468055007486
 20
197.3294626716066
 30
0.0
 11
-17.62639995132157
 21
193.1286586716066
 31
0.0
  0
LINE
  5
215
330
42
100
AcDbEntity
  8
1
  6
Continuous
 62
     3
100
AcDbLine
 10
-24.56513709072957
 20
176.4999756716066
 30
0.0
 11
-22.27951795132157
 21
179.0122196716066
 31
0.0
  0
LINE
  5
216
330
42
100
AcDbEntity
  8
1
  6
Continuous
 62
     3
100
AcDbLine
 10
-24.56545295132157
 20
201.9999756716066
 30
0.0
 11
-23.56561895132157
 21
201.7876526716066
 31
0.0
  0
LINE
  5
217
330
42
100
AcDbEntity
  8
1
  6
Continuous
 62
     3
100
AcDbLine
 10
-9.53876895132156
 20
184.8712916716066
 30
0.0
 11
-7.58594695132148
 21
183.5766156716066
 31
0.0
  0
LINE
  5
218
330
42
100
AcDbEntity
  8
AM_VIS
  6
Continuous
 62
     2
100
AcDbLine
 10
-5.33657495132157
 20
185.8779696716066
 30
0.0
 11
-17.04432495132157
 21
185.8779696716066
 31
0.0
  0
LINE
  5
219
330
42
100
AcDbEntity
  8
1
  6
Continuous
 62
     3
100
AcDbLine
 10
-15.87155895132158
 20
183.5766156716066
 30
0.0
 11
-13.91873695132158
 21
184.8712916716066
 31
0.0
  0
LINE
  5
21A
330
42
100
AcDbEntity
  8
AM_VIS
  6
Continuous
 62
     2
100
AcDbLine
 10
-24.56545295132157
 20
176.4999756716066
 30
0.0
 11
-24.56513709072957
 21
176.4999756716066
 31
0.0
  0
LINE
  5
21B
330
42
100
AcDbEntity
  8
AM_VIS
  6
Continuous
 62
     7
100
AcDbLine
 10
-18.64054295132156
 20
165.9999756716066
 30
0.0
 11
-21.53829995132156
 21
165.9999756716065
 31
0.0
  0
LINE
  5
21C
330
42
100
AcDbEntity
  8
AM_VIS
  6
Continuous
 62
     7
100
AcDbLine
 10
-21.53829995132156
 20
165.9999756716065
 30
0.0
 11
-21.53829995132156
 21
178.5799756716066
 31
0.0
  0
LINE
  5
21D
330
42
100
AcDbEntity
  8
AM_VIS
  6
Continuous
 62
     7
100
AcDbLine
 10
13.93454704867844
 20
177.4999756716066
 30
0.0
 11
13.93454704867844
 21
184.9057726716066
 31
0.0
  0
LINE
  5
21E
330
42
100
AcDbEntity
  8
AM_VIS
  6
Continuous
 62
     7
100
AcDbLine
 10
10.93454704867842
 20
177.4499756716066
 30
0.0
 11
10.93454704867842
 21
177.7377746716066
 31
0.0
  0
LINE
  5
21F
330
42
100
AcDbEntity
  8
AM_VIS
  6
Continuous
 62
     7
100
AcDbLine
 10
10.93454704867842
 20
176.5196286716066
 30
0.0
 11
10.93454704867842
 21
176.6227406716065
 31
0.0
  0
LINE
  5
220
330
42
100
AcDbEntity
  8
AM_VIS
  6
Continuous
 62
     7
100
AcDbLine
 10
10.93454704867842
 20
176.6227406716065
 30
0.0
 11
10.93454704867842
 21
176.8961296716065
 31
0.0
  0
LINE
  5
221
330
42
100
AcDbEntity
  8
AM_VIS
  6
Continuous
 62
     7
100
AcDbLine
 10
10.93454704867842
 20
176.8961296716065
 30
0.0
 11
10.93454704867842
 21
177.2015026716066
 31
0.0
  0
LINE
  5
222
330
42
100
AcDbEntity
  8
AM_VIS
  6
Continuous
 62
     7
100
AcDbLine
 10
10.93454704867842
 20
177.2015026716066
 30
0.0
 11
10.93454704867842
 21
177.4499756716066
 31
0.0
  0
LINE
  5
223
330
42
100
AcDbEntity
  8
AM_VIS
  6
Continuous
 62
     7
100
AcDbLine
 10
13.93454704867844
 20
200.4999756716066
 30
0.0
 11
13.93454704867844
 21
200.5499756716065
 31
0.0
  0
LINE
  5
224
330
42
100
AcDbEntity
  8
AM_VIS
  6
Continuous
 62
     7
100
AcDbLine
 10
10.93454704867842
 20
176.4999756716066
 30
0.0
 11
10.93454704867842
 21
176.5196286716066
 31
0.0
  0
LINE
  5
225
330
42
100
AcDbEntity
  8
AM_VIS
  6
Continuous
 62
     7
100
AcDbLine
 10
10.93454704867842
 20
200.5499756716065
 30
0.0
 11
10.93454704867842
 21
199.2120616716066
 31
0.0
  0
LINE
  5
226
330
42
100
AcDbEntity
  8
AM_VIS
  6
Continuous
 62
     7
100
AcDbLine
 10
13.33454704867843
 20
199.5749756716066
 30
0.0
 11
13.33454704867843
 21
200.5499756716065
 31
0.0
  0
LINE
  5
227
330
42
100
AcDbEntity
  8
AM_VIS
  6
Continuous
 62
     7
100
AcDbLine
 10
11.73454704867843
 20
199.5749756716066
 30
0.0
 11
11.73454704867843
 21
200.5499756716065
 31
0.0
  0
LINE
  5
228
330
42
100
AcDbEntity
  8
AM_VIS
  6
Continuous
 62
     7
100
AcDbLine
 10
11.73454704867843
 20
178.4249756716065
 30
0.0
 11
11.73454704867843
 21
199.5749756716066
 31
0.0
  0
LINE
  5
229
330
42
100
AcDbEntity
  8
AM_VIS
  6
Continuous
 62
     7
100
AcDbLine
 10
13.33454704867843
 20
178.4249756716065
 30
0.0
 11
13.33454704867843
 21
184.9057726716066
 31
0.0
  0
LINE
  5
22A
330
42
100
AcDbEntity
  8
AM_VIS
  6
Continuous
 62
     7
100
AcDbLine
 10
1.12124704867842
 20
176.4999756716066
 30
0.0
 11
10.93454704867842
 21
176.4999756716066
 31
0.0
  0
LINE
  5
22B
330
42
100
AcDbEntity
  8
AM_VIS
  6
Continuous
 62
     7
100
AcDbLine
 10
10.93454704867842
 20
201.9999756716066
 30
0.0
 11
6.74267004867833
 21
201.9999756716066
 31
0.0
  0
LINE
  5
22C
330
42
100
AcDbEntity
  8
AM_VIS
  6
Continuous
 62
     2
100
AcDbLine
 10
10.93454704867842
 20
176.5196286716066
 30
0.0
 11
0.25077404867842
 21
176.5196286716066
 31
0.0
  0
LINE
  5
22D
330
42
100
AcDbEntity
  8
AM_VIS
  6
Continuous
 62
     2
100
AcDbLine
 10
10.93454704867842
 20
176.6227406716065
 30
0.0
 11
0.22958045847004
 21
176.6227406716065
 31
0.0
  0
LINE
  5
22E
330
42
100
AcDbEntity
  8
AM_VIS
  6
Continuous
 62
     2
100
AcDbLine
 10
10.93454704867842
 20
176.8961296716065
 30
0.0
 11
-0.14198895132167
 21
176.8961296716065
 31
0.0
  0
LINE
  5
22F
330
42
100
AcDbEntity
  8
AM_VIS
  6
Continuous
 62
     2
100
AcDbLine
 10
10.93454704867842
 20
177.2015026716066
 30
0.0
 11
-0.41476440469116
 21
177.2015026716066
 31
0.0
  0
LINE
  5
230
330
42
100
AcDbEntity
  8
AM_VIS
  6
Continuous
 62
     2
100
AcDbLine
 10
10.93454704867842
 20
177.7377746716066
 30
0.0
 11
-1.02421295132156
 21
177.7377746716066
 31
0.0
  0
LINE
  5
231
330
42
100
AcDbEntity
  8
AM_VIS
  6
Continuous
 62
     2
100
AcDbLine
 10
10.93454704867842
 20
178.2336726716066
 30
0.0
 11
-1.54723595132167
 21
178.2336726716066
 31
0.0
  0
LINE
  5
232
330
42
100
AcDbEntity
  8
AM_VIS
  6
Continuous
 62
     2
100
AcDbLine
 10
10.93454704867842
 20
179.0122196716066
 30
0.0
 11
-2.37432795132158
 21
179.0122196716066
 31
0.0
  0
LINE
  5
233
330
42
100
AcDbEntity
  8
AM_VIS
  6
Continuous
 62
     2
100
AcDbLine
 10
10.93454704867842
 20
181.4836776716066
 30
0.0
 11
-0.11149595132157
 21
181.4836776716066
 31
0.0
  0
LINE
  5
234
330
42
100
AcDbEntity
  8
AM_VIS
  6
Continuous
 62
     2
100
AcDbLine
 10
10.93454704867842
 20
182.6488556716065
 30
0.0
 11
0.56589004867844
 21
182.6488556716065
 31
0.0
  0
LINE
  5
235
330
42
100
AcDbEntity
  8
AM_VIS
  6
Continuous
 62
     2
100
AcDbLine
 10
10.93454704867842
 20
183.5766156716066
 30
0.0
 11
0.81603304867833
 21
183.5766156716066
 31
0.0
  0
LINE
  5
236
330
42
100
AcDbEntity
  8
AM_VIS
  6
Continuous
 62
     2
100
AcDbLine
 10
10.93454704867842
 20
184.8712916716066
 30
0.0
 11
0.97761904867833
 21
184.8712916716066
 31
0.0
  0
LINE
  5
237
330
42
100
AcDbEntity
  8
AM_VIS
  6
Continuous
 62
     2
100
AcDbLine
 10
10.93454704867842
 20
185.8779696716066
 30
0.0
 11
1.02587004867844
 21
185.8779696716066
 31
0.0
  0
LINE
  5
238
330
42
100
AcDbEntity
  8
AM_VIS
  6
Continuous
 62
     2
100
AcDbLine
 10
10.93454704867842
 20
187.2523916716066
 30
0.0
 11
1.04382004867834
 21
187.2523916716066
 31
0.0
  0
LINE
  5
239
330
42
100
AcDbEntity
  8
AM_VIS
  6
Continuous
 62
     7
100
AcDbLine
 10
10.93454704867842
 20
187.7845626716066
 30
0.0
 11
1.04276604867833
 21
187.7845626716066
 31
0.0
  0
LINE
  5
23A
330
42
100
AcDbEntity
  8
AM_VIS
  6
Continuous
 62
     2
100
AcDbLine
 10
10.93454704867842
 20
180.6704886716066
 30
0.0
 11
-1.48786695132158
 21
180.6704886716066
 31
0.0
  0
LINE
  5
23B
330
42
100
AcDbEntity
  8
AM_VIS
  6
Continuous
 62
     2
100
AcDbLine
 10
10.93454704867842
 20
179.6795866716066
 30
0.0
 11
-3.09048595132167
 21
179.6795866716066
 31
0.0
  0
LINE
  5
23C
330
42
100
AcDbEntity
  8
AM_VIS
  6
Continuous
 62
     2
100
AcDbLine
 10
10.93454704867842
 20
198.3196376716066
 30
0.0
 11
-21.68882795132167
 21
198.3196376716066
 31
0.0
  0
LINE
  5
23D
330
42
100
AcDbEntity
  8
AM_VIS
  6
Continuous
 62
     2
100
AcDbLine
 10
10.93454704867842
 20
199.2120616716066
 30
0.0
 11
-22.35463295132157
 21
199.2120616716066
 31
0.0
  0
LINE
  5
23E
330
42
100
AcDbEntity
  8
AM_VIS
  6
Continuous
 62
     7
100
AcDbLine
 10
5.27124704867843
 20
201.9999756716066
 30
0.0
 11
-24.56545295132157
 21
201.9999756716066
 31
0.0
  0
LINE
  5
23F
330
42
100
AcDbEntity
  8
AM_VIS
  6
Continuous
 62
     7
100
AcDbLine
 10
5.24267004867833
 20
201.9713986716065
 30
0.0
 11
5.26410304867842
 21
201.9928306716065
 31
0.0
  0
LINE
  5
240
330
42
100
AcDbEntity
  8
AM_VIS
  6
Continuous
 62
     7
100
AcDbLine
 10
5.26410304867842
 20
201.9928306716065
 30
0.0
 11
5.27124704867843
 21
201.9999756716066
 31
0.0
  0
LINE
  5
241
330
42
100
AcDbEntity
  8
AM_VIS
  6
Continuous
 62
     7
100
AcDbLine
 10
6.74267004867833
 20
201.9713986716065
 30
0.0
 11
5.24267004867833
 21
201.9713986716065
 31
0.0
  0
LINE
  5
242
330
42
100
AcDbEntity
  8
AM_VIS
  6
Continuous
 62
     7
100
AcDbLine
 10
6.74267004867833
 20
201.9999756716066
 30
0.0
 11
6.74267004867833
 21
201.9713986716065
 31
0.0
  0
LINE
  5
243
330
42
100
AcDbEntity
  8
AM_VIS
  6
Continuous
 62
     7
100
AcDbLine
 10
11.73454704867843
 20
177.4499756716066
 30
0.0
 11
11.73454704867843
 21
178.4249756716065
 31
0.0
  0
LINE
  5
244
330
42
100
AcDbEntity
  8
AM_VIS
  6
Continuous
 62
     7
100
AcDbLine
 10
13.93454704867844
 20
193.0941786716066
 30
0.0
 11
13.93454704867844
 21
200.4999756716066
 31
0.0
  0
LINE
  5
245
330
42
100
AcDbEntity
  8
AM_VIS
  6
Continuous
 62
     7
100
AcDbLine
 10
13.33454704867843
 20
193.0941786716066
 30
0.0
 11
13.33454704867843
 21
199.5749756716066
 31
0.0
  0
LINE
  5
246
330
42
100
AcDbEntity
  8
AM_VIS
  6
Continuous
 62
     7
100
AcDbLine
 10
10.93454704867842
 20
195.3510956716066
 30
0.0
 11
10.93454704867842
 21
196.5162736716066
 31
0.0
  0
LINE
  5
247
330
42
100
AcDbEntity
  8
AM_VIS
  6
Continuous
 62
     7
100
AcDbLine
 10
13.93454704867844
 20
177.4999756716066
 30
0.0
 11
18.93454704867843
 21
177.4999756716066
 31
0.0
  0
LINE
  5
248
330
42
100
AcDbEntity
  8
AM_VIS
  6
Continuous
 62
     7
100
AcDbLine
 10
18.93454704867843
 20
185.0490266716065
 30
0.0
 11
13.93454704867844
 21
185.0490266716065
 31
0.0
  0
LINE
  5
249
330
42
100
AcDbEntity
  8
AM_VIS
  6
Continuous
 62
     7
100
AcDbLine
 10
13.93454704867844
 20
192.9509246716066
 30
0.0
 11
18.93454704867843
 21
192.9509246716066
 31
0.0
  0
LINE
  5
24A
330
42
100
AcDbEntity
  8
AM_VIS
  6
Continuous
 62
     7
100
AcDbLine
 10
10.93454704867842
 20
177.4499756716066
 30
0.0
 11
11.73454704867843
 21
177.4499756716066
 31
0.0
  0
LINE
  5
24B
330
42
100
AcDbEntity
  8
AM_VIS
  6
Continuous
 62
     7
100
AcDbLine
 10
11.73454704867843
 20
178.4249756716065
 30
0.0
 11
13.33454704867843
 21
178.4249756716065
 31
0.0
  0
LINE
  5
24C
330
42
100
AcDbEntity
  8
AM_VIS
  6
Continuous
 62
     7
100
AcDbLine
 10
13.33454704867843
 20
177.4499756716066
 30
0.0
 11
13.93454704867844
 21
177.4499756716066
 31
0.0
  0
LINE
  5
24D
330
42
100
AcDbEntity
  8
AM_VIS
  6
Continuous
 62
     7
100
AcDbLine
 10
13.93454704867844
 20
177.4499756716066
 30
0.0
 11
13.93454704867844
 21
177.4999756716066
 31
0.0
  0
LINE
  5
24E
330
42
100
AcDbEntity
  8
AM_VIS
  6
Continuous
 62
     7
100
AcDbLine
 10
10.93454704867842
 20
178.2336726716066
 30
0.0
 11
10.93454704867842
 21
177.7377746716066
 31
0.0
  0
LINE
  5
24F
330
42
100
AcDbEntity
  8
AM_VIS
  6
Continuous
 62
     7
100
AcDbLine
 10
10.93454704867842
 20
178.2336726716066
 30
0.0
 11
10.93454704867842
 21
179.0122196716066
 31
0.0
  0
LINE
  5
250
330
42
100
AcDbEntity
  8
AM_VIS
  6
Continuous
 62
     7
100
AcDbLine
 10
10.93454704867842
 20
179.6795866716066
 30
0.0
 11
10.93454704867842
 21
179.0122196716066
 31
0.0
  0
LINE
  5
251
330
42
100
AcDbEntity
  8
AM_VIS
  6
Continuous
 62
     7
100
AcDbLine
 10
10.93454704867842
 20
181.4836776716066
 30
0.0
 11
10.93454704867842
 21
180.6704886716066
 31
0.0
  0
LINE
  5
252
330
42
100
AcDbEntity
  8
AM_VIS
  6
Continuous
 62
     7
100
AcDbLine
 10
10.93454704867842
 20
181.4836776716066
 30
0.0
 11
10.93454704867842
 21
182.6488556716065
 31
0.0
  0
LINE
  5
253
330
42
100
AcDbEntity
  8
AM_VIS
  6
Continuous
 62
     7
100
AcDbLine
 10
10.93454704867842
 20
183.5766156716066
 30
0.0
 11
10.93454704867842
 21
182.6488556716065
 31
0.0
  0
LINE
  5
254
330
42
100
AcDbEntity
  8
AM_VIS
  6
Continuous
 62
     7
100
AcDbLine
 10
10.93454704867842
 20
183.5766156716066
 30
0.0
 11
10.93454704867842
 21
184.8712916716066
 31
0.0
  0
LINE
  5
255
330
42
100
AcDbEntity
  8
AM_VIS
  6
Continuous
 62
     7
100
AcDbLine
 10
10.93454704867842
 20
185.8779696716066
 30
0.0
 11
10.93454704867842
 21
184.8712916716066
 31
0.0
  0
LINE
  5
256
330
42
100
AcDbEntity
  8
AM_VIS
  6
Continuous
 62
     7
100
AcDbLine
 10
10.93454704867842
 20
185.8779696716066
 30
0.0
 11
10.93454704867842
 21
187.2523916716066
 31
0.0
  0
LINE
  5
257
330
42
100
AcDbEntity
  8
AM_VIS
  6
Continuous
 62
     7
100
AcDbLine
 10
10.93454704867842
 20
187.7845626716066
 30
0.0
 11
10.93454704867842
 21
187.2523916716066
 31
0.0
  0
LINE
  5
258
330
42
100
AcDbEntity
  8
AM_VIS
  6
Continuous
 62
     7
100
AcDbLine
 10
13.33454704867843
 20
177.4499756716066
 30
0.0
 11
13.33454704867843
 21
178.4249756716065
 31
0.0
  0
LINE
  5
259
330
42
100
AcDbEntity
  8
AM_VIS
  6
Continuous
 62
     7
100
AcDbLine
 10
13.93454704867844
 20
185.0490266716065
 30
0.0
 11
13.93454704867844
 21
184.9057726716066
 31
0.0
  0
LINE
  5
25A
330
42
100
AcDbEntity
  8
AM_VIS
  6
Continuous
 62
     7
100
AcDbLine
 10
13.93454704867844
 20
184.9057726716066
 30
0.0
 11
13.33454704867843
 21
184.9057726716066
 31
0.0
  0
LINE
  5
25B
330
42
100
AcDbEntity
  8
AM_VIS
  6
Continuous
 62
     7
100
AcDbLine
 10
13.33454704867843
 20
184.9057726716066
 30
0.0
 11
13.33454704867843
 21
193.0941786716066
 31
0.0
  0
LINE
  5
25C
330
42
100
AcDbEntity
  8
AM_VIS
  6
Continuous
 62
     7
100
AcDbLine
 10
13.33454704867843
 20
193.0941786716066
 30
0.0
 11
13.93454704867844
 21
193.0941786716066
 31
0.0
  0
LINE
  5
25D
330
42
100
AcDbEntity
  8
AM_VIS
  6
Continuous
 62
     7
100
AcDbLine
 10
13.93454704867844
 20
193.0941786716066
 30
0.0
 11
13.93454704867844
 21
192.9509246716066
 31
0.0
  0
LINE
  5
25E
330
42
100
AcDbEntity
  8
AM_VIS
  6
Continuous
 62
     7
100
AcDbLine
 10
10.93454704867842
 20
179.6795866716066
 30
0.0
 11
10.93454704867842
 21
180.6704886716066
 31
0.0
  0
LINE
  5
25F
330
42
100
AcDbEntity
  8
AM_VIS
  6
Continuous
 62
     7
100
AcDbLine
 10
10.93454704867842
 20
188.2993016716066
 30
0.0
 11
10.93454704867842
 21
187.7845626716066
 31
0.0
  0
LINE
  5
260
330
42
100
AcDbEntity
  8
AM_VIS
  6
Continuous
 62
     7
100
AcDbLine
 10
10.93454704867842
 20
188.2993016716066
 30
0.0
 11
10.93454704867842
 21
189.7006496716066
 31
0.0
  0
LINE
  5
261
330
42
100
AcDbEntity
  8
AM_VIS
  6
Continuous
 62
     7
100
AcDbLine
 10
10.93454704867842
 20
190.7475596716065
 30
0.0
 11
10.93454704867842
 21
189.7006496716066
 31
0.0
  0
LINE
  5
262
330
42
100
AcDbEntity
  8
AM_VIS
  6
Continuous
 62
     7
100
AcDbLine
 10
10.93454704867842
 20
190.7475596716065
 30
0.0
 11
10.93454704867842
 21
192.1219816716066
 31
0.0
  0
LINE
  5
263
330
42
100
AcDbEntity
  8
AM_VIS
  6
Continuous
 62
     7
100
AcDbLine
 10
10.93454704867842
 20
193.1286586716066
 30
0.0
 11
10.93454704867842
 21
192.1219816716066
 31
0.0
  0
LINE
  5
264
330
42
100
AcDbEntity
  8
AM_VIS
  6
Continuous
 62
     7
100
AcDbLine
 10
10.93454704867842
 20
193.1286586716066
 30
0.0
 11
10.93454704867842
 21
194.4233356716066
 31
0.0
  0
LINE
  5
265
330
42
100
AcDbEntity
  8
AM_VIS
  6
Continuous
 62
     7
100
AcDbLine
 10
10.93454704867842
 20
195.3510956716066
 30
0.0
 11
10.93454704867842
 21
194.4233356716066
 31
0.0
  0
LINE
  5
266
330
42
100
AcDbEntity
  8
AM_VIS
  6
Continuous
 62
     7
100
AcDbLine
 10
18.93454704867843
 20
200.4999756716066
 30
0.0
 11
13.93454704867844
 21
200.4999756716066
 31
0.0
  0
LINE
  5
267
330
42
100
AcDbEntity
  8
AM_VIS
  6
Continuous
 62
     7
100
AcDbLine
 10
11.73454704867843
 20
200.5499756716065
 30
0.0
 11
10.93454704867842
 21
200.5499756716065
 31
0.0
  0
LINE
  5
268
330
42
100
AcDbEntity
  8
AM_VIS
  6
Continuous
 62
     7
100
AcDbLine
 10
13.33454704867843
 20
199.5749756716066
 30
0.0
 11
11.73454704867843
 21
199.5749756716066
 31
0.0
  0
LINE
  5
269
330
42
100
AcDbEntity
  8
AM_VIS
  6
Continuous
 62
     7
100
AcDbLine
 10
13.93454704867844
 20
200.5499756716065
 30
0.0
 11
13.33454704867843
 21
200.5499756716065
 31
0.0
  0
LINE
  5
26A
330
42
100
AcDbEntity
  8
AM_VIS
  6
Continuous
 62
     7
100
AcDbLine
 10
10.93454704867842
 20
197.3294626716066
 30
0.0
 11
10.93454704867842
 21
196.5162736716066
 31
0.0
  0
LINE
  5
26B
330
42
100
AcDbEntity
  8
AM_VIS
  6
Continuous
 62
     7
100
AcDbLine
 10
10.93454704867842
 20
199.2120616716066
 30
0.0
 11
10.93454704867842
 21
198.3196376716066
 31
0.0
  0
LINE
  5
26C
330
42
100
AcDbEntity
  8
AM_VIS
  6
Continuous
 62
     7
100
AcDbLine
 10
10.93454704867842
 20
201.5915946716066
 30
0.0
 11
10.93454704867842
 21
200.5499756716065
 31
0.0
  0
LINE
  5
26D
330
42
100
AcDbEntity
  8
AM_VIS
  6
Continuous
 62
     7
100
AcDbLine
 10
10.93454704867842
 20
201.5915946716066
 30
0.0
 11
10.93454704867842
 21
201.8254286716066
 31
0.0
  0
LINE
  5
26E
330
42
100
AcDbEntity
  8
AM_VIS
  6
Continuous
 62
     7
100
AcDbLine
 10
10.93454704867842
 20
201.8254286716066
 30
0.0
 11
10.93454704867842
 21
201.9999756716066
 31
0.0
  0
LINE
  5
26F
330
42
100
AcDbEntity
  8
AM_VIS
  6
Continuous
 62
     2
100
AcDbLine
 10
10.93454704867842
 20
189.7006496716066
 30
0.0
 11
1.04040372157153
 21
189.7006496716066
 31
0.0
  0
LINE
  5
270
330
42
100
AcDbEntity
  8
AM_VIS
  6
Continuous
 62
     2
100
AcDbLine
 10
10.93454704867842
 20
188.2993016716066
 30
0.0
 11
1.03808989471112
 21
188.2993016716066
 31
0.0
  0
LINE
  5
271
330
42
100
AcDbEntity
  8
AM_VIS
  6
Continuous
 62
     2
100
AcDbLine
 10
10.93454704867842
 20
190.7475596716065
 30
0.0
 11
1.04382004867834
 21
190.7475596716066
 31
0.0
  0
LINE
  5
272
330
42
100
AcDbEntity
  8
AM_VIS
  6
Continuous
 62
     2
100
AcDbLine
 10
10.93454704867842
 20
192.1219816716066
 30
0.0
 11
1.02587004867844
 21
192.1219816716066
 31
0.0
  0
LINE
  5
273
330
42
100
AcDbEntity
  8
AM_VIS
  6
Continuous
 62
     2
100
AcDbLine
 10
10.93454704867842
 20
193.1286586716066
 30
0.0
 11
0.97761904447414
 21
193.1286586716066
 31
0.0
  0
LINE
  5
274
330
42
100
AcDbEntity
  8
AM_VIS
  6
Continuous
 62
     2
100
AcDbLine
 10
10.93454704867842
 20
194.4233356716066
 30
0.0
 11
0.81603304867833
 21
194.4233356716066
 31
0.0
  0
LINE
  5
275
330
42
100
AcDbEntity
  8
AM_VIS
  6
Continuous
 62
     2
100
AcDbLine
 10
10.93454704867842
 20
195.3510956716066
 30
0.0
 11
0.56589004867844
 21
195.3510956716067
 31
0.0
  0
LINE
  5
276
330
42
100
AcDbEntity
  8
AM_VIS
  6
Continuous
 62
     2
100
AcDbLine
 10
10.93454704867842
 20
196.5162736716066
 30
0.0
 11
-0.11149595132157
 21
196.5162736716066
 31
0.0
  0
LINE
  5
277
330
42
100
AcDbEntity
  8
1
  6
Continuous
 62
     7
100
AcDbLine
 10
1.12124704867842
 20
172.4999765129528
 30
0.0
 11
1.12124704867842
 21
176.4999756716066
 31
0.0
  0
LINE
  5
278
330
42
100
AcDbEntity
  8
AM_VIS
  6
Continuous
 62
     7
100
AcDbLine
 10
0.27124704867843
 20
176.4999756716066
 30
0.0
 11
1.12124704867842
 21
176.4999756716066
 31
0.0
  0
LINE
  5
279
330
42
100
AcDbEntity
  8
1
  6
Continuous
 62
     7
100
AcDbLine
 10
1.12124704867842
 20
172.4999765129528
 30
0.0
 11
0.27124704867843
 21
172.4999765129528
 31
0.0
  0
LINE
  5
27A
330
42
100
AcDbEntity
  8
1
  6
Continuous
 62
     7
100
AcDbLine
 10
1.12124704867842
 20
172.4999756716066
 30
0.0
 11
1.12124704867842
 21
172.4999765129528
 31
0.0
  0
LINE
  5
27B
330
42
100
AcDbEntity
  8
AM_VIS
  6
Continuous
 62
     7
100
AcDbLine
 10
155.890270513309
 20
199.4499756716066
 30
0.0
 11
155.890048513309
 21
199.4499756716066
 31
0.0
  0
LINE
  5
27C
330
42
100
AcDbEntity
  8
AM_VIS
  6
Continuous
 62
     2
100
AcDbLine
 10
152.7625811985734
 20
197.4934288678576
 30
0.0
 11
152.762478513309
 21
197.4934286716066
 31
0.0
  0
LINE
  5
27D
330
42
100
AcDbEntity
  8
AM_VIS
  6
Continuous
 62
     7
100
AcDbLine
 10
147.959397513309
 20
162.000024761585
 30
0.0
 11
147.959397513309
 21
161.9999993233656
 31
0.0
  0
LINE
  5
27E
330
42
100
AcDbEntity
  8
AM_VIS
  6
Continuous
 62
     7
100
AcDbLine
 10
148.8093975133091
 20
165.9999756716066
 30
0.0
 11
147.959397513309
 21
165.9999756716066
 31
0.0
  0
LINE
  5
27F
330
42
100
AcDbEntity
  8
AM_VIS
  6
Continuous
 62
     7
100
AcDbLine
 10
149.0806445619875
 20
162.000023651759
 30
0.0
 11
147.959397513309
 21
162.000024761585
 31
0.0
  0
LINE
  5
280
330
42
100
AcDbEntity
  8
AM_VIS
  6
Continuous
 62
     7
100
AcDbLine
 10
172.8093975133091
 20
165.9999756716066
 30
0.0
 11
170.8330535133091
 21
165.9999756716066
 31
0.0
  0
LINE
  5
281
330
42
100
AcDbEntity
  8
AM_VIS
  6
Continuous
 62
     7
100
AcDbLine
 10
173.6593975133091
 20
161.9999993233656
 30
0.0
 11
172.9757999826538
 21
162.0
 31
0.0
  0
LINE
  5
282
330
42
100
AcDbEntity
  8
AM_VIS
  6
Continuous
 62
     7
100
AcDbLine
 10
170.8330535133091
 20
165.9999756716066
 30
0.0
 11
161.393053513309
 21
165.9999756716066
 31
0.0
  0
LINE
  5
283
330
42
100
AcDbEntity
  8
AM_VIS
  6
Continuous
 62
     7
100
AcDbLine
 10
160.225741513309
 20
165.9999756716066
 30
0.0
 11
150.785741513309
 21
165.9999756716066
 31
0.0
  0
LINE
  5
284
330
42
100
AcDbEntity
  8
AM_VIS
  6
Continuous
 62
     7
100
AcDbLine
 10
148.8093975133091
 20
185.4999756716064
 30
0.0
 11
148.8093975133091
 21
172.5000002684885
 31
0.0
  0
LINE
  5
285
330
42
100
AcDbEntity
  8
AM_VIS
  6
Continuous
 62
     7
100
AcDbLine
 10
150.999853513309
 20
165.9999756716066
 30
0.0
 11
150.999853513309
 21
181.2525343835384
 31
0.0
  0
LINE
  5
286
330
42
100
AcDbEntity
  8
AM_VIS
  6
Continuous
 62
     7
100
AcDbLine
 10
153.897607513309
 20
178.5847388045977
 30
0.0
 11
153.897607513309
 21
165.9999756716066
 31
0.0
  0
LINE
  5
287
330
42
100
AcDbEntity
  8
AM_VIS
  6
Continuous
 62
     7
100
AcDbLine
 10
150.785741513309
 20
165.9999756716066
 30
0.0
 11
148.8093975133091
 21
165.9999756716066
 31
0.0
  0
LINE
  5
288
330
42
100
AcDbEntity
  8
AM_VIS
  6
Continuous
 62
     7
100
AcDbLine
 10
147.959397513309
 20
165.9999756716066
 30
0.0
 11
147.959397513309
 21
162.000024761585
 31
0.0
  0
LINE
  5
289
330
42
100
AcDbEntity
  8
AM_VIS
  6
Continuous
 62
     7
100
AcDbLine
 10
167.721187513309
 20
165.9999756716065
 30
0.0
 11
167.721187513309
 21
178.5847388045979
 31
0.0
  0
LINE
  5
28A
330
42
100
AcDbEntity
  8
AM_VIS
  6
Continuous
 62
     7
100
AcDbLine
 10
161.393053513309
 20
165.9999756716066
 30
0.0
 11
160.225741513309
 21
165.9999756716066
 31
0.0
  0
LINE
  5
28B
330
42
100
AcDbEntity
  8
AM_VIS
  6
Continuous
 62
     7
100
AcDbLine
 10
172.8093975133091
 20
165.9999756716066
 30
0.0
 11
172.8093975133091
 21
175.9999756716066
 31
0.0
  0
LINE
  5
28C
330
42
100
AcDbEntity
  8
AM_VIS
  6
Continuous
 62
     7
100
AcDbLine
 10
170.6189425133091
 20
181.2525356497043
 30
0.0
 11
170.6189425133091
 21
165.9999756716066
 31
0.0
  0
LINE
  5
28D
330
42
100
AcDbEntity
  8
AM_VIS
  6
Continuous
 62
     7
100
AcDbLine
 10
173.6593975133091
 20
161.9999993233656
 30
0.0
 11
173.6593975133091
 21
165.9999756716066
 31
0.0
  0
LINE
  5
28E
330
42
100
AcDbEntity
  8
AM_VIS
  6
Continuous
 62
     7
100
AcDbLine
 10
173.6461355133091
 20
165.9999756716066
 30
0.0
 11
172.8093975133091
 21
165.9999756716066
 31
0.0
  0
LINE
  5
28F
330
42
100
AcDbEntity
  8
AM_VIS
  6
Continuous
 62
     7
100
AcDbLine
 10
173.6593975133091
 20
165.9999756716066
 30
0.0
 11
173.6461355133091
 21
165.9999756716066
 31
0.0
  0
LINE
  5
290
330
42
100
AcDbEntity
  8
1
  6
Continuous
 62
     7
100
AcDbLine
 10
148.8093975133091
 20
172.5000002684885
 30
0.0
 11
159.809397513309
 21
172.4999893805347
 31
0.0
  0
LINE
  5
291
330
42
100
AcDbEntity
  8
AM_VIS
  6
Continuous
 62
     7
100
AcDbLine
 10
148.8093975133091
 20
172.5000002684885
 30
0.0
 11
148.8093975133091
 21
165.9999756716066
 31
0.0
  0
LINE
  5
292
330
42
100
AcDbEntity
  8
1
  6
Continuous
 62
     7
100
AcDbLine
 10
159.809397513309
 20
172.4999893805347
 30
0.0
 11
159.809397513309
 21
176.5400398772295
 31
0.0
  0
LINE
  5
293
330
42
100
AcDbEntity
  8
1
  6
Continuous
 62
     7
100
AcDbLine
 10
159.809397513309
 20
172.4999893805347
 30
0.0
 11
161.809397513309
 21
172.4999874009067
 31
0.0
  0
LINE
  5
294
330
42
100
AcDbEntity
  8
1
  6
Continuous
 62
     7
100
AcDbLine
 10
161.809397513309
 20
172.4999874009067
 30
0.0
 11
161.809397513309
 21
176.5400398772295
 31
0.0
  0
LINE
  5
295
330
42
100
AcDbEntity
  8
1
  6
Continuous
 62
     7
100
AcDbLine
 10
161.809397513309
 20
172.4999874009067
 30
0.0
 11
172.9758088909798
 21
172.4999763482366
 31
0.0
  0
LINE
  5
296
330
42
100
AcDbEntity
  8
1
  6
Continuous
 62
     7
100
AcDbLine
 10
173.6593975133091
 20
165.9999756716066
 30
0.0
 11
173.6593975133091
 21
175.9999756716066
 31
0.0
  0
LINE
  5
297
330
42
100
AcDbEntity
  8
1
  6
Continuous
 62
     7
100
AcDbLine
 10
173.6593975133091
 20
175.9999756716066
 30
0.0
 11
172.8093975133091
 21
175.9999756716066
 31
0.0
  0
LINE
  5
298
330
42
100
AcDbEntity
  8
AM_VIS
  6
Continuous
 62
     7
100
AcDbLine
 10
172.8093975133091
 20
175.9999756716066
 30
0.0
 11
172.8093975133091
 21
185.4999756716069
 31
0.0
  0
LINE
  5
299
330
42
100
AcDbEntity
  8
AM_VIS
  6
Continuous
 62
     7
100
AcDbLine
 10
1.12124704867842
 20
162.0
 30
0.0
 11
1.12124704867842
 21
165.9999756716065
 31
0.0
  0
LINE
  5
29A
330
42
100
AcDbEntity
  8
1
  6
DOT_CENTER
 62
     2
100
AcDbLine
 10
-1.81864895132158
 20
163.959093184374
 30
0.0
 11
-1.81864895132158
 21
166.5733251525486
 31
0.0
  0
LINE
  5
29B
330
42
100
AcDbEntity
  8
1
  6
DOT_CENTER
 62
     2
100
AcDbLine
 10
-11.72875295132157
 20
160.0
 30
0.0
 11
-11.72875295132157
 21
167.9999756716066
 31
0.0
  0
LINE
  5
29C
330
42
100
AcDbEntity
  8
1
  6
DOT_CENTER
 62
     2
100
AcDbLine
 10
-11.72875295132157
 20
174.5000002684885
 30
0.0
 11
-11.72875295132157
 21
163.9999756716065
 31
0.0
  0
LINE
  5
29D
330
42
100
AcDbEntity
  8
1
  6
DOT_CENTER
 62
     2
100
AcDbLine
 10
-11.72875295132157
 20
170.4999765129528
 30
0.0
 11
-11.72875295132157
 21
178.4999756716066
 31
0.0
  0
ARC
  5
29E
330
42
100
AcDbEntity
  8
1
  6
Continuous
 62
     7
100
AcDbCircle
 10
188.809397513309
 20
188.9999756716065
 30
0.0
 40
12.49999999999991
100
AcDbArc
 50
0.0
 51
48.20833315859864
  0
ARC
  5
29F
330
42
100
AcDbEntity
  8
1
  6
Continuous
 62
     7
100
AcDbCircle
 10
188.809397013309
 20
132.0000044759589
 30
0.0
 40
69.9999711956477
100
AcDbArc
 50
89.99999959074427
 51
93.6344483687028
  0
ARC
  5
2A0
330
42
100
AcDbEntity
  8
1
  6
Continuous
 62
     7
100
AcDbCircle
 10
188.809397513309
 20
188.9999756716065
 30
0.0
 40
12.49999999999998
100
AcDbArc
 50
-56.43083596317346
 51
-38.30118795830013
  0
ARC
  5
2A1
330
42
100
AcDbEntity
  8
1
  6
Continuous
 62
     7
100
AcDbCircle
 10
188.809397513309
 20
188.9999756716065
 30
0.0
 40
12.49999999999995
100
AcDbArc
 50
-38.30118795830013
 51
-16.26020470831257
  0
ARC
  5
2A2
330
42
100
AcDbEntity
  8
1
  6
Continuous
 62
     7
100
AcDbCircle
 10
188.809397513309
 20
188.9999756716065
 30
0.0
 40
12.49999999999995
100
AcDbArc
 50
-16.26020470831257
 51
0.0
  0
ARC
  5
2A3
330
42
100
AcDbEntity
  8
1
  6
Continuous
 62
     7
100
AcDbCircle
 10
188.809397513309
 20
188.9999756716065
 30
0.0
 40
12.49999999999982
100
AcDbArc
 50
-123.5691640368271
 51
-94.58856573578588
  0
ARC
  5
2A4
330
42
100
AcDbEntity
  8
1
  6
Continuous
 62
     7
100
AcDbCircle
 10
188.809397513309
 20
188.9999756716065
 30
0.0
 40
12.49999999999996
100
AcDbArc
 50
-141.6988194371465
 51
-123.5691640368271
  0
ARC
  5
2A5
330
42
100
AcDbEntity
  8
1
  6
Continuous
 62
     7
100
AcDbCircle
 10
188.809397513309
 20
188.9999756716065
 30
0.0
 40
12.49999999999997
100
AcDbArc
 50
-163.7397952916899
 51
-141.6988194371465
  0
ARC
  5
2A6
330
42
100
AcDbEntity
  8
1
  6
Continuous
 62
     7
100
AcDbCircle
 10
188.809397513309
 20
188.9999756716065
 30
0.0
 40
12.50000000000007
100
AcDbArc
 50
131.7916668414013
 51
-163.7397952916899
  0
ARC
  5
2A7
330
42
100
AcDbEntity
  8
1
  6
Continuous
 62
     7
100
AcDbCircle
 10
188.809397013309
 20
132.0000044759589
 30
0.0
 40
69.99997119564773
100
AcDbArc
 50
86.36555075479049
 51
89.99999959074427
  0
ARC
  5
2A8
330
42
100
AcDbEntity
  8
1
  6
Continuous
 62
     7
100
AcDbCircle
 10
200.6239928872851
 20
204.3908554377628
 30
0.0
 40
6.999999999999917
100
AcDbArc
 50
-153.0067442793674
 51
-119.8516759502467
  0
ARC
  5
2A9
330
42
100
AcDbEntity
  8
1
  6
Continuous
 62
     7
100
AcDbCircle
 10
176.9948021393329
 20
204.3908554377628
 30
0.0
 40
6.999999999999898
100
AcDbArc
 50
-60.14832404975326
 51
-26.99325572063269
  0
ARC
  5
2AA
330
42
100
AcDbEntity
  8
1
  6
Continuous
 62
     7
100
AcDbCircle
 10
188.809397513309
 20
188.9999756716065
 30
0.0
 40
12.49999999999989
100
AcDbArc
 50
-85.41143426421412
 51
-56.43083596317346
  0
ARC
  5
2AB
330
42
100
AcDbEntity
  8
1
  6
Continuous
 62
     7
100
AcDbCircle
 10
188.809397513309
 20
188.9999756716065
 30
0.0
 40
12.49999999999989
100
AcDbArc
 50
-94.58856573578588
 51
-85.41143426421412
  0
ARC
  5
2AC
330
42
100
AcDbEntity
  8
1
  6
Continuous
 62
     7
100
AcDbCircle
 10
160.809397513309
 20
188.9999756716065
 30
0.0
 40
12.50000000000007
100
AcDbArc
 50
131.7916668414013
 51
180.0
  0
ARC
  5
2AD
330
42
100
AcDbEntity
  8
1
  6
Continuous
 62
     7
100
AcDbCircle
 10
160.809398013309
 20
132.0000044759589
 30
0.0
 40
69.99997119564769
100
AcDbArc
 50
86.36555163129711
 51
90.00000040925573
  0
ARC
  5
2AE
330
42
100
AcDbEntity
  8
1
  6
Continuous
 62
     3
100
AcDbCircle
 10
-2.15535295132158
 20
194.5788701507633
 30
0.0
 40
2.828691520843338
100
AcDbArc
 50
15.84270966064595
 51
164.1572903393561
  0
ARC
  5
2AF
330
42
100
AcDbEntity
  8
1
  6
Continuous
 62
     3
100
AcDbCircle
 10
-2.15535295132158
 20
183.4186620573894
 30
0.0
 40
2.828032060751941
100
AcDbArc
 50
-164.2044401773411
 51
-15.79555982266092
  0
ARC
  5
2B0
330
42
100
AcDbEntity
  8
1
  6
Continuous
 62
     3
100
AcDbCircle
 10
4.16405826362724
 20
192.4159592726264
 30
0.0
 40
9.505180393600638
100
AcDbArc
 50
162.0134734104098
 51
-178.2276651707516
  0
ARC
  5
2B1
330
42
100
AcDbEntity
  8
1
  6
Continuous
 62
     3
100
AcDbCircle
 10
4.16405826362744
 20
185.5839920705868
 30
0.0
 40
9.505180393600835
100
AcDbArc
 50
178.2276651707517
 51
-162.0134734104103
  0
ARC
  5
2B2
330
42
100
AcDbEntity
  8
1
  6
Continuous
 62
     3
100
AcDbCircle
 10
-8.47470855647406
 20
192.4159642519367
 30
0.0
 40
9.50512596393225
100
AcDbArc
 50
-1.77237501055644
 51
17.98660155213786
  0
ARC
  5
2B3
330
42
100
AcDbEntity
  8
1
  6
Continuous
 62
     3
100
AcDbCircle
 10
-8.47470855647406
 20
185.5839870912766
 30
0.0
 40
9.505125963932304
100
AcDbArc
 50
-17.98660155213851
 51
1.77237501055558
  0
ARC
  5
2B4
330
42
100
AcDbEntity
  8
1
  6
Continuous
 62
     3
100
AcDbCircle
 10
-23.30384582031227
 20
189.0339537488215
 30
0.0
 40
6.999999999999961
100
AcDbArc
 50
-35.83290971213989
 51
35.80001208873754
  0
ARC
  5
2B5
330
42
100
AcDbEntity
  8
1
  6
Continuous
 62
     3
100
AcDbCircle
 10
-48.90544788962207
 20
204.703849727341
 30
0.0
 40
37.00000000000003
100
AcDbArc
 50
-43.97690659750717
 51
-32.29418010190264
  0
ARC
  5
2B6
330
42
100
AcDbEntity
  8
1
  6
Continuous
 62
     3
100
AcDbCircle
 10
-18.64660572766356
 20
202.6839276882598
 30
0.0
 40
4.999999999999912
100
AcDbArc
 50
-169.6736311270705
 51
-147.276024582785
  0
ARC
  5
2B7
330
42
100
AcDbEntity
  8
1
  6
Continuous
 62
     3
100
AcDbCircle
 10
-7.58899049825006
 20
209.5208362212081
 30
0.0
 40
17.99999999999999
100
AcDbArc
 50
-147.9950310843467
 51
-137.367096007602
  0
ARC
  5
2B8
330
42
100
AcDbEntity
  8
1
  6
Continuous
 62
     3
100
AcDbCircle
 10
-47.76413722741397
 20
131.0903234107718
 30
0.0
 40
66.10169938058932
100
AcDbArc
 50
43.39045719333743
 51
51.25947665728774
  0
ARC
  5
2B9
330
42
100
AcDbEntity
  8
1
  6
Continuous
 62
     3
100
AcDbCircle
 10
-11.72875245132157
 20
182.8209326128737
 30
0.0
 40
3.000000000000066
100
AcDbArc
 50
43.11406702827503
 51
136.8859329717249
  0
ARC
  5
2BA
330
42
100
AcDbEntity
  8
1
  6
Continuous
 62
     3
100
AcDbCircle
 10
24.15681438728783
 20
131.1006275640453
 30
0.0
 40
66.00000000000007
100
AcDbArc
 50
127.3361739419134
 51
130.4244494423626
  0
ARC
  5
2BB
330
42
100
AcDbEntity
  8
1
  6
Continuous
 62
     3
100
AcDbCircle
 10
24.15681438728783
 20
131.1006275640453
 30
0.0
 40
66.0000000000001
100
AcDbArc
 50
133.4534643289624
 51
136.5383494675059
  0
ARC
  5
2BC
330
42
100
AcDbEntity
  8
1
  6
Continuous
 62
     3
100
AcDbCircle
 10
-47.61432028993086
 20
131.1006275640453
 30
0.0
 40
66.00000000000004
100
AcDbArc
 50
51.35532310571575
 51
52.66382605808664
  0
ARC
  5
2BD
330
42
100
AcDbEntity
  8
1
  6
Continuous
 62
     3
100
AcDbCircle
 10
24.15681438728783
 20
131.1006275640453
 30
0.0
 40
66.0000000000001
100
AcDbArc
 50
130.4244494423626
 51
133.4534643289624
  0
ARC
  5
2BE
330
42
100
AcDbEntity
  8
1
  6
Continuous
 62
     7
100
AcDbCircle
 10
160.809397513309
 20
188.9999756716065
 30
0.0
 40
12.49999999999993
100
AcDbArc
 50
-141.6988120416998
 51
-123.5691640368265
  0
ARC
  5
2BF
330
42
100
AcDbEntity
  8
1
  6
Continuous
 62
     7
100
AcDbCircle
 10
160.809397513309
 20
188.9999756716065
 30
0.0
 40
12.49999999999992
100
AcDbArc
 50
-163.7397952916874
 51
-141.6988120416998
  0
ARC
  5
2C0
330
42
100
AcDbEntity
  8
1
  6
Continuous
 62
     7
100
AcDbCircle
 10
160.809397513309
 20
188.9999756716065
 30
0.0
 40
12.49999999999989
100
AcDbArc
 50
180.0
 51
-163.7397952916874
  0
ARC
  5
2C1
330
42
100
AcDbEntity
  8
1
  6
Continuous
 62
     7
100
AcDbCircle
 10
160.809397513309
 20
188.9999756716065
 30
0.0
 40
12.49999999999989
100
AcDbArc
 50
-85.41143426421412
 51
-56.43083596317295
  0
ARC
  5
2C2
330
42
100
AcDbEntity
  8
1
  6
Continuous
 62
     7
100
AcDbCircle
 10
160.809397513309
 20
188.9999756716065
 30
0.0
 40
12.49999999999982
100
AcDbArc
 50
-56.43083596317295
 51
-38.30118056285354
  0
ARC
  5
2C3
330
42
100
AcDbEntity
  8
1
  6
Continuous
 62
     7
100
AcDbCircle
 10
160.809397513309
 20
188.9999756716065
 30
0.0
 40
12.49999999999996
100
AcDbArc
 50
-38.30118056285354
 51
-16.26020470831006
  0
ARC
  5
2C4
330
42
100
AcDbEntity
  8
1
  6
Continuous
 62
     7
100
AcDbCircle
 10
160.809397513309
 20
188.9999756716065
 30
0.0
 40
12.5
100
AcDbArc
 50
-16.26020470831006
 51
48.20833315859864
  0
ARC
  5
2C5
330
42
100
AcDbEntity
  8
1
  6
Continuous
 62
     7
100
AcDbCircle
 10
160.809398013309
 20
132.0000044759589
 30
0.0
 40
69.9999711956477
100
AcDbArc
 50
90.00000040925573
 51
93.63444924520952
  0
ARC
  5
2C6
330
42
100
AcDbEntity
  8
1
  6
Continuous
 62
     7
100
AcDbCircle
 10
148.9948021393329
 20
204.3908554377628
 30
0.0
 40
6.999999999999898
100
AcDbArc
 50
-60.14832404975326
 51
-26.99325572063269
  0
ARC
  5
2C7
330
42
100
AcDbEntity
  8
1
  6
Continuous
 62
     7
100
AcDbCircle
 10
172.6239928872851
 20
204.3908554377628
 30
0.0
 40
6.999999999999917
100
AcDbArc
 50
-153.0067442793674
 51
-119.8516759502467
  0
ARC
  5
2C8
330
42
100
AcDbEntity
  8
1
  6
Continuous
 62
     7
100
AcDbCircle
 10
160.809397513309
 20
188.9999756716065
 30
0.0
 40
12.49999999999998
100
AcDbArc
 50
-123.5691640368265
 51
-94.58856573578588
  0
ARC
  5
2C9
330
42
100
AcDbEntity
  8
1
  6
Continuous
 62
     7
100
AcDbCircle
 10
160.809397513309
 20
188.9999756716065
 30
0.0
 40
12.49999999999989
100
AcDbArc
 50
-94.58856573578588
 51
-85.41143426421412
  0
XLINE
  5
2CA
330
42
100
AcDbEntity
  8
1
  6
DOT_CENTER
 62
     3
 60
     1
100
AcDbXline
 10
1.12124704867842
 20
172.4999765129528
 30
0.0
 11
0.0
 21
1.0
 31
0.0
  0
ARC
  5
2CB
330
42
100
AcDbEntity
  8
1
  6
Continuous
 62
     7
100
AcDbCircle
 10
184.46714553436
 20
200.3622082577133
 30
0.0
 40
1.500000000000075
100
AcDbArc
 50
93.63444836870053
 51
145.4147437870386
  0
ARC
  5
2CC
330
42
100
AcDbEntity
  8
1
  6
Continuous
 62
     7
100
AcDbCircle
 10
193.151649538058
 20
200.3622081912859
 30
0.0
 40
1.500000000000048
100
AcDbArc
 50
34.58525929494117
 51
86.36555075478971
  0
ARC
  5
2CD
330
42
100
AcDbEntity
  8
1
  6
Continuous
 62
     7
100
AcDbCircle
 10
-17.64054295132156
 20
174.9999756716065
 30
0.0
 40
1.0
100
AcDbArc
 50
90.0
 51
180.0
  0
ARC
  5
2CE
330
42
100
AcDbEntity
  8
1
  6
Continuous
 62
     7
100
AcDbCircle
 10
-17.64054295132156
 20
174.9999756716065
 30
0.0
 40
1.0
100
AcDbArc
 50
0.0
 51
90.0
  0
ARC
  5
2CF
330
42
100
AcDbEntity
  8
1
  6
Continuous
 62
     7
100
AcDbCircle
 10
165.151649492258
 20
200.3622082577133
 30
0.0
 40
1.500000000000071
100
AcDbArc
 50
34.58525621296137
 51
86.36555163129515
  0
ARC
  5
2D0
330
42
100
AcDbEntity
  8
1
  6
Continuous
 62
     7
100
AcDbCircle
 10
156.46714548856
 20
200.3622081912859
 30
0.0
 40
1.500000000000074
100
AcDbArc
 50
93.63444924521029
 51
145.4147407050588
  0
ENDBLK
  5
45
330
42
100
AcDbEntity
  8
0
100
AcDbBlockEnd
  0
BLOCK
  5
47
330
46
100
AcDbEntity
  8
0
100
AcDbBlockBegin
  2
Flanschlagerschild
 70
     0
 71
     0
 10
87.99605084426703
 20
285.539584626464
 30
0.0
  3
Flanschlagerschild
  1

  0
POINT
  5
2D1
330
46
100
AcDbEntity
  8
1
 62
     3
 60
     1
100
AcDbPoint
 10
219.809397513309
 20
77.31373033403108
 30
0.0
  0
POINT
  5
2D2
330
46
100
AcDbEntity
  8
1
 62
     3
 60
     1
100
AcDbPoint
 10
219.809397513309
 20
156.6862696659688
 30
0.0
  0
POINT
  5
2D3
330
46
100
AcDbEntity
  8
1
 62
     3
 60
     1
100
AcDbPoint
 10
174.809397513309
 20
116.9999999999999
 30
0.0
  0
POINT
  5
2D4
330
46
100
AcDbEntity
  8
1
 62
     3
 60
     1
100
AcDbPoint
 10
139.4540584539816
 20
81.64466094067271
 30
0.0
  0
POINT
  5
2D5
330
46
100
AcDbEntity
  8
1
 62
     3
 60
     1
100
AcDbPoint
 10
210.1647365726363
 20
81.64466094067255
 30
0.0
  0
LINE
  5
2D6
330
46
100
AcDbEntity
  8
1
  6
Continuous
 62
     7
100
AcDbLine
 10
129.809397513309
 20
156.58084471202
 30
0.0
 11
129.809397513309
 21
156.6862696659688
 31
0.0
  0
LINE
  5
2D7
330
46
100
AcDbEntity
  8
1
  6
Continuous
 62
     7
100
AcDbLine
 10
138.4921176768561
 20
162.0
 30
0.0
 11
135.1231278473403
 21
162.0
 31
0.0
  0
LINE
  5
2D8
330
46
100
AcDbEntity
  8
1
  6
Continuous
 62
     7
100
AcDbLine
 10
129.809397513309
 20
153.3172798364529
 30
0.0
 11
129.809397513309
 21
156.58084471202
 31
0.0
  0
LINE
  5
2D9
330
46
100
AcDbEntity
  8
1
  6
Continuous
 62
     7
100
AcDbLine
 10
138.4921176768561
 20
72.0
 30
0.0
 11
135.1231278473401
 21
72.0
 31
0.0
  0
LINE
  5
2DA
330
46
100
AcDbEntity
  8
1
  6
Continuous
 62
     7
100
AcDbLine
 10
129.809397513309
 20
80.68272016354715
 30
0.0
 11
129.809397513309
 21
77.31373033403108
 31
0.0
  0
LINE
  5
2DB
330
46
100
AcDbEntity
  8
1
  6
Continuous
 62
     7
100
AcDbLine
 10
219.809397513309
 20
80.68272016354713
 30
0.0
 11
219.809397513309
 21
77.31373033403108
 31
0.0
  0
LINE
  5
2DC
330
46
100
AcDbEntity
  8
1
  6
Continuous
 62
     7
100
AcDbLine
 10
211.1266773497618
 20
72.0
 30
0.0
 11
214.495667179278
 21
72.0
 31
0.0
  0
LINE
  5
2DD
330
46
100
AcDbEntity
  8
1
  6
Continuous
 62
     7
100
AcDbLine
 10
219.809397513309
 20
153.3172798364529
 30
0.0
 11
219.809397513309
 21
156.6862696659688
 31
0.0
  0
LINE
  5
2DE
330
46
100
AcDbEntity
  8
1
  6
Continuous
 62
     7
100
AcDbLine
 10
211.1266773497619
 20
162.0
 30
0.0
 11
214.4956671792778
 21
162.0
 31
0.0
  0
LINE
  5
2DF
330
46
100
AcDbEntity
  8
1
  6
Continuous
 62
     7
100
AcDbLine
 10
-144.0
 20
152.3172798364529
 30
0.0
 11
-144.0
 21
136.3371802441213
 31
0.0
  0
LINE
  5
2E0
330
46
100
AcDbEntity
  8
1
  6
Continuous
 62
     7
100
AcDbLine
 10
-144.0
 20
77.0
 30
0.0
 11
-144.0
 21
77.3
 31
0.0
  0
LINE
  5
2E1
330
46
100
AcDbEntity
  8
1
  6
Continuous
 62
     7
100
AcDbLine
 10
-144.0
 20
157.0
 30
0.0
 11
-144.0
 21
156.7
 31
0.0
  0
LINE
  5
2E2
330
46
100
AcDbEntity
  8
1
  6
Continuous
 62
     7
100
AcDbLine
 10
-147.0
 20
136.2647115101813
 30
0.0
 11
-147.0
 21
126.5
 31
0.0
  0
LINE
  5
2E3
330
46
100
AcDbEntity
  8
1
  6
Continuous
 62
     7
100
AcDbLine
 10
-147.0
 20
117.0
 30
0.0
 11
-147.0
 21
77.0
 31
0.0
  0
LINE
  5
2E4
330
46
100
AcDbEntity
  8
1
  6
DOT_CENTER
 62
     2
100
AcDbLine
 10
189.809397513309
 20
117.0
 30
0.0
 11
214.809397513309
 21
117.0
 31
0.0
  0
LINE
  5
2E5
330
46
100
AcDbEntity
  8
1
  6
DOT_CENTER
 62
     2
100
AcDbLine
 10
220.809397513309
 20
117.0
 30
0.0
 11
214.809397513309
 21
117.0
 31
0.0
  0
LINE
  5
2E6
330
46
100
AcDbEntity
  8
1
  6
Continuous
 62
     7
100
AcDbLine
 10
211.1266773497618
 20
72.0
 30
0.0
 11
138.4921176768561
 21
72.0
 31
0.0
  0
LINE
  5
2E7
330
46
100
AcDbEntity
  8
1
  6
Continuous
 62
     7
100
AcDbLine
 10
219.809397513309
 20
117.0
 30
0.0
 11
219.809397513309
 21
80.68272016354713
 31
0.0
  0
LINE
  5
2E8
330
46
100
AcDbEntity
  8
1
  6
DOT_CENTER
 62
     2
100
AcDbLine
 10
198.0839011177099
 20
93.72549639559901
 30
0.0
 11
218.7549464098515
 21
73.05445110345738
 31
0.0
  0
LINE
  5
2E9
330
46
100
AcDbEntity
  8
1
  6
Continuous
 62
     7
100
AcDbLine
 10
129.809397513309
 20
80.68272016354715
 30
0.0
 11
129.809397513309
 21
153.3172798364529
 31
0.0
  0
LINE
  5
2EA
330
46
100
AcDbEntity
  8
1
  6
DOT_CENTER
 62
     2
100
AcDbLine
 10
151.534893908908
 20
93.7254963955991
 30
0.0
 11
130.8638486167664
 21
73.0544511034575
 31
0.0
  0
LINE
  5
2EB
330
46
100
AcDbEntity
  8
1
  6
DOT_CENTER
 62
     2
100
AcDbLine
 10
174.809397513309
 20
156.9999999999999
 30
0.0
 11
174.809397513309
 21
164.4045160408031
 31
0.0
  0
LINE
  5
2EC
330
46
100
AcDbEntity
  8
1
  6
Continuous
 62
     7
100
AcDbLine
 10
138.4921176768561
 20
162.0
 30
0.0
 11
174.809397513309
 21
162.0
 31
0.0
  0
LINE
  5
2ED
330
46
100
AcDbEntity
  8
1
  6
DOT_CENTER
 62
     2
100
AcDbLine
 10
151.5348939089081
 20
140.274503604401
 30
0.0
 11
139.4540584539817
 21
152.3553390593274
 31
0.0
  0
LINE
  5
2EE
330
46
100
AcDbEntity
  8
1
  6
DOT_CENTER
 62
     2
100
AcDbLine
 10
220.809397513309
 20
117.0
 30
0.0
 11
224.7938675471421
 21
116.9999999999999
 31
0.0
  0
LINE
  5
2EF
330
46
100
AcDbEntity
  8
1
  6
DOT_CENTER
 62
     2
100
AcDbLine
 10
174.809397513309
 20
162.000023651759
 30
0.0
 11
174.809397513309
 21
59.46219163271499
 31
0.0
  0
LINE
  5
2F0
330
46
100
AcDbEntity
  8
1
  6
DOT_CENTER
 62
     2
100
AcDbLine
 10
117.296291491659
 20
117.0
 30
0.0
 11
189.809397513309
 21
117.0
 31
0.0
  0
LINE
  5
2F1
330
46
100
AcDbEntity
  8
1
  6
Continuous
 62
     7
100
AcDbLine
 10
219.809397513309
 20
153.3172798364529
 30
0.0
 11
219.809397513309
 21
117.0
 31
0.0
  0
LINE
  5
2F2
330
46
100
AcDbEntity
  8
1
  6
Continuous
 62
     7
100
AcDbLine
 10
174.809397513309
 20
162.0
 30
0.0
 11
211.1266773497619
 21
162.0
 31
0.0
  0
LINE
  5
2F3
330
46
100
AcDbEntity
  8
1
  6
DOT_CENTER
 62
     2
100
AcDbLine
 10
198.08390111771
 20
140.2745036044009
 30
0.0
 11
218.7549464098516
 21
160.9455488965425
 31
0.0
  0
LINE
  5
2F4
330
46
100
AcDbEntity
  8
1
  6
Continuous
 62
     7
100
AcDbLine
 10
-144.0
 20
157.0
 30
0.0
 11
-147.0
 21
157.0
 31
0.0
  0
LINE
  5
2F5
330
46
100
AcDbEntity
  8
1
  6
Continuous
 62
     7
100
AcDbLine
 10
-147.0
 20
157.0
 30
0.0
 11
-147.0
 21
136.2647115101813
 31
0.0
  0
LINE
  5
2F6
330
46
100
AcDbEntity
  8
1
  6
Continuous
 62
     7
100
AcDbLine
 10
-144.0
 20
162.0
 30
0.0
 11
-135.0
 21
162.0
 31
0.0
  0
LINE
  5
2F7
330
46
100
AcDbEntity
  8
1
  6
Continuous
 62
     7
100
AcDbLine
 10
-144.0
 20
162.0
 30
0.0
 11
-144.0
 21
157.0
 31
0.0
  0
LINE
  5
2F8
330
46
100
AcDbEntity
  8
1
  6
Continuous
 62
     7
100
AcDbLine
 10
-147.0
 20
77.0
 30
0.0
 11
-144.0
 21
77.0
 31
0.0
  0
LINE
  5
2F9
330
46
100
AcDbEntity
  8
1
  6
Continuous
 62
     7
100
AcDbLine
 10
-144.0
 20
77.0
 30
0.0
 11
-144.0
 21
72.00000000000003
 31
0.0
  0
LINE
  5
2FA
330
46
100
AcDbEntity
  8
1
  6
Continuous
 62
     7
100
AcDbLine
 10
-135.0
 20
72.0
 30
0.0
 11
-144.0
 21
72.00000000000003
 31
0.0
  0
LINE
  5
2FB
330
46
100
AcDbEntity
  8
1
  6
DOT_CENTER
 62
     2
100
AcDbLine
 10
224.7938675471421
 20
116.9999999999999
 30
0.0
 11
229.5333733581463
 21
117.0
 31
0.0
  0
LINE
  5
2FC
330
46
100
AcDbEntity
  8
1
  6
DOT_CENTER
 62
     2
100
AcDbLine
 10
139.4540584539817
 20
152.3553390593274
 30
0.0
 11
130.8638486167665
 21
160.9455488965426
 31
0.0
  0
LINE
  5
2FD
102
{ACAD_REACTORS
330
356
330
356
102
}
330
46
100
AcDbEntity
  8
1
  6
Continuous
 62
     7
100
AcDbLine
 10
-141.8
 20
132.0
 30
0.0
 11
-138.839072280528
 21
132.0
 31
0.0
  0
LINE
  5
2FE
102
{ACAD_REACTORS
330
356
330
356
102
}
330
46
100
AcDbEntity
  8
1
  6
Continuous
 62
     7
100
AcDbLine
 10
-143.0
 20
132.2115923768502
 30
0.0
 11
-141.8
 21
132.0
 31
0.0
  0
LINE
  5
2FF
102
{ACAD_REACTORS
330
356
330
356
102
}
330
46
100
AcDbEntity
  8
1
  6
Continuous
 62
     7
100
AcDbLine
 10
-143.0
 20
132.2115923768502
 30
0.0
 11
-143.0
 21
136.0885337432078
 31
0.0
  0
LINE
  5
300
330
46
100
AcDbEntity
  8
1
  6
Continuous
 62
     7
100
AcDbLine
 10
-135.0
 20
162.0
 30
0.0
 11
-130.0
 21
162.0
 31
0.0
  0
LINE
  5
301
330
46
100
AcDbEntity
  8
1
  6
Continuous
 62
     7
100
AcDbLine
 10
-130.0
 20
162.0
 30
0.0
 11
-130.0
 21
159.7
 31
0.0
  0
LINE
  5
302
330
46
100
AcDbEntity
  8
1
  6
Continuous
 62
     7
100
AcDbLine
 10
-130.0
 20
145.0
 30
0.0
 11
-113.0
 21
145.0
 31
0.0
  0
LINE
  5
303
330
46
100
AcDbEntity
  8
1
  6
Continuous
 62
     7
100
AcDbLine
 10
-113.0
 20
145.0
 30
0.0
 11
-113.0
 21
89.0
 31
0.0
  0
LINE
  5
304
330
46
100
AcDbEntity
  8
1
  6
Continuous
 62
     7
100
AcDbLine
 10
-113.0
 20
89.0
 30
0.0
 11
-130.0
 21
89.0
 31
0.0
  0
LINE
  5
305
330
46
100
AcDbEntity
  8
1
  6
Continuous
 62
     7
100
AcDbLine
 10
-130.0
 20
89.0
 30
0.0
 11
-130.0
 21
87.75
 31
0.0
  0
LINE
  5
306
330
46
100
AcDbEntity
  8
1
  6
Continuous
 62
     7
100
AcDbLine
 10
-130.0
 20
72.0
 30
0.0
 11
-135.0
 21
72.0
 31
0.0
  0
LINE
  5
307
330
46
100
AcDbEntity
  8
1
  6
Continuous
 62
     7
100
AcDbLine
 10
-130.0
 20
89.0
 30
0.0
 11
-130.0
 21
145.0
 31
0.0
  0
LINE
  5
308
330
46
100
AcDbEntity
  8
1
  6
Continuous
 62
     7
100
AcDbLine
 10
-130.0
 20
162.0
 30
0.0
 11
-110.0
 21
162.0
 31
0.0
  0
LINE
  5
309
330
46
100
AcDbEntity
  8
1
  6
Continuous
 62
     7
100
AcDbLine
 10
-130.0
 20
72.0
 30
0.0
 11
-110.0
 21
72.0
 31
0.0
  0
LINE
  5
30A
330
46
100
AcDbEntity
  8
1
  6
Continuous
 62
     7
100
AcDbLine
 10
-130.0
 20
153.7
 30
0.0
 11
-26.99999999999997
 21
153.7
 31
0.0
  0
LINE
  5
30B
330
46
100
AcDbEntity
  8
1
  6
Continuous
 62
     7
100
AcDbLine
 10
-130.0
 20
153.7
 30
0.0
 11
-130.0
 21
146.25
 31
0.0
  0
LINE
  5
30C
330
46
100
AcDbEntity
  8
1
  6
Continuous
 62
     7
100
AcDbLine
 10
-130.0
 20
80.3
 30
0.0
 11
-26.99999999999997
 21
80.3
 31
0.0
  0
LINE
  5
30D
330
46
100
AcDbEntity
  8
1
  6
Continuous
 62
     7
100
AcDbLine
 10
-130.0
 20
80.3
 30
0.0
 11
-130.0
 21
77.3
 31
0.0
  0
LINE
  5
30E
330
46
100
AcDbEntity
  8
1
  6
Continuous
 62
     7
100
AcDbLine
 10
-144.0
 20
156.7
 30
0.0
 11
-130.0
 21
156.7
 31
0.0
  0
LINE
  5
30F
330
46
100
AcDbEntity
  8
1
  6
Continuous
 62
     7
100
AcDbLine
 10
-144.0
 20
156.7
 30
0.0
 11
-144.0
 21
152.3172798364529
 31
0.0
  0
LINE
  5
310
330
46
100
AcDbEntity
  8
1
  6
Continuous
 62
     7
100
AcDbLine
 10
-130.0
 20
156.7
 30
0.0
 11
-130.0
 21
153.7
 31
0.0
  0
LINE
  5
311
330
46
100
AcDbEntity
  8
1
  6
Continuous
 62
     7
100
AcDbLine
 10
-144.0
 20
77.3
 30
0.0
 11
-130.0
 21
77.3
 31
0.0
  0
LINE
  5
312
330
46
100
AcDbEntity
  8
1
  6
Continuous
 62
     7
100
AcDbLine
 10
-144.0
 20
77.3
 30
0.0
 11
-144.0
 21
117.0
 31
0.0
  0
LINE
  5
313
330
46
100
AcDbEntity
  8
1
  6
Continuous
 62
     7
100
AcDbLine
 10
-130.0
 20
77.3
 30
0.0
 11
-130.0
 21
74.3
 31
0.0
  0
LINE
  5
314
330
46
100
AcDbEntity
  8
1
  6
Continuous
 62
     7
100
AcDbLine
 10
-113.0
 20
145.0
 30
0.0
 11
-110.0
 21
145.0
 31
0.0
  0
LINE
  5
315
330
46
100
AcDbEntity
  8
1
  6
Continuous
 62
     7
100
AcDbLine
 10
-113.0
 20
89.0
 30
0.0
 11
-110.0
 21
89.0
 31
0.0
  0
LINE
  5
316
330
46
100
AcDbEntity
  8
1
  6
Continuous
 62
     7
100
AcDbLine
 10
-130.0
 20
87.75
 30
0.0
 11
-110.0
 21
87.75
 31
0.0
  0
LINE
  5
317
330
46
100
AcDbEntity
  8
1
  6
Continuous
 62
     7
100
AcDbLine
 10
-130.0
 20
87.75
 30
0.0
 11
-130.0
 21
80.3
 31
0.0
  0
LINE
  5
318
330
46
100
AcDbEntity
  8
1
  6
Continuous
 62
     7
100
AcDbLine
 10
-130.0
 20
146.25
 30
0.0
 11
-110.0
 21
146.25
 31
0.0
  0
LINE
  5
319
330
46
100
AcDbEntity
  8
1
  6
Continuous
 62
     7
100
AcDbLine
 10
-130.0
 20
146.25
 30
0.0
 11
-130.0
 21
145.0
 31
0.0
  0
LINE
  5
31A
330
46
100
AcDbEntity
  8
1
  6
Continuous
 62
     7
100
AcDbLine
 10
-130.0
 20
74.3
 30
0.0
 11
-26.99999999999997
 21
74.3
 31
0.0
  0
LINE
  5
31B
330
46
100
AcDbEntity
  8
1
  6
Continuous
 62
     7
100
AcDbLine
 10
-130.0
 20
74.3
 30
0.0
 11
-130.0
 21
72.0
 31
0.0
  0
LINE
  5
31C
330
46
100
AcDbEntity
  8
1
  6
Continuous
 62
     7
100
AcDbLine
 10
-26.99999999999997
 20
159.7
 30
0.0
 11
-130.0
 21
159.7
 31
0.0
  0
LINE
  5
31D
330
46
100
AcDbEntity
  8
1
  6
Continuous
 62
     7
100
AcDbLine
 10
-130.0
 20
159.7
 30
0.0
 11
-130.0
 21
156.7
 31
0.0
  0
LINE
  5
31E
330
46
100
AcDbEntity
  8
1
  6
Continuous
 62
     7
100
AcDbLine
 10
-110.0
 20
146.25
 30
0.0
 11
-110.0
 21
162.0
 31
0.0
  0
LINE
  5
31F
330
46
100
AcDbEntity
  8
1
  6
Continuous
 62
     7
100
AcDbLine
 10
-110.0
 20
162.0
 30
0.0
 11
-26.99999999999997
 21
162.0
 31
0.0
  0
LINE
  5
320
330
46
100
AcDbEntity
  8
1
  6
Continuous
 62
     7
100
AcDbLine
 10
-110.0
 20
146.25
 30
0.0
 11
-26.99999999999997
 21
146.25
 31
0.0
  0
LINE
  5
321
330
46
100
AcDbEntity
  8
1
  6
Continuous
 62
     7
100
AcDbLine
 10
-110.0
 20
72.0
 30
0.0
 11
-110.0
 21
87.75
 31
0.0
  0
LINE
  5
322
330
46
100
AcDbEntity
  8
1
  6
Continuous
 62
     7
100
AcDbLine
 10
-110.0
 20
72.0
 30
0.0
 11
-26.99999999999997
 21
72.0
 31
0.0
  0
LINE
  5
323
330
46
100
AcDbEntity
  8
1
  6
Continuous
 62
     7
100
AcDbLine
 10
-110.0
 20
87.75
 30
0.0
 11
-26.99999999999997
 21
87.75
 31
0.0
  0
LINE
  5
324
330
46
100
AcDbEntity
  8
1
  6
Continuous
 62
     7
100
AcDbLine
 10
-110.0
 20
145.0
 30
0.0
 11
-110.0
 21
146.25
 31
0.0
  0
LINE
  5
325
330
46
100
AcDbEntity
  8
1
  6
Continuous
 62
     7
100
AcDbLine
 10
-110.0
 20
145.0
 30
0.0
 11
-26.99999999999997
 21
145.0
 31
0.0
  0
LINE
  5
326
330
46
100
AcDbEntity
  8
1
  6
Continuous
 62
     7
100
AcDbLine
 10
-110.0
 20
87.75
 30
0.0
 11
-110.0
 21
89.0
 31
0.0
  0
LINE
  5
327
330
46
100
AcDbEntity
  8
1
  6
Continuous
 62
     7
100
AcDbLine
 10
-110.0
 20
89.0
 30
0.0
 11
-26.99999999999997
 21
89.0
 31
0.0
  0
LINE
  5
328
330
46
100
AcDbEntity
  8
1
  6
Continuous
 62
     7
100
AcDbLine
 10
-26.99999999999997
 20
145.0
 30
0.0
 11
-26.99999999999997
 21
146.25
 31
0.0
  0
LINE
  5
329
330
46
100
AcDbEntity
  8
1
  6
Continuous
 62
     7
100
AcDbLine
 10
-26.99999999999997
 20
162.0
 30
0.0
 11
-22.49999999999997
 21
162.0
 31
0.0
  0
LINE
  5
32A
330
46
100
AcDbEntity
  8
1
  6
Continuous
 62
     7
100
AcDbLine
 10
-26.99999999999997
 20
145.0
 30
0.0
 11
-22.49999999999997
 21
145.0
 31
0.0
  0
LINE
  5
32B
330
46
100
AcDbEntity
  8
1
  6
Continuous
 62
     7
100
AcDbLine
 10
-26.99999999999997
 20
72.0
 30
0.0
 11
-26.99999999999997
 21
87.75
 31
0.0
  0
LINE
  5
32C
330
46
100
AcDbEntity
  8
1
  6
Continuous
 62
     7
100
AcDbLine
 10
-26.99999999999997
 20
72.0
 30
0.0
 11
-22.49999999999997
 21
72.0
 31
0.0
  0
LINE
  5
32D
330
46
100
AcDbEntity
  8
1
  6
Continuous
 62
     7
100
AcDbLine
 10
-26.99999999999997
 20
87.75
 30
0.0
 11
-26.99999999999997
 21
89.0
 31
0.0
  0
LINE
  5
32E
330
46
100
AcDbEntity
  8
1
  6
Continuous
 62
     7
100
AcDbLine
 10
-26.99999999999997
 20
89.0
 30
0.0
 11
-22.49999999999997
 21
89.0
 31
0.0
  0
LINE
  5
32F
330
46
100
AcDbEntity
  8
1
  6
Continuous
 62
     7
100
AcDbLine
 10
-22.49999999999997
 20
89.0
 30
0.0
 11
-22.49999999999997
 21
145.0
 31
0.0
  0
LINE
  5
330
330
46
100
AcDbEntity
  8
1
  6
Continuous
 62
     7
100
AcDbLine
 10
15.00000000000003
 20
162.0
 30
0.0
 11
15.00000000000003
 21
153.7
 31
0.0
  0
LINE
  5
331
330
46
100
AcDbEntity
  8
1
  6
Continuous
 62
     7
100
AcDbLine
 10
12.00000000000003
 20
162.0
 30
0.0
 11
12.00000000000003
 21
72.0
 31
0.0
  0
LINE
  5
332
330
46
100
AcDbEntity
  8
1
  6
Continuous
 62
     7
100
AcDbLine
 10
12.00000000000003
 20
162.0
 30
0.0
 11
15.00000000000003
 21
162.0
 31
0.0
  0
LINE
  5
333
330
46
100
AcDbEntity
  8
1
  6
Continuous
 62
     7
100
AcDbLine
 10
12.00000000000003
 20
72.0
 30
0.0
 11
15.00000000000003
 21
72.0
 31
0.0
  0
LINE
  5
334
330
46
100
AcDbEntity
  8
1
  6
Continuous
 62
     7
100
AcDbLine
 10
-22.49999999999997
 20
153.7
 30
0.0
 11
15.00000000000003
 21
153.7
 31
0.0
  0
LINE
  5
335
330
46
100
AcDbEntity
  8
1
  6
Continuous
 62
     7
100
AcDbLine
 10
15.00000000000003
 20
153.7
 30
0.0
 11
15.00000000000003
 21
80.3
 31
0.0
  0
LINE
  5
336
330
46
100
AcDbEntity
  8
1
  6
Continuous
 62
     7
100
AcDbLine
 10
-22.49999999999997
 20
80.3
 30
0.0
 11
15.00000000000003
 21
80.3
 31
0.0
  0
LINE
  5
337
330
46
100
AcDbEntity
  8
1
  6
Continuous
 62
     7
100
AcDbLine
 10
15.00000000000003
 20
80.3
 30
0.0
 11
15.00000000000003
 21
72.0
 31
0.0
  0
LINE
  5
338
330
46
100
AcDbEntity
  8
1
  6
Continuous
 62
     7
100
AcDbLine
 10
-26.99999999999997
 20
146.25
 30
0.0
 11
-22.49999999999997
 21
153.7
 31
0.0
  0
LINE
  5
339
330
46
100
AcDbEntity
  8
1
  6
Continuous
 62
     7
100
AcDbLine
 10
-26.99999999999997
 20
146.25
 30
0.0
 11
-26.99999999999997
 21
162.0
 31
0.0
  0
LINE
  5
33A
330
46
100
AcDbEntity
  8
1
  6
Continuous
 62
     7
100
AcDbLine
 10
-22.49999999999997
 20
80.3
 30
0.0
 11
-26.99999999999997
 21
87.75
 31
0.0
  0
LINE
  5
33B
330
46
100
AcDbEntity
  8
1
  6
Continuous
 62
     7
100
AcDbLine
 10
-22.49999999999997
 20
72.0
 30
0.0
 11
-22.49999999999997
 21
80.3
 31
0.0
  0
LINE
  5
33C
330
46
100
AcDbEntity
  8
1
  6
Continuous
 62
     7
100
AcDbLine
 10
-22.49999999999997
 20
72.0
 30
0.0
 11
12.00000000000003
 21
72.0
 31
0.0
  0
LINE
  5
33D
330
46
100
AcDbEntity
  8
1
  6
Continuous
 62
     7
100
AcDbLine
 10
-22.49999999999997
 20
153.7
 30
0.0
 11
-22.49999999999997
 21
162.0
 31
0.0
  0
LINE
  5
33E
330
46
100
AcDbEntity
  8
1
  6
Continuous
 62
     7
100
AcDbLine
 10
-22.49999999999997
 20
162.0
 30
0.0
 11
12.00000000000003
 21
162.0
 31
0.0
  0
LINE
  5
33F
330
46
100
AcDbEntity
  8
1
  6
Continuous
 62
     7
100
AcDbLine
 10
-143.0
 20
129.0
 30
0.0
 11
-143.0
 21
132.2115923768502
 31
0.0
  0
ARC
  5
340
330
46
100
AcDbEntity
  8
1
  6
Continuous
 62
     7
100
AcDbCircle
 10
174.809397513309
 20
116.9999999999999
 30
0.0
 40
59.99999999999996
100
AcDbArc
 50
131.4096221092707
 51
138.5903778907291
  0
ARC
  5
341
330
46
100
AcDbEntity
  8
1
  6
Continuous
 62
     7
100
AcDbCircle
 10
174.809397513309
 20
116.9999999999999
 30
0.0
 40
59.99999999999998
100
AcDbArc
 50
-138.5903778907292
 51
-131.409622109271
  0
ARC
  5
342
330
46
100
AcDbEntity
  8
1
  6
Continuous
 62
     7
100
AcDbCircle
 10
174.809397513309
 20
116.9999999999999
 30
0.0
 40
60.00000000000002
100
AcDbArc
 50
-48.59037789072897
 51
-41.40962210927083
  0
ARC
  5
343
330
46
100
AcDbEntity
  8
1
  6
Continuous
 62
     7
100
AcDbCircle
 10
174.809397513309
 20
116.9999999999999
 30
0.0
 40
60.00000000000003
100
AcDbArc
 50
41.4096221092709
 51
48.59037789072924
  0
ARC
  5
344
330
46
100
AcDbEntity
  8
1
  6
Continuous
 62
     7
100
AcDbCircle
 10
174.809397513309
 20
116.9999999999999
 30
0.0
 40
39.99999999999999
100
AcDbArc
 50
90.0
 51
0.00000000000014
  0
ARC
  5
345
330
46
100
AcDbEntity
  8
1
  6
Continuous
 62
     7
100
AcDbCircle
 10
174.809397513309
 20
116.9999999999999
 30
0.0
 40
40.0
100
AcDbArc
 50
0.00000000000014
 51
90.0
  0
ARC
  5
346
330
46
100
AcDbEntity
  8
1
  6
Continuous
 62
     7
100
AcDbCircle
 10
174.809397513309
 20
116.9999999999999
 30
0.0
 40
22.49999999999999
100
AcDbArc
 50
163.8723109818058
 51
0.00000000000025
  0
ARC
  5
347
330
46
100
AcDbEntity
  8
1
  6
Continuous
 62
     7
100
AcDbCircle
 10
174.809397513309
 20
116.9999999999999
 30
0.0
 40
22.5
100
AcDbArc
 50
0.00000000000025
 51
163.8723109818058
  0
ARC
  5
348
330
46
100
AcDbEntity
  8
1
  6
DOT_CENTER
 62
     2
100
AcDbCircle
 10
174.809397513309
 20
116.9999999999999
 30
0.0
 40
50.00000000000007
100
AcDbArc
 50
126.6908373302655
 51
134.9999999999998
  0
ARC
  5
349
330
46
100
AcDbEntity
  8
1
  6
DOT_CENTER
 62
     2
100
AcDbCircle
 10
174.809397513309
 20
116.9999999999999
 30
0.0
 40
49.99999999999999
100
AcDbArc
 50
-53.49783796190534
 51
-36.77513487089346
  0
ARC
  5
34A
330
46
100
AcDbEntity
  8
1
  6
DOT_CENTER
 62
     2
100
AcDbCircle
 10
174.809397513309
 20
116.9999999999999
 30
0.0
 40
49.99999999999997
100
AcDbArc
 50
27.15550481443928
 51
57.60817942433052
  0
ARC
  5
34B
330
46
100
AcDbEntity
  8
1
  6
DOT_CENTER
 62
     2
100
AcDbCircle
 10
174.809397513309
 20
116.9999999999999
 30
0.0
 40
50.00000000000003
100
AcDbArc
 50
134.9999999999998
 51
142.2274426810255
  0
ARC
  5
34C
330
46
100
AcDbEntity
  8
1
  6
DOT_CENTER
 62
     2
100
AcDbCircle
 10
174.809397513309
 20
116.9999999999999
 30
0.0
 40
49.99999999999997
100
AcDbArc
 50
-153.5363129080858
 51
-124.939297254258
  0
ARC
  5
34D
330
46
100
AcDbEntity
  8
1
  6
Continuous
 62
     7
100
AcDbCircle
 10
139.4540584539816
 20
81.64466094067271
 30
0.0
 40
3.500000000000028
100
AcDbArc
 50
-90.0
 51
0.0
  0
ARC
  5
34E
330
46
100
AcDbEntity
  8
1
  6
Continuous
 62
     7
100
AcDbCircle
 10
139.4540584539816
 20
81.64466094067271
 30
0.0
 40
3.5
100
AcDbArc
 50
180.0
 51
-90.0
  0
ARC
  5
34F
330
46
100
AcDbEntity
  8
1
  6
Continuous
 62
     7
100
AcDbCircle
 10
139.4540584539816
 20
81.64466094067271
 30
0.0
 40
3.5
100
AcDbArc
 50
0.0
 51
180.0
  0
CIRCLE
  5
350
330
46
100
AcDbEntity
  8
1
  6
Continuous
 62
     7
100
AcDbCircle
 10
174.809397513309
 20
116.9999999999999
 30
0.0
 40
15.0
  0
CIRCLE
  5
351
330
46
100
AcDbEntity
  8
1
  6
Continuous
 62
     7
100
AcDbCircle
 10
174.809397513309
 20
116.9999999999999
 30
0.0
 40
36.5
  0
CIRCLE
  5
352
330
46
100
AcDbEntity
  8
1
  6
Continuous
 62
     7
100
AcDbCircle
 10
210.1647365726363
 20
81.64466094067255
 30
0.0
 40
3.5
  0
CIRCLE
  5
353
330
46
100
AcDbEntity
  8
1
  6
Continuous
 62
     7
100
AcDbCircle
 10
210.1647365726364
 20
152.3553390593273
 30
0.0
 40
3.5
  0
CIRCLE
  5
354
330
46
100
AcDbEntity
  8
1
  6
Continuous
 62
     7
100
AcDbCircle
 10
139.4540584539817
 20
152.3553390593274
 30
0.0
 40
3.5
  0
SPLINE
  5
355
102
{ACAD_REACTORS
330
356
330
356
102
}
330
46
100
AcDbEntity
  8
1
  6
Continuous
 62
     2
100
AcDbSpline
210
0.0
220
0.0
230
1.0
 70
     8
 71
     3
 72
    13
 73
     9
 74
     7
 42
0.0000000001
 43
0.0000000001
 44
0.00000001
 40
0.0
 40
0.0
 40
0.0
 40
0.0
 40
0.80940660090578
 40
1.634219644437915
 40
3.224277766286495
 40
4.722882396477806
 40
5.449250178145959
 40
6.194942016658756
 40
6.194942016658756
 40
6.194942016658756
 40
6.194942016658756
 10
-143.0
 20
136.0885337432078
 30
0.0
 10
-142.7450640229027
 20
135.9995413409796
 30
0.0
 10
-142.2303395551505
 20
135.8198626334372
 30
0.0
 10
-141.2628560081045
 20
135.347565227647
 30
0.0
 10
-140.1562447599911
 20
134.6466379304222
 30
0.0
 10
-139.2840966209839
 20
133.6726948815615
 30
0.0
 10
-138.9284585796414
 20
132.7356993598143
 30
0.0
 10
-138.8691273317658
 20
132.2473699232897
 30
0.0
 10
-138.839072280528
 20
132.0
 30
0.0
 11
-143.0
 21
136.0885337432078
 31
0.0
 11
-142.2411670715321
 21
135.8069105334705
 31
0.0
 11
-141.4973487392944
 21
135.4504686091577
 31
0.0
 11
-140.1747190328257
 21
134.5678953881595
 31
0.0
 11
-139.2174686164282
 21
133.4148613565986
 31
0.0
 11
-138.9592344571227
 21
132.7359465804939
 31
0.0
 11
-138.839072280528
 21
132.0
 31
0.0
  0
HATCH
  5
356
330
46
100
AcDbEntity
  8
1
  6
Continuous
 62
     2
100
AcDbHatch
 10
0.0
 20
0.0
 30
0.0
210
0.0
220
0.0
230
1.0
  2
_USER
 70
     0
 71
     1
 91
        1
 92
        1
 93
        4
 72
     1
 10
-141.8
 20
132.0
 11
-143.0
 21
132.2115923768502
 72
     1
 10
-143.0
 20
132.2115923768502
 11
-143.0
 21
136.0885337432078
 72
     4
 94
        3
 73
     0
 74
     0
 95
       13
 96
        9
 40
0.0
 40
0.0
 40
0.0
 40
0.0
 40
0.80940660090578
 40
1.634219644437915
 40
3.224277766286495
 40
4.722882396477806
 40
5.449250178145959
 40
6.194942016658756
 40
6.194942016658756
 40
6.194942016658756
 40
6.194942016658756
 10
-143.0
 20
136.0885337432078
 10
-142.7450640229027
 20
135.9995413409796
 10
-142.2303395551505
 20
135.8198626334372
 10
-141.2628560081045
 20
135.347565227647
 10
-140.1562447599911
 20
134.6466379304222
 10
-139.2840966209839
 20
133.6726948815615
 10
-138.9284585796414
 20
132.7356993598143
 10
-138.8691273317658
 20
132.2473699232897
 10
-138.839072280528
 20
132.0
 72
     1
 10
-138.839072280528
 20
132.0
 11
-141.8
 21
132.0
 97
        4
330
355
330
2FF
330
2FE
330
2FD
 75
     1
 76
     0
 52
45.0
 41
1.0
 77
     0
 78
     1
 53
45.0
 43
0.0
 44
0.0
 45
-0.7071067811865475
 46
0.7071067811865476
 79
     0
 98
        1
 10
0.0
 20
0.0
  0
ENDBLK
  5
48
330
46
100
AcDbEntity
  8
0
100
AcDbBlockEnd
  0
BLOCK
  5
4A
330
49
100
AcDbEntity
  8
0
100
AcDbBlockBegin
  2
Rotor
 70
     0
 71
     0
 10
65.86845643824543
 20
237.602005350644
 30
0.0
  3
Rotor
  1

  0
POINT
  5
357
330
49
100
AcDbEntity
  8
1
 62
     3
 60
     1
100
AcDbPoint
 10
-136.8917714560187
 20
-10.0
 30
0.0
  0
POINT
  5
358
330
49
100
AcDbEntity
  8
1
 62
     3
 60
     1
100
AcDbPoint
 10
-136.8917714560187
 20
2.0
 30
0.0
  0
POINT
  5
359
330
49
100
AcDbEntity
  8
1
 62
     3
 60
     1
100
AcDbPoint
 10
-136.8917714560187
 20
14.0
 30
0.0
  0
POINT
  5
35A
330
49
100
AcDbEntity
  8
1
 62
     3
 60
     1
100
AcDbPoint
 10
-106.190602486691
 20
1.99999999999991
 30
0.0
  0
POINT
  5
35B
330
49
100
AcDbEntity
  8
1
 62
     3
 60
     1
100
AcDbPoint
 10
-145.5668524125716
 20
117.0
 30
0.0
  0
LINE
  5
35C
330
49
100
AcDbEntity
  8
1
  6
Continuous
 62
     7
100
AcDbLine
 10
-136.8917714560187
 20
-10.0
 30
0.0
 11
-142.0
 21
-10.0
 31
0.0
  0
LINE
  5
35D
330
49
100
AcDbEntity
  8
1
  6
Continuous
 62
     7
100
AcDbLine
 10
-142.0
 20
-2.50000000000001
 30
0.0
 11
-142.0
 21
-10.0
 31
0.0
  0
LINE
  5
35E
330
49
100
AcDbEntity
  8
1
  6
Continuous
 62
     7
100
AcDbLine
 10
-143.0592682719357
 20
-7.38281496760739
 30
0.0
 11
-143.5668524125716
 21
-7.5
 31
0.0
  0
LINE
  5
35F
330
49
100
AcDbEntity
  8
1
  6
Continuous
 62
     7
100
AcDbLine
 10
-142.5
 20
-7.37
 30
0.0
 11
-142.9467927447638
 21
-7.37
 31
0.0
  0
LINE
  5
360
330
49
100
AcDbEntity
  8
1
  6
Continuous
 62
     2
100
AcDbLine
 10
-143.5668524125716
 20
-0.50000000000001
 30
0.0
 11
-143.5668524125716
 21
-7.5
 31
0.0
  0
LINE
  5
361
330
49
100
AcDbEntity
  8
1
  6
DOT_CENTER
 62
     2
100
AcDbLine
 10
-118.0636396875626
 20
1.99999999999991
 30
0.0
 11
-96.690602486691
 21
1.99999999999991
 31
0.0
  0
LINE
  5
362
330
49
100
AcDbEntity
  8
1
  6
DOT_CENTER
 62
     2
100
AcDbLine
 10
-106.190602486691
 20
13.25639866153031
 30
0.0
 11
-106.190602486691
 21
-9.34368112823178
 31
0.0
  0
LINE
  5
363
330
49
100
AcDbEntity
  8
1
  6
Continuous
 62
     7
100
AcDbLine
 10
-142.0
 20
14.0
 30
0.0
 11
-136.8917714560187
 21
14.0
 31
0.0
  0
LINE
  5
364
330
49
100
AcDbEntity
  8
1
  6
Continuous
 62
     7
100
AcDbLine
 10
-142.0
 20
14.0
 30
0.0
 11
-142.0
 21
6.5
 31
0.0
  0
LINE
  5
365
330
49
100
AcDbEntity
  8
1
  6
Continuous
 62
     7
100
AcDbLine
 10
-143.5668524125716
 20
11.5
 30
0.0
 11
-143.0592682719357
 21
11.3828149676074
 31
0.0
  0
LINE
  5
366
330
49
100
AcDbEntity
  8
1
  6
Continuous
 62
     7
100
AcDbLine
 10
-142.9467927447638
 20
11.37
 30
0.0
 11
-142.5
 21
11.37
 31
0.0
  0
LINE
  5
367
330
49
100
AcDbEntity
  8
1
  6
Continuous
 62
     2
100
AcDbLine
 10
-143.5668524125716
 20
11.5
 30
0.0
 11
-143.5668524125716
 21
4.5
 31
0.0
  0
LINE
  5
368
330
49
100
AcDbEntity
  8
1
  6
Continuous
 62
     7
100
AcDbLine
 10
-144.0
 20
124.5
 30
0.0
 11
-144.0
 21
117.0
 31
0.0
  0
LINE
  5
369
330
49
100
AcDbEntity
  8
1
  6
Continuous
 62
     7
100
AcDbLine
 10
-145.5668524125716
 20
126.5
 30
0.0
 11
-145.0592682719357
 21
126.3828149676074
 31
0.0
  0
LINE
  5
36A
330
49
100
AcDbEntity
  8
1
  6
Continuous
 62
     7
100
AcDbLine
 10
-144.9467927447638
 20
126.37
 30
0.0
 11
-144.5
 21
126.37
 31
0.0
  0
LINE
  5
36B
330
49
100
AcDbEntity
  8
1
  6
Continuous
 62
     2
100
AcDbLine
 10
-145.5668524125716
 20
126.5
 30
0.0
 11
-145.5668524125716
 21
119.5
 31
0.0
  0
LINE
  5
36C
330
49
100
AcDbEntity
  8
1
  6
DOT_CENTER
 62
     2
100
AcDbLine
 10
-177.616470504284
 20
117.0
 30
0.0
 11
-145.5668524125716
 21
117.0
 31
0.0
  0
LINE
  5
36D
330
49
100
AcDbEntity
  8
1
  6
Continuous
 62
     7
100
AcDbLine
 10
-143.5668524125716
 20
11.5
 30
0.0
 11
-181.5
 21
11.5
 31
0.0
  0
LINE
  5
36E
330
49
100
AcDbEntity
  8
1
  6
Continuous
 62
     7
100
AcDbLine
 10
-182.0
 20
11.0
 30
0.0
 11
-182.0
 21
-7.0
 31
0.0
  0
LINE
  5
36F
330
49
100
AcDbEntity
  8
1
  6
Continuous
 62
     7
100
AcDbLine
 10
-181.5
 20
-7.5
 30
0.0
 11
-143.5668524125716
 21
-7.5
 31
0.0
  0
LINE
  5
370
330
49
100
AcDbEntity
  8
1
  6
Continuous
 62
     7
100
AcDbLine
 10
-142.0
 20
-2.50000000000001
 30
0.0
 11
-142.0
 21
6.5
 31
0.0
  0
LINE
  5
371
330
49
100
AcDbEntity
  8
1
  6
Continuous
 62
     2
100
AcDbLine
 10
-143.5668524125716
 20
-0.50000000000001
 30
0.0
 11
-143.5668524125716
 21
4.5
 31
0.0
  0
LINE
  5
372
330
49
100
AcDbEntity
  8
1
  6
Continuous
 62
     7
100
AcDbLine
 10
-148.0
 20
5.0
 30
0.0
 11
-174.0
 21
5.0
 31
0.0
  0
LINE
  5
373
330
49
100
AcDbEntity
  8
1
  6
Continuous
 62
     7
100
AcDbLine
 10
-174.0
 20
-1.0
 30
0.0
 11
-148.0
 21
-1.0
 31
0.0
  0
LINE
  5
374
330
49
100
AcDbEntity
  8
1
  6
DOT_CENTER
 62
     2
100
AcDbLine
 10
-96.690602486691
 20
1.99999999999991
 30
0.0
 11
-94.56469308798026
 21
1.99999999999991
 31
0.0
  0
LINE
  5
375
330
49
100
AcDbEntity
  8
1
  6
Continuous
 62
     7
100
AcDbLine
 10
-97.17672429803106
 20
5.0
 30
0.0
 11
-94.190602486691
 21
5.0
 31
0.0
  0
LINE
  5
376
330
49
100
AcDbEntity
  8
1
  6
Continuous
 62
     7
100
AcDbLine
 10
-94.190602486691
 20
5.0
 30
0.0
 11
-94.190602486691
 21
-1.0
 31
0.0
  0
LINE
  5
377
330
49
100
AcDbEntity
  8
1
  6
Continuous
 62
     7
100
AcDbLine
 10
-94.190602486691
 20
-1.0
 30
0.0
 11
-97.176724298031
 21
-1.0
 31
0.0
  0
LINE
  5
378
330
49
100
AcDbEntity
  8
1
  6
DOT_CENTER
 62
     2
100
AcDbLine
 10
-132.861829702135
 20
2.0
 30
0.0
 11
-183.5
 21
2.0
 31
0.0
  0
LINE
  5
379
330
49
100
AcDbEntity
  8
1
  6
Continuous
 62
     7
100
AcDbLine
 10
-183.5
 20
107.5
 30
0.0
 11
-147.0
 21
107.5
 31
0.0
  0
LINE
  5
37A
330
49
100
AcDbEntity
  8
1
  6
Continuous
 62
     7
100
AcDbLine
 10
-184.0
 20
108.0
 30
0.0
 11
-184.0
 21
126.0
 31
0.0
  0
LINE
  5
37B
330
49
100
AcDbEntity
  8
1
  6
Continuous
 62
     7
100
AcDbLine
 10
-183.5
 20
126.5
 30
0.0
 11
-145.5668524125716
 21
126.5
 31
0.0
  0
LINE
  5
37C
330
49
100
AcDbEntity
  8
1
  6
Continuous
 62
     7
100
AcDbLine
 10
-144.0
 20
129.0
 30
0.0
 11
-138.7220775699855
 21
129.0
 31
0.0
  0
LINE
  5
37D
330
49
100
AcDbEntity
  8
1
  6
Continuous
 62
     7
100
AcDbLine
 10
-144.0
 20
124.5
 30
0.0
 11
-144.0
 21
129.0
 31
0.0
  0
LINE
  5
37E
330
49
100
AcDbEntity
  8
1
  6
Continuous
 62
     2
100
AcDbLine
 10
-145.5668524125716
 20
119.5
 30
0.0
 11
-145.5668524125716
 21
117.0
 31
0.0
  0
LINE
  5
37F
330
49
100
AcDbEntity
  8
1
  6
DOT_CENTER
 62
     2
100
AcDbLine
 10
-145.5668524125716
 20
117.0
 30
0.0
 11
32.67417587695405
 21
117.0
 31
0.0
  0
LINE
  5
380
330
49
100
AcDbEntity
  8
1
  6
DOT_CENTER
 62
     2
100
AcDbLine
 10
-186.0
 20
117.0
 30
0.0
 11
-143.5668524125716
 21
117.0
 31
0.0
  0
ARC
  5
381
102
{ACAD_REACTORS
330
39B
330
39B
102
}
330
49
100
AcDbEntity
  8
1
  6
Continuous
 62
     2
100
AcDbCircle
 10
-130.1835675235193
 20
8.0
 30
0.0
 40
9.000000000000023
100
AcDbArc
 50
138.1896851042216
 51
-138.1896851042216
  0
ARC
  5
382
330
49
100
AcDbEntity
  8
1
  6
Continuous
 62
     2
100
AcDbCircle
 10
-143.5999753885181
 20
-4.0
 30
0.0
 40
9.000000000000023
100
AcDbArc
 50
-41.81031489577846
 51
41.81031489577846
  0
ARC
  5
383
102
{ACAD_REACTORS
330
39B
330
39B
102
}
330
49
100
AcDbEntity
  8
1
  6
Continuous
 62
     2
100
AcDbCircle
 10
-143.5999753885181
 20
8.0
 30
0.0
 40
9.000000000000023
100
AcDbArc
 50
-41.81031489577846
 51
41.81031489577846
  0
ARC
  5
384
330
49
100
AcDbEntity
  8
1
  6
Continuous
 62
     7
100
AcDbCircle
 10
-106.190602486691
 20
1.99999999999991
 30
0.0
 40
9.5
100
AcDbArc
 50
0.0
 51
18.40848017058643
  0
ARC
  5
385
330
49
100
AcDbEntity
  8
1
  6
Continuous
 62
     7
100
AcDbCircle
 10
-106.190602486691
 20
1.99999999999991
 30
0.0
 40
9.499999999999998
100
AcDbArc
 50
-18.40848017058526
 51
0.0
  0
ARC
  5
386
330
49
100
AcDbEntity
  8
1
  6
Continuous
 62
     7
100
AcDbCircle
 10
-106.190602486691
 20
1.99999999999991
 30
0.0
 40
9.500000000000002
100
AcDbArc
 50
18.40848017058643
 51
-18.40848017058526
  0
ARC
  5
387
330
49
100
AcDbEntity
  8
1
  6
Continuous
 62
     7
100
AcDbCircle
 10
-106.190602486691
 20
1.99999999999991
 30
0.0
 40
12.0
100
AcDbArc
 50
14.47751218593037
 51
-14.47751218592947
  0
CIRCLE
  5
388
330
49
100
AcDbEntity
  8
1
  6
Continuous
 62
     7
100
AcDbCircle
 10
174.809397513309
 20
116.9999999999999
 30
0.0
 40
12.0
  0
CIRCLE
  5
389
330
49
100
AcDbEntity
  8
1
  6
Continuous
 62
     7
100
AcDbCircle
 10
174.809397513309
 20
116.9999999999999
 30
0.0
 40
9.5
  0
SPLINE
  5
38A
330
49
100
AcDbEntity
  8
1
  6
Continuous
 62
     2
100
AcDbSpline
210
0.0
220
0.0
230
1.0
 70
     8
 71
     3
 72
    12
 73
     8
 74
     6
 42
0.0000000001
 43
0.0000000001
 44
0.00000001
 40
0.0
 40
0.0
 40
0.0
 40
0.0
 40
2.122804015036584
 40
4.099344244163374
 40
5.908612450791935
 40
7.080306657480318
 40
8.526453222049346
 40
8.526453222049346
 40
8.526453222049346
 40
8.526453222049346
 10
-138.8917714560187
 20
124.5
 30
0.0
 10
-139.2957713371432
 20
123.8135941692829
 30
0.0
 10
-140.075935014807
 20
122.4880767068232
 30
0.0
 10
-138.5291670767944
 20
120.9024978424656
 30
0.0
 10
-137.2722038362544
 20
119.6211084650307
 30
0.0
 10
-137.7279426901336
 20
118.0669039661347
 30
0.0
 10
-138.2532208016952
 20
117.3796516519016
 30
0.0
 10
-138.5433947285507
 20
117.0000000000011
 30
0.0
 11
-138.8917714560187
 21
124.5
 31
0.0
 11
-139.6067941393547
 21
122.5012405225815
 31
0.0
 11
-138.4938755075314
 21
120.8678013910871
 31
0.0
 11
-137.502017354951
 21
119.3546362154778
 31
0.0
 11
-137.7509318247077
 21
118.2096869149702
 31
0.0
 11
-138.5433947285507
 21
117.0000000000011
 31
0.0
  0
SPLINE
  5
38B
330
49
100
AcDbEntity
  8
1
  6
Continuous
 62
     2
100
AcDbSpline
210
0.0
220
0.0
230
1.0
 70
     8
 71
     3
 72
    17
 73
    13
 74
    11
 42
0.0000000001
 43
0.0000000001
 44
0.00000001
 40
0.0
 40
0.0
 40
0.0
 40
0.0
 40
1.963296169966575
 40
3.92683813802108
 40
5.084199377898044
 40
6.226366732375072
 40
7.053509284326562
 40
7.882838322668766
 40
8.353638440372807
 40
8.828378389211034
 40
9.566388826447318
 40
10.33917150962954
 40
10.33917150962954
 40
10.33917150962954
 40
10.33917150962954
 10
-144.0
 20
136.6291022296123
 30
0.0
 10
-143.4089681788889
 20
136.3506978093859
 30
0.0
 10
-142.2268305414672
 20
135.7938541136345
 30
0.0
 10
-140.6876081614356
 20
135.0507989530003
 30
0.0
 10
-139.6266293338332
 20
134.0851717079517
 30
0.0
 10
-139.0551243121873
 20
133.1897676967929
 30
0.0
 10
-138.8294821274814
 20
132.2744468542983
 30
0.0
 10
-138.8027427725074
 20
131.5618832687171
 30
0.0
 10
-138.8568664068753
 20
130.9727092044292
 30
0.0
 10
-138.9002622271805
 20
130.4126962127523
 30
0.0
 10
-138.8564799385455
 20
129.7493476212228
 30
0.0
 10
-138.7675605457808
 20
129.2535860050941
 30
0.0
 10
-138.7220775699855
 20
129.0
 30
0.0
 11
-144.0
 21
136.6291022296123
 31
0.0
 11
-142.2252302592389
 21
135.7896236901105
 31
0.0
 11
-140.5100892966146
 21
134.8337008173642
 31
0.0
 11
-139.6613472717647
 21
134.0468577486248
 31
0.0
 11
-139.0652163478604
 21
133.0726020392763
 31
0.0
 11
-138.8577672271742
 21
132.2718963108246
 31
0.0
 11
-138.8210177222891
 21
131.4433819007337
 31
0.0
 11
-138.8556402583365
 21
130.9738565757215
 31
0.0
 11
-138.8845878777277
 21
130.5
 31
0.0
 11
-138.8439778724571
 21
129.7631077195807
 31
0.0
 11
-138.7220775699855
 21
129.0
 31
0.0
  0
SPLINE
  5
38C
330
49
100
AcDbEntity
  8
1
  6
Continuous
 62
     2
100
AcDbSpline
210
0.0
220
0.0
230
1.0
 70
     8
 71
     3
 72
    11
 73
     7
 74
     5
 42
0.0000000001
 43
0.0000000001
 44
0.00000001
 40
0.0
 40
0.0
 40
0.0
 40
0.0
 40
1.29933725311117
 40
2.540566517854348
 40
3.632555436201257
 40
4.685753125620097
 40
4.685753125620097
 40
4.685753125620097
 40
4.685753125620097
 10
-138.7220775699855
 20
129.0
 30
0.0
 10
-138.6306202442645
 20
128.5758879788179
 30
0.0
 10
-138.451795678908
 20
127.7466307569111
 30
0.0
 10
-138.2453777681704
 20
126.5630405606257
 30
0.0
 10
-138.2550614587105
 20
125.3857282770951
 30
0.0
 10
-138.6821088777647
 20
124.7916619418469
 30
0.0
 10
-138.8917714560187
 20
124.5
 30
0.0
 11
-138.7220775699855
 21
129.0
 31
0.0
 11
-138.4567187426286
 21
127.7280479607838
 31
0.0
 11
-138.2763072860366
 21
126.5
 31
0.0
 11
-138.3642407392476
 21
125.4115573025653
 31
0.0
 11
-138.8917714560187
 21
124.5
 31
0.0
  0
ARC
  5
38D
330
49
100
AcDbEntity
  8
1
  6
Continuous
 62
     7
100
AcDbCircle
 10
-142.5
 20
-7.87
 30
0.0
 40
0.5
100
AcDbArc
 50
0.0
 51
90.0
  0
ARC
  5
38E
330
49
100
AcDbEntity
  8
1
  6
Continuous
 62
     7
100
AcDbCircle
 10
-142.9467927447638
 20
-7.87
 30
0.0
 40
0.5
100
AcDbArc
 50
90.0
 51
102.9999999999978
  0
ARC
  5
38F
330
49
100
AcDbEntity
  8
1
  6
Continuous
 62
     7
100
AcDbCircle
 10
-142.5
 20
11.87
 30
0.0
 40
0.5
100
AcDbArc
 50
-90.0
 51
0.0
  0
ARC
  5
390
330
49
100
AcDbEntity
  8
1
  6
Continuous
 62
     7
100
AcDbCircle
 10
-142.9467927447638
 20
11.87
 30
0.0
 40
0.4999999999999767
100
AcDbArc
 50
-102.9999999999979
 51
-90.0
  0
ARC
  5
391
330
49
100
AcDbEntity
  8
1
  6
Continuous
 62
     7
100
AcDbCircle
 10
-144.5
 20
126.87
 30
0.0
 40
0.5
100
AcDbArc
 50
-90.0
 51
0.0
  0
ARC
  5
392
330
49
100
AcDbEntity
  8
1
  6
Continuous
 62
     7
100
AcDbCircle
 10
-144.9467927447638
 20
126.87
 30
0.0
 40
0.4999999999999802
100
AcDbArc
 50
-102.9999999999978
 51
-90.0
  0
ARC
  5
393
330
49
100
AcDbEntity
  8
1
  6
Continuous
 62
     7
100
AcDbCircle
 10
-174.0
 20
2.0
 30
0.0
 40
3.0
100
AcDbArc
 50
90.0
 51
180.0
  0
ARC
  5
394
330
49
100
AcDbEntity
  8
1
  6
Continuous
 62
     7
100
AcDbCircle
 10
-174.0
 20
2.0
 30
0.0
 40
3.0
100
AcDbArc
 50
180.0
 51
-90.0
  0
ARC
  5
395
330
49
100
AcDbEntity
  8
1
  6
Continuous
 62
     7
100
AcDbCircle
 10
-148.0
 20
2.0
 30
0.0
 40
3.0
100
AcDbArc
 50
-90.0
 51
0.0
  0
ARC
  5
396
330
49
100
AcDbEntity
  8
1
  6
Continuous
 62
     7
100
AcDbCircle
 10
-148.0
 20
2.0
 30
0.0
 40
3.0
100
AcDbArc
 50
0.0
 51
90.0
  0
ARC
  5
397
330
49
100
AcDbEntity
  8
1
  6
Continuous
 62
     7
100
AcDbCircle
 10
-181.5
 20
11.0
 30
0.0
 40
0.5
100
AcDbArc
 50
90.0
 51
180.0
  0
ARC
  5
398
330
49
100
AcDbEntity
  8
1
  6
Continuous
 62
     7
100
AcDbCircle
 10
-181.5
 20
-7.0
 30
0.0
 40
0.5
100
AcDbArc
 50
-179.9999999999999
 51
-90.0
  0
ARC
  5
399
330
49
100
AcDbEntity
  8
1
  6
Continuous
 62
     7
100
AcDbCircle
 10
-183.5
 20
126.0
 30
0.0
 40
0.5
100
AcDbArc
 50
90.0
 51
180.0
  0
ARC
  5
39A
330
49
100
AcDbEntity
  8
1
  6
Continuous
 62
     7
100
AcDbCircle
 10
-183.5
 20
108.0
 30
0.0
 40
0.5
100
AcDbArc
 50
180.0
 51
-90.0
  0
HATCH
  5
39B
330
49
100
AcDbEntity
  8
1
  6
Continuous
 62
     2
100
AcDbHatch
 10
0.0
 20
0.0
 30
0.0
210
0.0
220
0.0
230
1.0
  2
_USER
 70
     0
 71
     1
 91
        1
 92
        1
 93
        2
 72
     2
 10
-143.5999753885181
 20
8.0
 40
9.000000000000023
 50
318.1896851042216
 51
401.8103148957784
 73
     1
 72
     2
 10
-130.1835675235193
 20
8.0
 40
9.000000000000023
 50
138.1896851042216
 51
221.8103148957784
 73
     1
 97
        2
330
383
330
381
 75
     1
 76
     0
 52
45.0
 41
2.0
 77
     0
 78
     1
 53
45.0
 43
0.0
 44
0.0
 45
-1.414213562373095
 46
1.414213562373095
 79
     0
 98
        1
 10
0.0
 20
0.0
  0
ENDBLK
  5
4B
330
49
100
AcDbEntity
  8
0
100
AcDbBlockEnd
  0
BLOCK
  5
4D
330
4C
100
AcDbEntity
  8
0
100
AcDbBlockBegin
  2
Radialdichtring_B15x30x7
 70
     0
 71
     0
 10
22.41441872037863
 20
34.35703578199041
 30
0.0
  3
Radialdichtring_B15x30x7
  1

  0
LINE
  5
39C
102
{ACAD_REACTORS
330
3AD
330
3AD
330
3AE
330
3AE
102
}
330
4C
100
AcDbEntity
  8
1
  6
Continuous
 62
     7
100
AcDbLine
 10
-142.0
 20
131.0
 30
0.0
 11
-138.8394311329207
 21
131.0
 31
0.0
  0
LINE
  5
39D
102
{ACAD_REACTORS
330
3AD
330
3AD
330
3AE
330
3AE
102
}
330
4C
100
AcDbEntity
  8
1
  6
Continuous
 62
     7
100
AcDbLine
 10
-142.0
 20
131.0
 30
0.0
 11
-142.0118365096458
 21
131.0
 31
0.0
  0
LINE
  5
39E
102
{ACAD_REACTORS
330
3AD
330
3AD
102
}
330
4C
100
AcDbEntity
  8
1
  6
Continuous
 62
     7
100
AcDbLine
 10
-142.0
 20
130.5
 30
0.0
 11
-138.8845878777277
 21
130.5
 31
0.0
  0
LINE
  5
39F
102
{ACAD_REACTORS
330
3AD
330
3AD
102
}
330
4C
100
AcDbEntity
  8
1
  6
Continuous
 62
     7
100
AcDbLine
 10
-142.0
 20
130.5
 30
0.0
 11
-142.1
 21
130.5
 31
0.0
  0
LINE
  5
3A0
102
{ACAD_REACTORS
330
3AD
330
3AD
102
}
330
4C
100
AcDbEntity
  8
1
  6
Continuous
 62
     7
100
AcDbLine
 10
-143.0
 20
131.1455880937065
 30
0.0
 11
-143.0
 21
132.0
 31
0.0
  0
LINE
  5
3A1
102
{ACAD_REACTORS
330
3AD
330
3AD
102
}
330
4C
100
AcDbEntity
  8
1
  6
Continuous
 62
     7
100
AcDbLine
 10
-142.6710100716628
 20
130.6757417833135
 30
0.0
 11
-142.2710100716628
 21
130.5301536896071
 31
0.0
  0
LINE
  5
3A2
102
{ACAD_REACTORS
330
3AD
330
3AD
330
3AE
330
3AE
102
}
330
4C
100
AcDbEntity
  8
1
  6
Continuous
 62
     7
100
AcDbLine
 10
-142.5
 20
131.3556503551694
 30
0.0
 11
-142.5
 21
132.0
 31
0.0
  0
LINE
  5
3A3
102
{ACAD_REACTORS
330
3AD
330
3AD
330
3AE
330
3AE
102
}
330
4C
100
AcDbEntity
  8
1
  6
Continuous
 62
     7
100
AcDbLine
 10
-142.3026060429977
 20
131.0737425689336
 30
0.0
 11
-142.1828465813086
 21
131.0301536896071
 31
0.0
  0
LINE
  5
3A4
102
{ACAD_REACTORS
330
3AD
330
3AD
102
}
330
4C
100
AcDbEntity
  8
1
  6
Continuous
 62
     7
100
AcDbLine
 10
-142.5
 20
132.0
 30
0.0
 11
-143.0
 21
132.0
 31
0.0
  0
LINE
  5
3A5
330
4C
100
AcDbEntity
  8
1
  6
Continuous
 62
     7
100
AcDbLine
 10
-143.0
 20
131.1455880937065
 30
0.0
 11
-143.0
 21
124.5
 31
0.0
  0
LINE
  5
3A6
102
{ACAD_REACTORS
330
3AE
330
3AE
102
}
330
4C
100
AcDbEntity
  8
1
  6
Continuous
 62
     7
100
AcDbLine
 10
-138.839072280528
 20
132.0
 30
0.0
 11
-142.5
 21
132.0
 31
0.0
  0
SPLINE
  5
3A7
102
{ACAD_REACTORS
330
3AE
330
3AE
102
}
330
4C
100
AcDbEntity
  8
1
  6
Continuous
 62
     2
100
AcDbSpline
210
0.0
220
0.0
230
1.0
 70
     8
 71
     3
 72
     9
 73
     5
 74
     3
 42
0.0000000001
 43
0.0000000001
 44
0.00000001
 40
0.0
 40
0.0
 40
0.0
 40
0.0
 40
0.5002335511779832
 40
1.000683757926977
 40
1.000683757926977
 40
1.000683757926977
 40
1.000683757926977
 10
-138.839072280528
 20
132.0
 30
0.0
 10
-138.8298872817704
 20
131.8333661744324
 30
0.0
 10
-138.8115133061511
 20
131.5000263527151
 30
0.0
 10
-138.8301238475567
 20
131.1666995068293
 30
0.0
 10
-138.8394311329207
 20
131.0
 30
0.0
 11
-138.839072280528
 21
132.0
 31
0.0
 11
-138.8207594102316
 21
131.5001017658506
 31
0.0
 11
-138.8394311329207
 21
131.0
 31
0.0
  0
SPLINE
  5
3A8
102
{ACAD_REACTORS
330
3AD
330
3AD
102
}
330
4C
100
AcDbEntity
  8
1
  6
Continuous
 62
     2
100
AcDbSpline
210
0.0
220
0.0
230
1.0
 70
     8
 71
     3
 72
     9
 73
     5
 74
     3
 42
0.0000000001
 43
0.0000000001
 44
0.00000001
 40
0.0
 40
0.0
 40
0.0
 40
0.0
 40
0.2510404478679126
 40
0.5020655458435812
 40
0.5020655458435812
 40
0.5020655458435812
 40
0.5020655458435812
 10
-138.8394311329207
 20
131.0
 30
0.0
 10
-138.8455783176379
 20
130.9165395607955
 30
0.0
 10
-138.8578723112021
 20
130.7496237855832
 30
0.0
 10
-138.8756828703961
 20
130.5832062325397
 30
0.0
 10
-138.8845878777277
 20
130.5
 30
0.0
 11
-138.8394311329207
 21
131.0
 31
0.0
 11
-138.8592519128114
 21
130.7497432455452
 31
0.0
 11
-138.8845878777277
 21
130.5
 31
0.0
  0
ARC
  5
3A9
102
{ACAD_REACTORS
330
3AD
330
3AD
102
}
330
4C
100
AcDbEntity
  8
1
  6
Continuous
 62
     7
100
AcDbCircle
 10
-142.5
 20
131.1455880937065
 30
0.0
 40
0.5
100
AcDbArc
 50
180.0
 51
-109.9999999999954
  0
ARC
  5
3AA
102
{ACAD_REACTORS
330
3AD
330
3AD
102
}
330
4C
100
AcDbEntity
  8
1
  6
Continuous
 62
     7
100
AcDbCircle
 10
-142.1
 20
131.0
 30
0.0
 40
0.4999999999999489
100
AcDbArc
 50
-109.9999999999987
 51
-90.0
  0
ARC
  5
3AB
102
{ACAD_REACTORS
330
3AD
330
3AD
330
3AE
330
3AE
102
}
330
4C
100
AcDbEntity
  8
1
  6
Continuous
 62
     7
100
AcDbCircle
 10
-142.0118365096458
 20
131.5
 30
0.0
 40
0.4999999999999489
100
AcDbArc
 50
-109.9999999999987
 51
-90.0
  0
ARC
  5
3AC
102
{ACAD_REACTORS
330
3AD
330
3AD
330
3AE
330
3AE
102
}
330
4C
100
AcDbEntity
  8
1
  6
Continuous
 62
     7
100
AcDbCircle
 10
-142.2
 20
131.3556503551694
 30
0.0
 40
0.3000000000000114
100
AcDbArc
 50
180.0
 51
-109.9999999999998
  0
HATCH
  5
3AD
330
4C
100
AcDbEntity
  8
1
  6
Continuous
 62
     2
100
AcDbHatch
 10
0.0
 20
0.0
 30
0.0
210
0.0
220
0.0
230
1.0
  2
_USER
 70
     0
 71
     1
 91
        1
 92
        1
 93
       14
 72
     1
 10
-138.8845878777277
 20
130.5
 11
-142.0
 21
130.5
 72
     1
 10
-142.0
 20
130.5
 11
-142.1
 21
130.5
 72
     2
 10
-142.1
 20
131.0
 40
0.4999999999999489
 50
90.0
 51
109.9999999999987
 73
     0
 72
     1
 10
-142.2710100716628
 20
130.5301536896071
 11
-142.6710100716628
 21
130.6757417833135
 72
     2
 10
-142.5
 20
131.1455880937065
 40
0.5
 50
109.9999999999954
 51
180.0
 73
     0
 72
     1
 10
-143.0
 20
131.1455880937065
 11
-143.0
 21
132.0
 72
     1
 10
-143.0
 20
132.0
 11
-142.5
 21
132.0
 72
     1
 10
-142.5
 20
132.0
 11
-142.5
 21
131.3556503551694
 72
     2
 10
-142.2
 20
131.3556503551694
 40
0.3000000000000114
 50
180.0
 51
250.0000000000002
 73
     1
 72
     1
 10
-142.3026060429977
 20
131.0737425689336
 11
-142.1828465813086
 21
131.0301536896071
 72
     2
 10
-142.0118365096458
 20
131.5
 40
0.4999999999999489
 50
250.0000000000013
 51
270.0
 73
     1
 72
     1
 10
-142.0118365096458
 20
131.0
 11
-142.0
 21
131.0
 72
     1
 10
-142.0
 20
131.0
 11
-138.8394311329207
 21
131.0
 72
     4
 94
        3
 73
     0
 74
     0
 95
        9
 96
        5
 40
0.0
 40
0.0
 40
0.0
 40
0.0
 40
0.2510404478679126
 40
0.5020655458435812
 40
0.5020655458435812
 40
0.5020655458435812
 40
0.5020655458435812
 10
-138.8394311329207
 20
131.0
 10
-138.8455783176379
 20
130.9165395607955
 10
-138.8578723112021
 20
130.7496237855832
 10
-138.8756828703961
 20
130.5832062325397
 10
-138.8845878777277
 20
130.5
 97
       14
330
39C
330
39D
330
3AB
330
3A3
330
3AC
330
3A2
330
3A4
330
3A0
330
3A9
330
3A1
330
3AA
330
39F
330
39E
330
3A8
 75
     1
 76
     0
 52
45.0
 41
0.8
 77
     0
 78
     1
 53
45.0
 43
0.0
 44
0.0
 45
-0.565685424949238
 46
0.5656854249492381
 79
     0
 98
        1
 10
0.0
 20
0.0
  0
HATCH
  5
3AE
330
4C
100
AcDbEntity
  8
1
  6
Continuous
 62
     2
100
AcDbHatch
 10
0.0
 20
0.0
 30
0.0
210
0.0
220
0.0
230
1.0
  2
CUSTOM2
 70
     0
 71
     1
 91
        1
 92
        1
 93
        8
 72
     1
 10
-138.839072280528
 20
132.0
 11
-142.5
 21
132.0
 72
     1
 10
-142.5
 20
132.0
 11
-142.5
 21
131.3556503551694
 72
     2
 10
-142.2
 20
131.3556503551694
 40
0.3000000000000114
 50
180.0
 51
250.0000000000002
 73
     1
 72
     1
 10
-142.3026060429977
 20
131.0737425689336
 11
-142.1828465813086
 21
131.0301536896071
 72
     2
 10
-142.0118365096458
 20
131.5
 40
0.4999999999999489
 50
250.0000000000013
 51
270.0
 73
     1
 72
     1
 10
-142.0118365096458
 20
131.0
 11
-142.0
 21
131.0
 72
     1
 10
-142.0
 20
131.0
 11
-138.8394311329207
 21
131.0
 72
     4
 94
        3
 73
     0
 74
     0
 95
        9
 96
        5
 40
0.0
 40
0.0
 40
0.0
 40
0.0
 40
0.5004502067489935
 40
1.000683757926977
 40
1.000683757926977
 40
1.000683757926977
 40
1.000683757926977
 10
-138.8394311329207
 20
131.0
 10
-138.8301238475567
 20
131.1666995068293
 10
-138.8115133061511
 20
131.5000263527151
 10
-138.8298872817704
 20
131.8333661744324
 10
-138.839072280528
 20
132.0
 97
        8
330
3A6
330
3A2
330
3AC
330
3A3
330
3AB
330
39D
330
39C
330
3A7
 75
     1
 76
     2
 52
135.0
 41
1.0
 77
     0
 78
     2
 53
135.0
 43
0.0
 44
0.0
 45
-0.0000000000000001
 46
-1.414213562373095
 79
     0
 53
225.0
 43
0.0
 44
0.0
 45
1.414213562373095
 46
0.0000000000000003
 79
     0
 98
        1
 10
0.0
 20
0.0
  0
ENDBLK
  5
4E
330
4C
100
AcDbEntity
  8
0
100
AcDbBlockEnd
  0
BLOCK
  5
3F9
330
3F2
100
AcDbEntity
  8
0
100
AcDbBlockBegin
  2
*D10
 70
     1
 71
     0
 10
0.0
 20
0.0
 30
0.0
  3
*D10
  1

  0
LINE
  5
3F3
330
3F2
100
AcDbEntity
  8
1
  6
Continuous
 62
     2
100
AcDbLine
 10
160.8093975133095
 20
216.384816864842
 30
0.0
 11
188.8093975133085
 21
216.384816864842
 31
0.0
  0
LINE
  5
3F4
330
3F2
100
AcDbEntity
  8
1
  6
Continuous
 62
     2
100
AcDbLine
 10
160.8093975133095
 20
202.7499756716067
 30
0.0
 11
160.8093975133095
 21
218.384816864842
 31
0.0
  0
LINE
  5
3F5
330
3F2
100
AcDbEntity
  8
1
  6
Continuous
 62
     2
100
AcDbLine
 10
188.8093975133085
 20
202.7499756716067
 30
0.0
 11
188.8093975133085
 21
218.384816864842
 31
0.0
  0
SOLID
  5
3F6
330
3F2
100
AcDbEntity
  8
1
 62
     2
100
AcDbTrace
 10
167.8093975133095
 20
217.3063843479538
 30
0.0
 11
167.8093975133095
 21
215.4632493817302
 31
0.0
 12
160.8093975133095
 22
216.384816864842
 32
0.0
 13
160.8093975133095
 23
216.384816864842
 33
0.0
  0
SOLID
  5
3F7
330
3F2
100
AcDbEntity
  8
1
 62
     2
100
AcDbTrace
 10
181.8093975133085
 20
215.4632493817302
 30
0.0
 11
181.8093975133085
 21
217.3063843479538
 31
0.0
 12
188.8093975133085
 22
216.384816864842
 32
0.0
 13
188.8093975133085
 23
216.384816864842
 33
0.0
  0
MTEXT
  5
3F8
330
3F2
100
AcDbEntity
  8
1
 62
     3
100
AcDbMText
 10
168.650209497631
 20
220.384816864842
 30
0.0
 40
7.0
 41
0.0
 71
     7
 72
     1
  1
28
  7
CONVERTER_11
 11
0.9999999999970621
 21
2.424068405545307E-6
 31
0.0
 73
     1
 44
0.60024009603842
  0
ENDBLK
  5
3FA
330
3F2
100
AcDbEntity
  8
0
100
AcDbBlockEnd
  0
BLOCK
  5
404
330
3FD
100
AcDbEntity
  8
0
100
AcDbBlockBegin
  2
*D11
 70
     1
 71
     0
 10
0.0
 20
0.0
 30
0.0
  3
*D11
  1

  0
LINE
  5
3FE
330
3FD
100
AcDbEntity
  8
1
  6
Continuous
 62
     2
100
AcDbLine
 10
269.818989534849
 20
71.99999999999997
 30
0.0
 11
269.818989534849
 21
201.9999756716066
 31
0.0
  0
LINE
  5
3FF
330
3FD
100
AcDbEntity
  8
1
  6
Continuous
 62
     2
100
AcDbLine
 10
211.1266773497618
 20
71.99999999999997
 30
0.0
 11
271.818989534849
 21
71.99999999999997
 31
0.0
  0
LINE
  5
400
330
3FD
100
AcDbEntity
  8
1
  6
Continuous
 62
     2
100
AcDbLine
 10
160.809397513309
 20
201.9999756716066
 30
0.0
 11
271.818989534849
 21
201.9999756716066
 31
0.0
  0
SOLID
  5
401
330
3FD
100
AcDbEntity
  8
1
 62
     2
100
AcDbTrace
 10
268.8974220517372
 20
78.99999999999997
 30
0.0
 11
270.7405570179607
 21
78.99999999999997
 31
0.0
 12
269.818989534849
 22
71.99999999999997
 32
0.0
 13
269.818989534849
 23
71.99999999999997
 33
0.0
  0
SOLID
  5
402
330
3FD
100
AcDbEntity
  8
1
 62
     2
100
AcDbTrace
 10
270.7405570179607
 20
194.9999756716066
 30
0.0
 11
268.8974220517372
 21
194.9999756716066
 31
0.0
 12
269.818989534849
 22
201.9999756716066
 32
0.0
 13
269.818989534849
 23
201.9999756716066
 33
0.0
  0
MTEXT
  5
403
330
3FD
100
AcDbEntity
  8
1
 62
     3
100
AcDbMText
 10
265.818989534849
 20
125.4547801486373
 30
0.0
 40
7.0
 41
0.0
 71
     7
 72
     1
  1
130
  7
CONVERTER_11
 11
0.0
 21
1.0
 31
0.0
 73
     1
 44
0.60024009603842
  0
ENDBLK
  5
405
330
3FD
100
AcDbEntity
  8
0
100
AcDbBlockEnd
  0
BLOCK
  5
40F
330
408
100
AcDbEntity
  8
0
100
AcDbBlockBegin
  2
*D12
 70
     1
 71
     0
 10
0.0
 20
0.0
 30
0.0
  3
*D12
  1

  0
LINE
  5
409
330
408
100
AcDbEntity
  8
1
  6
Continuous
 62
     2
100
AcDbLine
 10
-236.538556451615
 20
77.0
 30
0.0
 11
-236.538556451615
 21
157.0
 31
0.0
  0
LINE
  5
40A
330
408
100
AcDbEntity
  8
1
  6
Continuous
 62
     2
100
AcDbLine
 10
-147.0
 20
157.0
 30
0.0
 11
-238.538556451615
 21
157.0
 31
0.0
  0
LINE
  5
40B
330
408
100
AcDbEntity
  8
1
  6
Continuous
 62
     2
100
AcDbLine
 10
-147.0
 20
77.0
 30
0.0
 11
-238.538556451615
 21
77.0
 31
0.0
  0
SOLID
  5
40C
330
408
100
AcDbEntity
  8
1
 62
     2
100
AcDbTrace
 10
-237.4601239347268
 20
84.0
 30
0.0
 11
-235.6169889685033
 21
84.0
 31
0.0
 12
-236.538556451615
 22
77.0
 32
0.0
 13
-236.538556451615
 23
77.0
 33
0.0
  0
SOLID
  5
40D
330
408
100
AcDbEntity
  8
1
 62
     2
100
AcDbTrace
 10
-235.6169889685033
 20
150.0
 30
0.0
 11
-237.4601239347268
 21
150.0
 31
0.0
 12
-236.538556451615
 22
157.0
 32
0.0
 13
-236.538556451615
 23
157.0
 33
0.0
  0
MTEXT
  5
40E
330
408
100
AcDbEntity
  8
1
 62
     3
100
AcDbMText
 10
-243.863556451615
 20
101.432
 30
0.0
 40
7.0
 41
0.0
 71
     7
 72
     1
  1
\C3;{\Fgdt;n}\C3;\C3;80\C2;\H4.2;\S^ j6;
  7
CONVERTER_11
 11
0.0
 21
1.0
 31
0.0
 73
     1
 44
0.60024009603842
  0
ENDBLK
  5
410
330
408
100
AcDbEntity
  8
0
100
AcDbBlockEnd
  0
BLOCK
  5
41A
330
413
100
AcDbEntity
  8
0
100
AcDbBlockBegin
  2
*D13
 70
     1
 71
     0
 10
0.0
 20
0.0
 30
0.0
  3
*D13
  1

  0
LINE
  5
414
330
413
100
AcDbEntity
  8
1
  6
Continuous
 62
     2
100
AcDbLine
 10
244.750590661174
 20
72.0
 30
0.0
 11
244.750590661174
 21
117.0
 31
0.0
  0
LINE
  5
415
330
413
100
AcDbEntity
  8
1
  6
Continuous
 62
     2
100
AcDbLine
 10
211.1266773497618
 20
72.0
 30
0.0
 11
246.750590661174
 21
72.0
 31
0.0
  0
LINE
  5
416
330
413
100
AcDbEntity
  8
1
  6
Continuous
 62
     2
100
AcDbLine
 10
229.5333733581463
 20
117.0
 30
0.0
 11
246.750590661174
 21
117.0
 31
0.0
  0
SOLID
  5
417
330
413
100
AcDbEntity
  8
1
 62
     2
100
AcDbTrace
 10
243.8290231780622
 20
79.0
 30
0.0
 11
245.6721581442858
 21
79.0
 31
0.0
 12
244.750590661174
 22
72.0
 32
0.0
 13
244.750590661174
 23
72.0
 33
0.0
  0
SOLID
  5
418
330
413
100
AcDbEntity
  8
1
 62
     2
100
AcDbTrace
 10
245.6721581442858
 20
110.0
 30
0.0
 11
243.8290231780622
 21
110.0
 31
0.0
 12
244.750590661174
 22
117.0
 32
0.0
 13
244.750590661174
 23
117.0
 33
0.0
  0
MTEXT
  5
419
330
413
100
AcDbEntity
  8
1
 62
     3
100
AcDbMText
 10
240.750590661174
 20
88.27470783176847
 30
0.0
 40
7.0
 41
0.0
 71
     7
 72
     1
  1
45
  7
CONVERTER_11
 11
0.0
 21
1.0
 31
0.0
 73
     1
 44
0.60024009603842
  0
ENDBLK
  5
41B
330
413
100
AcDbEntity
  8
0
100
AcDbBlockEnd
  0
BLOCK
  5
427
330
41E
100
AcDbEntity
  8
0
100
AcDbBlockBegin
  2
*D14
 70
     1
 71
     0
 10
0.0
 20
0.0
 30
0.0
  3
*D14
  1

  0
LINE
  5
41F
330
41E
100
AcDbEntity
  8
1
  6
Continuous
 62
     2
100
AcDbLine
 10
-144.0
 20
177.065007057417
 30
0.0
 11
-130.0
 21
177.065007057417
 31
0.0
  0
LINE
  5
420
330
41E
100
AcDbEntity
  8
1
  6
Continuous
 62
     2
100
AcDbLine
 10
-147.0
 20
177.065007057417
 30
0.0
 11
-144.0
 21
177.065007057417
 31
0.0
  0
LINE
  5
421
330
41E
100
AcDbEntity
  8
1
  6
Continuous
 62
     2
100
AcDbLine
 10
-161.0
 20
177.065007057417
 30
0.0
 11
-147.0
 21
177.065007057417
 31
0.0
  0
LINE
  5
422
330
41E
100
AcDbEntity
  8
1
  6
Continuous
 62
     2
100
AcDbLine
 10
-147.0
 20
157.0
 30
0.0
 11
-147.0
 21
179.065007057417
 31
0.0
  0
LINE
  5
423
330
41E
100
AcDbEntity
  8
1
  6
Continuous
 62
     2
100
AcDbLine
 10
-144.0
 20
162.0
 30
0.0
 11
-144.0
 21
179.065007057417
 31
0.0
  0
SOLID
  5
424
330
41E
100
AcDbEntity
  8
1
 62
     2
100
AcDbTrace
 10
-154.0
 20
176.1434395743052
 30
0.0
 11
-154.0
 21
177.9865745405288
 31
0.0
 12
-147.0
 22
177.065007057417
 32
0.0
 13
-147.0
 23
177.065007057417
 33
0.0
  0
SOLID
  5
425
330
41E
100
AcDbEntity
  8
1
 62
     2
100
AcDbTrace
 10
-137.0
 20
177.9865745405288
 30
0.0
 11
-137.0
 21
176.1434395743052
 31
0.0
 12
-144.0
 22
177.065007057417
 32
0.0
 13
-144.0
 23
177.065007057417
 33
0.0
  0
MTEXT
  5
426
330
41E
100
AcDbEntity
  8
1
 62
     3
100
AcDbMText
 10
-157.874514680293
 20
181.065007057417
 30
0.0
 40
7.0
 41
0.0
 71
     7
 72
     1
  1
3
  7
CONVERTER_11
 11
0.9999999999970621
 21
2.424068405545307E-6
 31
0.0
 73
     1
 44
0.60024009603842
  0
ENDBLK
  5
428
330
41E
100
AcDbEntity
  8
0
100
AcDbBlockEnd
  0
BLOCK
  5
434
330
42B
100
AcDbEntity
  8
0
100
AcDbBlockBegin
  2
*D15
 70
     1
 71
     0
 10
0.0
 20
0.0
 30
0.0
  3
*D15
  1

  0
LINE
  5
42C
330
42B
100
AcDbEntity
  8
1
  6
Continuous
 62
     2
100
AcDbLine
 10
135.9540584539816
 20
51.389067772512
 30
0.0
 11
121.149945971563
 21
51.389067772512
 31
0.0
  0
LINE
  5
42D
330
42B
100
AcDbEntity
  8
1
  6
Continuous
 62
     2
100
AcDbLine
 10
142.9540584539816
 20
51.389067772512
 30
0.0
 11
135.9540584539816
 21
51.389067772512
 31
0.0
  0
LINE
  5
42E
330
42B
100
AcDbEntity
  8
1
  6
Continuous
 62
     2
100
AcDbLine
 10
156.9540584539816
 20
51.389067772512
 30
0.0
 11
142.9540584539816
 21
51.389067772512
 31
0.0
  0
LINE
  5
42F
330
42B
100
AcDbEntity
  8
1
  6
Continuous
 62
     2
100
AcDbLine
 10
142.9540584539816
 20
81.64466094067271
 30
0.0
 11
142.9540584539816
 21
49.389067772512
 31
0.0
  0
LINE
  5
430
330
42B
100
AcDbEntity
  8
1
  6
Continuous
 62
     2
100
AcDbLine
 10
135.9540584539816
 20
81.64466094067271
 30
0.0
 11
135.9540584539816
 21
49.389067772512
 31
0.0
  0
SOLID
  5
431
330
42B
100
AcDbEntity
  8
1
 62
     2
100
AcDbTrace
 10
149.9540584539816
 20
52.31063525562377
 30
0.0
 11
149.9540584539816
 21
50.46750028940023
 31
0.0
 12
142.9540584539816
 22
51.389067772512
 32
0.0
 13
142.9540584539816
 23
51.389067772512
 33
0.0
  0
SOLID
  5
432
330
42B
100
AcDbEntity
  8
1
 62
     2
100
AcDbTrace
 10
128.9540584539816
 20
50.46750028940023
 30
0.0
 11
128.9540584539816
 21
52.31063525562377
 31
0.0
 12
135.9540584539816
 22
51.389067772512
 32
0.0
 13
135.9540584539816
 23
51.389067772512
 33
0.0
  0
MTEXT
  5
433
330
42B
100
AcDbEntity
  8
1
 62
     3
100
AcDbMText
 10
117.0899459715967
 20
55.38903994420671
 30
0.0
 40
7.0
 41
0.0
 71
     7
 72
     1
  1
\C3;{\Fgdt;n}\C3;7
  7
CONVERTER_11
 11
0.9999999999970621
 21
2.424068405545307E-6
 31
0.0
 73
     1
 44
0.60024009603842
  0
ENDBLK
  5
435
330
42B
100
AcDbEntity
  8
0
100
AcDbBlockEnd
  0
BLOCK
  5
441
330
438
100
AcDbEntity
  8
0
100
AcDbBlockBegin
  2
*D16
 70
     1
 71
     0
 10
0.0
 20
0.0
 30
0.0
  3
*D16
  1

  0
LINE
  5
439
330
438
100
AcDbEntity
  8
1
  6
Continuous
 62
     2
100
AcDbLine
 10
-196.0
 20
24.3779880414284
 30
0.0
 11
-182.0
 21
24.3779880414284
 31
0.0
  0
LINE
  5
43A
330
438
100
AcDbEntity
  8
1
  6
Continuous
 62
     2
100
AcDbLine
 10
-182.0
 20
24.3779880414284
 30
0.0
 11
-177.0
 21
24.3779880414284
 31
0.0
  0
LINE
  5
43B
330
438
100
AcDbEntity
  8
1
  6
Continuous
 62
     2
100
AcDbLine
 10
-177.0
 20
24.3779880414284
 30
0.0
 11
-163.0
 21
24.3779880414284
 31
0.0
  0
LINE
  5
43C
330
438
100
AcDbEntity
  8
1
  6
Continuous
 62
     2
100
AcDbLine
 10
-177.0
 20
2.0
 30
0.0
 11
-177.0
 21
26.3779880414284
 31
0.0
  0
LINE
  5
43D
330
438
100
AcDbEntity
  8
1
  6
Continuous
 62
     2
100
AcDbLine
 10
-182.0
 20
11.0
 30
0.0
 11
-182.0
 21
26.3779880414284
 31
0.0
  0
SOLID
  5
43E
330
438
100
AcDbEntity
  8
1
 62
     2
100
AcDbTrace
 10
-189.0
 20
23.45642055831663
 30
0.0
 11
-189.0
 21
25.29955552454017
 31
0.0
 12
-182.0
 22
24.3779880414284
 32
0.0
 13
-182.0
 23
24.3779880414284
 33
0.0
  0
SOLID
  5
43F
330
438
100
AcDbEntity
  8
1
 62
     2
100
AcDbTrace
 10
-170.0
 20
25.29955552454017
 30
0.0
 11
-170.0
 21
23.45642055831663
 31
0.0
 12
-177.0
 22
24.3779880414284
 32
0.0
 13
-177.0
 23
24.3779880414284
 33
0.0
  0
MTEXT
  5
440
330
438
100
AcDbEntity
  8
1
 62
     3
100
AcDbMText
 10
-180.479042663894
 20
28.3779880414284
 30
0.0
 40
7.0
 41
0.0
 71
     7
 72
     1
  1
5
  7
CONVERTER_11
 11
0.9999999999970621
 21
2.424068405545307E-6
 31
0.0
 73
     1
 44
0.60024009603842
  0
ENDBLK
  5
442
330
438
100
AcDbEntity
  8
0
100
AcDbBlockEnd
  0
BLOCK
  5
44C
330
445
100
AcDbEntity
  8
0
100
AcDbBlockBegin
  2
*D17
 70
     1
 71
     0
 10
0.0
 20
0.0
 30
0.0
  3
*D17
  1

  0
LINE
  5
446
330
445
100
AcDbEntity
  8
1
  6
Continuous
 62
     2
100
AcDbLine
 10
-177.0
 20
24.3779880414284
 30
0.0
 11
-145.0
 21
24.3779880414284
 31
0.0
  0
LINE
  5
447
330
445
100
AcDbEntity
  8
1
  6
Continuous
 62
     2
100
AcDbLine
 10
-145.0
 20
2.0
 30
0.0
 11
-145.0
 21
26.3779880414284
 31
0.0
  0
LINE
  5
448
330
445
100
AcDbEntity
  8
1
  6
Continuous
 62
     2
100
AcDbLine
 10
-177.0
 20
2.0
 30
0.0
 11
-177.0
 21
26.3779880414284
 31
0.0
  0
SOLID
  5
449
330
445
100
AcDbEntity
  8
1
 62
     2
100
AcDbTrace
 10
-170.0
 20
25.29955552454017
 30
0.0
 11
-170.0
 21
23.45642055831663
 31
0.0
 12
-177.0
 22
24.3779880414284
 32
0.0
 13
-177.0
 23
24.3779880414284
 33
0.0
  0
SOLID
  5
44A
330
445
100
AcDbEntity
  8
1
 62
     2
100
AcDbTrace
 10
-152.0
 20
23.45642055831663
 30
0.0
 11
-152.0
 21
25.29955552454017
 31
0.0
 12
-145.0
 22
24.3779880414284
 32
0.0
 13
-145.0
 23
24.3779880414284
 33
0.0
  0
MTEXT
  5
44B
330
445
100
AcDbEntity
  8
1
 62
     3
100
AcDbMText
 10
-164.682305850028
 20
28.3779880414284
 30
0.0
 40
7.0
 41
0.0
 71
     7
 72
     1
  1
32
  7
CONVERTER_11
 11
0.9999999999970621
 21
2.424068405545307E-6
 31
0.0
 73
     1
 44
0.60024009603842
  0
ENDBLK
  5
44D
330
445
100
AcDbEntity
  8
0
100
AcDbBlockEnd
  0
BLOCK
  5
459
330
450
100
AcDbEntity
  8
0
100
AcDbBlockBegin
  2
*D18
 70
     1
 71
     0
 10
0.0
 20
0.0
 30
0.0
  3
*D18
  1

  0
LINE
  5
451
330
450
100
AcDbEntity
  8
1
  6
Continuous
 62
     2
100
AcDbLine
 10
-73.4525393795537
 20
-15.0
 30
0.0
 11
-73.4525393795537
 21
-1.0
 31
0.0
  0
LINE
  5
452
330
450
100
AcDbEntity
  8
1
  6
Continuous
 62
     2
100
AcDbLine
 10
-73.4525393795537
 20
-1.0
 30
0.0
 11
-73.4525393795537
 21
5.0
 31
0.0
  0
LINE
  5
453
330
450
100
AcDbEntity
  8
1
  6
Continuous
 62
     2
100
AcDbLine
 10
-73.4525393795537
 20
5.0
 30
0.0
 11
-73.4525393795537
 21
24.0502552679501
 31
0.0
  0
LINE
  5
454
330
450
100
AcDbEntity
  8
1
  6
Continuous
 62
     2
100
AcDbLine
 10
-97.17672429803106
 20
5.0
 30
0.0
 11
-71.4525393795537
 21
5.0
 31
0.0
  0
LINE
  5
455
330
450
100
AcDbEntity
  8
1
  6
Continuous
 62
     2
100
AcDbLine
 10
-97.176724298031
 20
-1.0
 30
0.0
 11
-71.4525393795537
 21
-1.0
 31
0.0
  0
SOLID
  5
456
330
450
100
AcDbEntity
  8
1
 62
     2
100
AcDbTrace
 10
-72.53097189644193
 20
-8.0
 30
0.0
 11
-74.37410686266547
 21
-8.0
 31
0.0
 12
-73.4525393795537
 22
-1.0
 32
0.0
 13
-73.4525393795537
 23
-1.0
 33
0.0
  0
SOLID
  5
457
330
450
100
AcDbEntity
  8
1
 62
     2
100
AcDbTrace
 10
-74.37410686266547
 20
12.0
 30
0.0
 11
-72.53097189644193
 21
12.0
 31
0.0
 12
-73.4525393795537
 22
5.0
 32
0.0
 13
-73.4525393795537
 23
5.0
 33
0.0
  0
MTEXT
  5
458
330
450
100
AcDbEntity
  8
1
 62
     3
100
AcDbMText
 10
-79.2025393795537
 20
12.1502552679501
 30
0.0
 40
7.0
 41
0.0
 71
     7
 72
     1
  1
\C3;6\C2;\H4.2;\S^ h9;
  7
CONVERTER_11
 11
0.0
 21
1.0
 31
0.0
 73
     1
 44
0.60024009603842
  0
ENDBLK
  5
45A
330
450
100
AcDbEntity
  8
0
100
AcDbBlockEnd
  0
BLOCK
  5
464
330
45D
100
AcDbEntity
  8
0
100
AcDbBlockBegin
  2
*D19
 70
     1
 71
     0
 10
0.0
 20
0.0
 30
0.0
  3
*D19
  1

  0
LINE
  5
45E
330
45D
100
AcDbEntity
  8
1
  6
Continuous
 62
     2
100
AcDbLine
 10
-184.0
 20
246.420894558262
 30
0.0
 11
-144.0
 21
246.420894558262
 31
0.0
  0
LINE
  5
45F
330
45D
100
AcDbEntity
  8
1
  6
Continuous
 62
     2
100
AcDbLine
 10
-144.0
 20
162.0
 30
0.0
 11
-144.0
 21
248.420894558262
 31
0.0
  0
LINE
  5
460
330
45D
100
AcDbEntity
  8
1
  6
Continuous
 62
     2
100
AcDbLine
 10
-184.0
 20
126.0
 30
0.0
 11
-184.0
 21
248.420894558262
 31
0.0
  0
SOLID
  5
461
330
45D
100
AcDbEntity
  8
1
 62
     2
100
AcDbTrace
 10
-177.0
 20
247.3424620413738
 30
0.0
 11
-177.0
 21
245.4993270751502
 31
0.0
 12
-184.0
 22
246.420894558262
 32
0.0
 13
-184.0
 23
246.420894558262
 33
0.0
  0
SOLID
  5
462
330
45D
100
AcDbEntity
  8
1
 62
     2
100
AcDbTrace
 10
-151.0
 20
245.4993270751502
 30
0.0
 11
-151.0
 21
247.3424620413738
 31
0.0
 12
-144.0
 22
246.420894558262
 32
0.0
 13
-144.0
 23
246.420894558262
 33
0.0
  0
MTEXT
  5
463
330
45D
100
AcDbEntity
  8
1
 62
     3
100
AcDbMText
 10
-168.495321771691
 20
250.420894558262
 30
0.0
 40
7.0
 41
0.0
 71
     7
 72
     1
  1
40
  7
CONVERTER_11
 11
0.9999999999970621
 21
2.424068405545307E-6
 31
0.0
 73
     1
 44
0.60024009603842
  0
ENDBLK
  5
465
330
45D
100
AcDbEntity
  8
0
100
AcDbBlockEnd
  0
BLOCK
  5
46F
330
468
100
AcDbEntity
  8
0
100
AcDbBlockBegin
  2
*D20
 70
     1
 71
     0
 10
0.0
 20
0.0
 30
0.0
  3
*D20
  1

  0
LINE
  5
469
330
468
100
AcDbEntity
  8
1
  6
Continuous
 62
     2
100
AcDbLine
 10
-144.0
 20
220.87461920658
 30
0.0
 11
-11.72875295132155
 21
220.87461920658
 31
0.0
  0
LINE
  5
46A
330
468
100
AcDbEntity
  8
1
  6
Continuous
 62
     2
100
AcDbLine
 10
-11.72875295132157
 20
163.9999756716065
 30
0.0
 11
-11.72875295132157
 21
222.87461920658
 31
0.0
  0
LINE
  5
46B
330
468
100
AcDbEntity
  8
1
  6
Continuous
 62
     2
100
AcDbLine
 10
-144.0
 20
157.0
 30
0.0
 11
-144.0
 21
222.87461920658
 31
0.0
  0
SOLID
  5
46C
330
468
100
AcDbEntity
  8
1
 62
     2
100
AcDbTrace
 10
-137.0
 20
221.7961866896918
 30
0.0
 11
-137.0
 21
219.9530517234682
 31
0.0
 12
-144.0
 22
220.87461920658
 32
0.0
 13
-144.0
 23
220.87461920658
 33
0.0
  0
SOLID
  5
46D
330
468
100
AcDbEntity
  8
1
 62
     2
100
AcDbTrace
 10
-18.72875295132155
 20
219.9530517234682
 30
0.0
 11
-18.72875295132155
 21
221.7961866896918
 31
0.0
 12
-11.72875295132155
 22
220.87461920658
 32
0.0
 13
-11.72875295132155
 23
220.87461920658
 33
0.0
  0
MTEXT
  5
46E
330
468
100
AcDbEntity
  8
1
 62
     3
100
AcDbMText
 10
-75.3385366198332
 20
226.97461920658
 30
0.0
 40
7.0
 41
0.0
 71
     7
 72
     1
  1
q
  7
CONVERTER_11
 11
0.9999999999970621
 21
2.424068405545307E-6
 31
0.0
 73
     1
 44
0.60024009603842
  0
ENDBLK
  5
470
330
468
100
AcDbEntity
  8
0
100
AcDbBlockEnd
  0
BLOCK
  5
47A
330
473
100
AcDbEntity
  8
0
100
AcDbBlockBegin
  2
*D21
 70
     1
 71
     0
 10
0.0
 20
0.0
 30
0.0
  3
*D21
  1

  0
LINE
  5
474
330
473
100
AcDbEntity
  8
1
  6
Continuous
 62
     2
100
AcDbLine
 10
-144.0
 20
246.070945580842
 30
0.0
 11
15.00000000000003
 21
246.070945580842
 31
0.0
  0
LINE
  5
475
330
473
100
AcDbEntity
  8
1
  6
Continuous
 62
     2
100
AcDbLine
 10
15.00000000000003
 20
153.7
 30
0.0
 11
15.00000000000003
 21
248.070945580842
 31
0.0
  0
LINE
  5
476
330
473
100
AcDbEntity
  8
1
  6
Continuous
 62
     2
100
AcDbLine
 10
-144.0
 20
152.3172798364529
 30
0.0
 11
-144.0
 21
248.070945580842
 31
0.0
  0
SOLID
  5
477
330
473
100
AcDbEntity
  8
1
 62
     2
100
AcDbTrace
 10
-137.0
 20
246.9925130639538
 30
0.0
 11
-137.0
 21
245.1493780977302
 31
0.0
 12
-144.0
 22
246.070945580842
 32
0.0
 13
-144.0
 23
246.070945580842
 33
0.0
  0
SOLID
  5
478
330
473
100
AcDbEntity
  8
1
 62
     2
100
AcDbTrace
 10
8.00000000000003
 20
245.1493780977302
 30
0.0
 11
8.00000000000003
 21
246.9925130639538
 31
0.0
 12
15.00000000000003
 22
246.070945580842
 32
0.0
 13
15.00000000000003
 23
246.070945580842
 33
0.0
  0
MTEXT
  5
479
330
473
100
AcDbEntity
  8
1
 62
     3
100
AcDbMText
 10
-67.98960809400691
 20
250.070945580842
 30
0.0
 40
7.0
 41
0.0
 71
     7
 72
     1
  1
k
  7
CONVERTER_11
 11
0.9999999999970621
 21
2.424068405545307E-6
 31
0.0
 73
     1
 44
0.60024009603842
  0
ENDBLK
  5
47B
330
473
100
AcDbEntity
  8
0
100
AcDbBlockEnd
  0
BLOCK
  5
487
330
47E
100
AcDbEntity
  8
0
100
AcDbBlockBegin
  2
*D22
 70
     1
 71
     0
 10
0.0
 20
0.0
 30
0.0
  3
*D22
  1

  0
LINE
  5
47F
330
47E
100
AcDbEntity
  8
1
  6
Continuous
 62
     2
100
AcDbLine
 10
-158.0
 20
197.078088742
 30
0.0
 11
-144.0
 21
197.078088742
 31
0.0
  0
LINE
  5
480
330
47E
100
AcDbEntity
  8
1
  6
Continuous
 62
     2
100
AcDbLine
 10
-144.0
 20
197.078088742
 30
0.0
 11
-130.0
 21
197.078088742
 31
0.0
  0
LINE
  5
481
330
47E
100
AcDbEntity
  8
1
  6
Continuous
 62
     2
100
AcDbLine
 10
-130.0
 20
197.078088742
 30
0.0
 11
-116.0
 21
197.078088742
 31
0.0
  0
LINE
  5
482
330
47E
100
AcDbEntity
  8
1
  6
Continuous
 62
     2
100
AcDbLine
 10
-130.0
 20
145.0
 30
0.0
 11
-130.0
 21
199.078088742
 31
0.0
  0
LINE
  5
483
330
47E
100
AcDbEntity
  8
1
  6
Continuous
 62
     2
100
AcDbLine
 10
-144.0
 20
152.3172798364529
 30
0.0
 11
-144.0
 21
199.078088742
 31
0.0
  0
SOLID
  5
484
330
47E
100
AcDbEntity
  8
1
 62
     2
100
AcDbTrace
 10
-151.0
 20
196.1565212588882
 30
0.0
 11
-151.0
 21
197.9996562251118
 31
0.0
 12
-144.0
 22
197.078088742
 32
0.0
 13
-144.0
 23
197.078088742
 33
0.0
  0
SOLID
  5
485
330
47E
100
AcDbEntity
  8
1
 62
     2
100
AcDbTrace
 10
-123.0
 20
197.9996562251118
 30
0.0
 11
-123.0
 21
196.1565212588882
 31
0.0
 12
-130.0
 22
197.078088742
 32
0.0
 13
-130.0
 23
197.078088742
 33
0.0
  0
MTEXT
  5
486
330
47E
100
AcDbEntity
  8
1
 62
     3
100
AcDbMText
 10
-140.009352555487
 20
201.078088742
 30
0.0
 40
7.0
 41
0.0
 71
     7
 72
     1
  1
14
  7
CONVERTER_11
 11
0.9999999999970621
 21
2.424068405545307E-6
 31
0.0
 73
     1
 44
0.60024009603842
  0
ENDBLK
  5
488
330
47E
100
AcDbEntity
  8
0
100
AcDbBlockEnd
  0
BLOCK
  5
492
330
48B
100
AcDbEntity
  8
0
100
AcDbBlockBegin
  2
*D23
 70
     1
 71
     0
 10
0.0
 20
0.0
 30
0.0
  3
*D23
  1

  0
LINE
  5
48C
330
48B
100
AcDbEntity
  8
1
  6
Continuous
 62
     2
100
AcDbLine
 10
129.809397513309
 20
248.170661290323
 30
0.0
 11
219.809397513309
 21
248.170661290323
 31
0.0
  0
LINE
  5
48D
330
48B
100
AcDbEntity
  8
1
  6
Continuous
 62
     2
100
AcDbLine
 10
219.809397513309
 20
117.0
 30
0.0
 11
219.809397513309
 21
250.170661290323
 31
0.0
  0
LINE
  5
48E
330
48B
100
AcDbEntity
  8
1
  6
Continuous
 62
     2
100
AcDbLine
 10
129.809397513309
 20
153.3172798364529
 30
0.0
 11
129.809397513309
 21
250.170661290323
 31
0.0
  0
SOLID
  5
48F
330
48B
100
AcDbEntity
  8
1
 62
     2
100
AcDbTrace
 10
136.809397513309
 20
249.0922287734348
 30
0.0
 11
136.809397513309
 21
247.2490938072112
 31
0.0
 12
129.809397513309
 22
248.170661290323
 32
0.0
 13
129.809397513309
 23
248.170661290323
 33
0.0
  0
SOLID
  5
490
330
48B
100
AcDbEntity
  8
1
 62
     2
100
AcDbTrace
 10
212.809397513309
 20
247.2490938072112
 30
0.0
 11
212.809397513309
 21
249.0922287734348
 31
0.0
 12
219.809397513309
 22
248.170661290323
 32
0.0
 13
219.809397513309
 23
248.170661290323
 33
0.0
  0
MTEXT
  5
491
330
48B
100
AcDbEntity
  8
1
 62
     3
100
AcDbMText
 10
170.609397513309
 20
252.170661290323
 30
0.0
 40
7.0
 41
0.0
 71
     7
 72
     1
  1
90
  7
CONVERTER_11
 11
0.9999999999970621
 21
2.424068405545307E-6
 31
0.0
 73
     1
 44
0.60024009603842
  0
ENDBLK
  5
493
330
48B
100
AcDbEntity
  8
0
100
AcDbBlockEnd
  0
BLOCK
  5
49F
330
496
100
AcDbEntity
  8
0
100
AcDbBlockBegin
  2
*D24
 70
     1
 71
     0
 10
0.0
 20
0.0
 30
0.0
  3
*D24
  1

  0
LINE
  5
497
330
496
100
AcDbEntity
  8
1
  6
Continuous
 62
     2
100
AcDbLine
 10
-211.124579728394
 20
93.5
 30
0.0
 11
-211.124579728394
 21
107.5
 31
0.0
  0
LINE
  5
498
330
496
100
AcDbEntity
  8
1
  6
Continuous
 62
     2
100
AcDbLine
 10
-211.124579728394
 20
107.5
 30
0.0
 11
-211.124579728394
 21
126.5
 31
0.0
  0
LINE
  5
499
330
496
100
AcDbEntity
  8
1
  6
Continuous
 62
     2
100
AcDbLine
 10
-211.124579728394
 20
126.5
 30
0.0
 11
-211.124579728394
 21
140.5
 31
0.0
  0
LINE
  5
49A
330
496
100
AcDbEntity
  8
1
  6
Continuous
 62
     2
100
AcDbLine
 10
-183.5
 20
126.5
 30
0.0
 11
-213.124579728394
 21
126.5
 31
0.0
  0
LINE
  5
49B
330
496
100
AcDbEntity
  8
1
  6
Continuous
 62
     2
100
AcDbLine
 10
-183.5
 20
107.5
 30
0.0
 11
-213.124579728394
 21
107.5
 31
0.0
  0
SOLID
  5
49C
330
496
100
AcDbEntity
  8
1
 62
     2
100
AcDbTrace
 10
-210.2030122452822
 20
100.5
 30
0.0
 11
-212.0461472115058
 21
100.5
 31
0.0
 12
-211.124579728394
 22
107.5
 32
0.0
 13
-211.124579728394
 23
107.5
 33
0.0
  0
SOLID
  5
49D
330
496
100
AcDbEntity
  8
1
 62
     2
100
AcDbTrace
 10
-212.0461472115058
 20
133.5
 30
0.0
 11
-210.2030122452822
 21
133.5
 31
0.0
 12
-211.124579728394
 22
126.5
 32
0.0
 13
-211.124579728394
 23
126.5
 33
0.0
  0
MTEXT
  5
49E
330
496
100
AcDbEntity
  8
1
 62
     3
100
AcDbMText
 10
-216.874579728394
 20
101.6
 30
0.0
 40
7.0
 41
0.0
 71
     7
 72
     1
  1
\C3;{\Fgdt;n}\C3;\C3;19\C2;\H4.2;\S^ k5;
  7
CONVERTER_11
 11
0.0
 21
1.0
 31
0.0
 73
     1
 44
0.60024009603842
  0
ENDBLK
  5
4A0
330
496
100
AcDbEntity
  8
0
100
AcDbBlockEnd
  0
BLOCK
  5
4A8
330
4A3
100
AcDbEntity
  8
0
100
AcDbBlockBegin
  2
*D25
 70
     1
 71
     0
 10
0.0
 20
0.0
 30
0.0
  3
*D25
  1

  0
LINE
  5
4A4
330
4A3
100
AcDbEntity
  8
1
  6
Continuous
 62
     2
100
AcDbLine
 10
122.0270244409202
 20
129.1049067203566
 30
0.0
 11
90.03652345687892
 21
161.0954077043979
 31
0.0
  0
LINE
  5
4A5
330
4A3
100
AcDbEntity
  8
1
  6
Continuous
 62
     2
100
AcDbLine
 10
135.1231278473403
 20
162.0
 30
0.0
 11
110.7133159419354
 21
137.5901880945952
 31
0.0
  0
SOLID
  5
4A6
330
4A3
100
AcDbEntity
  8
1
 62
     2
100
AcDbTrace
 10
117.7289235892437
 20
134.7063008052918
 30
0.0
 11
116.425630355985
 21
133.4030075720331
 31
0.0
 12
112.1275295043085
 22
139.0044016569683
 32
0.0
 13
112.1275295043085
 23
139.0044016569683
 33
0.0
  0
MTEXT
  5
4A7
330
4A3
100
AcDbEntity
  8
1
 62
     3
100
AcDbMText
 10
89.99409705000772
 20
166.7946883607615
 30
0.0
 40
7.0
 41
0.0
 71
     7
 72
     1
  1
\C3;{\Fgdt;n}\C3;120
  7
CONVERTER_11
 11
0.7071067811865466
 21
-0.7071067811865486
 31
0.0
 73
     1
 44
0.60024009603842
  0
ENDBLK
  5
4A9
330
4A3
100
AcDbEntity
  8
0
100
AcDbBlockEnd
  0
BLOCK
  5
4AF
330
4AB
100
AcDbEntity
  8
0
100
AcDbBlockBegin
  2
*D26
 70
     1
 71
     0
 10
0.0
 20
0.0
 30
0.0
  3
*D26
  1

  0
LINE
  5
4AC
330
4AB
100
AcDbEntity
  8
1
  6
Continuous
 62
     2
100
AcDbLine
 10
174.809397513309
 20
116.9999999999999
 30
0.0
 11
246.3332917257151
 21
161.8096061688898
 31
0.0
  0
SOLID
  5
4AD
330
4AB
100
AcDbEntity
  8
1
 62
     2
100
AcDbTrace
 10
222.623472233764
 20
148.0429306807954
 30
0.0
 11
223.6020142330003
 21
146.4810081284752
 31
0.0
 12
217.18075340811
 22
143.5455871970485
 32
0.0
 13
217.18075340811
 23
143.5455871970485
 33
0.0
  0
MTEXT
  5
4AE
330
4AB
100
AcDbEntity
  8
1
 62
     3
100
AcDbMText
 10
224.5154385300477
 20
152.8609257112857
 30
0.0
 40
7.0
 41
0.0
 71
     7
 72
     1
  1
\C3;{\Fgdt;n}\C3;100
  7
CONVERTER_11
 11
0.847427117896021
 21
0.5309117439409712
 31
0.0
 73
     1
 44
0.60024009603842
  0
ENDBLK
  5
4B0
330
4AB
100
AcDbEntity
  8
0
100
AcDbBlockEnd
  0
BLOCK
  5
4B9
330
4B2
100
AcDbEntity
  8
0
100
AcDbBlockBegin
  2
*D27
 70
     1
 71
     0
 10
0.0
 20
0.0
 30
0.0
  3
*D27
  1

  0
LINE
  5
4B3
330
4B2
100
AcDbEntity
  8
1
  6
Continuous
 62
     2
100
AcDbLine
 10
-115.6598056783107
 20
25.11910557228944
 30
0.0
 11
-94.16383278445839
 21
25.09046308699293
 31
0.0
  0
LINE
  5
4B4
330
4B2
100
AcDbEntity
  8
1
  6
Continuous
 62
     2
100
AcDbLine
 10
-94.19060248669102
 20
5.0
 30
0.0
 11
-94.16116787042901
 21
27.09046131155045
 31
0.0
  0
LINE
  5
4B5
330
4B2
100
AcDbEntity
  8
1
  6
Continuous
 62
     2
100
AcDbLine
 10
-115.6905940533392
 20
2.01265834163944
 30
0.0
 11
-115.6571407642814
 21
27.11910379684695
 31
0.0
  0
SOLID
  5
4B6
330
4B2
100
AcDbEntity
  8
1
 62
     2
100
AcDbTrace
 10
-108.658583943302
 20
26.03134503820337
 30
0.0
 11
-108.6610398414168
 21
24.18821170816989
 31
0.0
 12
-115.6598056783107
 22
25.11910557228944
 32
0.0
 13
-115.6598056783107
 23
25.11910557228944
 33
0.0
  0
SOLID
  5
4B7
330
4B2
100
AcDbEntity
  8
1
 62
     2
100
AcDbTrace
 10
-101.1650545194671
 20
24.17822362107901
 30
0.0
 11
-101.1625986213523
 21
26.02135695111248
 31
0.0
 12
-94.16383278445839
 22
25.09046308699293
 32
0.0
 13
-94.16383278445839
 23
25.09046308699293
 33
0.0
  0
MTEXT
  5
4B8
330
4B2
100
AcDbEntity
  8
1
 62
     3
100
AcDbMText
 10
-117.4402328740331
 20
31.39648348755724
 30
0.0
 40
7.0
 41
0.0
 71
     7
 72
     1
  1
\C3;21.5\C2;\H4.2;\S^ -0,1;
  7
CONVERTER_11
 11
0.9999991122787582
 21
-0.001332457014688258
 31
0.0
 73
     1
 44
0.60024009603842
  0
ENDBLK
  5
4BA
330
4B2
100
AcDbEntity
  8
0
100
AcDbBlockEnd
  0
BLOCK
  5
4C5
330
4BC
100
AcDbEntity
  8
0
100
AcDbBlockBegin
  2
*D28
 70
     1
 71
     0
 10
0.0
 20
0.0
 30
0.0
  3
*D28
  1

  0
LINE
  5
4BD
330
4BC
100
AcDbEntity
  8
1
  6
Continuous
 62
     2
100
AcDbLine
 10
174.809397513309
 20
59.46219163271499
 30
0.0
 11
174.809397513309
 21
14.80250849661329
 31
0.0
  0
LINE
  5
4BE
330
4BC
100
AcDbEntity
  8
1
  6
Continuous
 62
     2
100
AcDbLine
 10
130.8638486167664
 20
73.0544511034575
 30
0.0
 11
102.5448582510096
 21
44.7354607377007
 31
0.0
  0
LINE
  5
4BF
330
4BC
100
AcDbEntity
  8
1
  6
Continuous
 62
     2
100
AcDbLine
 10
174.809397513309
 20
14.80250849661329
 30
0.0
 11
174.809397513309
 21
12.80250849661329
 31
0.0
  0
LINE
  5
4C0
330
4BC
100
AcDbEntity
  8
1
  6
Continuous
 62
     2
100
AcDbLine
 10
102.5448582510096
 20
44.7354607377007
 30
0.0
 11
101.1306446886365
 21
43.32124717532761
 31
0.0
  0
ARC
  5
4C1
330
4BC
100
AcDbEntity
  8
1
  6
Continuous
 62
     2
100
AcDbCircle
 10
174.809397513309
 20
117.0000000000001
 30
0.0
 40
102.1974915033868
100
AcDbArc
 50
-135.0
 51
-90.0
  0
SOLID
  5
4C2
330
4BC
100
AcDbEntity
  8
1
 62
     2
100
AcDbTrace
 10
108.2901378348122
 20
40.63167600530188
 30
0.0
 11
107.0322345345101
 21
39.2845213034191
 31
0.0
 12
102.5448582510096
 22
44.7354607377007
 32
0.0
 13
102.5448582510096
 23
44.7354607377007
 33
0.0
  0
SOLID
  5
4C3
330
4BC
100
AcDbEntity
  8
1
 62
     2
100
AcDbTrace
 10
167.7819470756924
 20
14.12116645859448
 30
0.0
 11
167.8450573469805
 21
15.9632206373237
 31
0.0
 12
174.809397513309
 22
14.80250849661329
 32
0.0
 13
174.809397513309
 23
14.80250849661329
 33
0.0
  0
MTEXT
  5
4C4
330
4BC
100
AcDbEntity
  8
1
 62
     3
100
AcDbMText
 10
128.7801863519045
 20
30.04021241161782
 30
0.0
 40
7.0
 41
0.0
 71
     7
 72
     1
  1
45{\Fgdt;~}
  7
CONVERTER_11
 11
0.911378245391035
 21
-0.4115697921713387
 31
0.0
 73
     1
 44
0.60024009603842
  0
ENDBLK
  5
4C6
330
4BC
100
AcDbEntity
  8
0
100
AcDbBlockEnd
  0
ENDSEC
  0
SECTION
  2
ENTITIES
  0
INSERT
  5
4F
330
1F
100
AcDbEntity
  8
1
100
AcDbBlockReference
  2
tb_frame_A3
 10
0.0
 20
0.0
 30
0.0
 41
2.0
 42
2.0
 43
2.0
  0
INSERT
  5
50
330
1F
100
AcDbEntity
  8
0
100
AcDbBlockReference
  2
Winkelflanschdose_8-polig_drehbar__1
 10
354.8254836891306
 20
581.51293335638
 30
0.0
  0
INSERT
  5
51
330
1F
100
AcDbEntity
  8
1
100
AcDbBlockReference
  2
Linsenschraube_DIN_7985_-_M2_5_x_6_-__-___2
 10
-44.58989599999997
 20
164.4999756716065
 30
0.0
  0
INSERT
  5
52
330
1F
100
AcDbEntity
  8
1
100
AcDbBlockReference
  2
Linsenschraube_DIN_7985_-_M2_5_x_6_-__-___3
 10
-64.52365599999987
 20
-56.55955924482868
 30
0.0
  0
INSERT
  5
53
330
1F
100
AcDbEntity
  8
0
100
AcDbBlockReference
  2
Winkelflanschdose_8-polig_drehbar__4
 10
359.5238149551591
 20
-0.66173146347131
 30
0.0
  0
INSERT
  5
54
330
1F
100
AcDbEntity
  8
1
100
AcDbBlockReference
  2
Flanschlagerschild
 10
87.99605084426703
 20
285.539584626464
 30
0.0
  0
INSERT
  5
55
330
1F
100
AcDbEntity
  8
1
100
AcDbBlockReference
  2
Rotor
 10
65.86845643824543
 20
237.602005350644
 30
0.0
  0
INSERT
  5
56
330
1F
100
AcDbEntity
  8
1
100
AcDbBlockReference
  2
Radialdichtring_B15x30x7
 10
22.41441872037863
 20
34.35703578199041
 30
0.0
  0
POINT
  5
3AF
330
1F
100
AcDbEntity
  8
1
 62
     3
 60
     1
100
AcDbPoint
 10
-46.97654846213997
 20
-2.5280265313092
 30
0.0
  0
POINT
  5
3B0
330
1F
100
AcDbEntity
  8
1
 62
     3
 60
     1
100
AcDbPoint
 10
-47.97654846213997
 20
-4.5280265313092
 30
0.0
  0
POINT
  5
3B1
330
1F
100
AcDbEntity
  8
1
 62
     3
 60
     1
100
AcDbPoint
 10
113.4102922059231
 20
-150.0000000000001
 30
0.0
  0
POINT
  5
3B2
330
1F
100
AcDbEntity
  8
1
 62
     3
 60
     1
100
AcDbPoint
 10
113.4102922059231
 20
-26.00000000000019
 30
0.0
  0
POINT
  5
3B3
330
1F
100
AcDbEntity
  8
1
 62
     3
 60
     1
100
AcDbPoint
 10
160.317922021331
 20
257.649872918835
 30
0.0
  0
LINE
  5
3B4
330
1F
100
AcDbEntity
  8
1
  6
Continuous
 62
     7
100
AcDbLine
 10
-2.97654846213997
 20
-4.5280265313092
 30
0.0
 11
-1.97654846213997
 21
-2.5280265313092
 31
0.0
  0
LINE
  5
3B5
330
1F
100
AcDbEntity
  8
1
  6
Continuous
 62
     7
100
AcDbLine
 10
-47.97654846213997
 20
-4.5280265313092
 30
0.0
 11
-46.97654846213997
 21
-2.5280265313092
 31
0.0
  0
LINE
  5
3B6
330
1F
100
AcDbEntity
  8
1
  6
Continuous
 62
     7
100
AcDbLine
 10
113.4102922059231
 20
-26.00000000000019
 30
0.0
 11
39.41029220592311
 21
-26.00000000000011
 31
0.0
  0
LINE
  5
3B7
330
1F
100
AcDbEntity
  8
1
  6
Continuous
 62
     7
100
AcDbLine
 10
113.4102922059231
 20
-150.0000000000001
 30
0.0
 11
-280.589707794077
 21
-150.0000000000001
 31
0.0
  0
LINE
  5
3B8
330
1F
100
AcDbEntity
  8
1
  6
Continuous
 62
     7
100
AcDbLine
 10
113.4102922059231
 20
-26.00000000000019
 30
0.0
 11
113.4102922059231
 21
-150.0000000000001
 31
0.0
  0
LINE
  5
3B9
330
1F
100
AcDbEntity
  8
1
  6
Continuous
 62
     7
100
AcDbLine
 10
231.4102922059231
 20
-26.00000000000017
 30
0.0
 11
113.4102922059231
 21
-26.00000000000019
 31
0.0
  0
LINE
  5
3BA
330
1F
100
AcDbEntity
  8
1
  6
Continuous
 62
     7
100
AcDbLine
 10
39.41029220592311
 20
-26.00000000000011
 30
0.0
 11
-78.58970779407696
 21
-26.00000000000011
 31
0.0
  0
LINE
  5
3BB
330
1F
100
AcDbEntity
  8
1
  6
Continuous
 62
     7
100
AcDbLine
 10
-78.58970779407696
 20
-26.00000000000011
 30
0.0
 11
-152.5897077940771
 21
-26.00000000000011
 31
0.0
  0
LINE
  5
3BC
330
1F
100
AcDbEntity
  8
1
  6
Continuous
 62
     7
100
AcDbLine
 10
-152.5897077940771
 20
-26.00000000000011
 30
0.0
 11
-280.589707794077
 21
-26.00000000000011
 31
0.0
  0
LINE
  5
3BD
330
1F
100
AcDbEntity
  8
1
  6
Continuous
 62
     7
100
AcDbLine
 10
263.4102922059232
 20
-26.00000000000017
 30
0.0
 11
231.4102922059231
 21
-26.00000000000017
 31
0.0
  0
LINE
  5
3BE
330
1F
100
AcDbEntity
  8
1
  6
Continuous
 62
     7
100
AcDbLine
 10
263.410292205923
 20
-131.0000000000001
 30
0.0
 11
263.410292205923
 21
-150.0000000000001
 31
0.0
  0
LINE
  5
3BF
330
1F
100
AcDbEntity
  8
1
  6
Continuous
 62
     7
100
AcDbLine
 10
263.4102922059232
 20
-112.0
 30
0.0
 11
263.410292205923
 21
-131.0000000000001
 31
0.0
  0
LINE
  5
3C0
330
1F
100
AcDbEntity
  8
1
  6
Continuous
 62
     7
100
AcDbLine
 10
263.410292205923
 20
-93.0
 30
0.0
 11
263.4102922059232
 21
-112.0
 31
0.0
  0
LINE
  5
3C1
330
1F
100
AcDbEntity
  8
1
  6
Continuous
 62
     7
100
AcDbLine
 10
-116.0353103185415
 20
-60.3159958677561
 30
0.0
 11
-115.0353103185415
 21
-59.3159958677561
 31
0.0
  0
LINE
  5
3C2
330
1F
100
AcDbEntity
  8
1
  6
Continuous
 62
     7
100
AcDbLine
 10
-42.03531031854148
 20
-61.3159958677561
 30
0.0
 11
-41.03531031854148
 21
-60.3159958677561
 31
0.0
  0
LINE
  5
3C3
330
1F
100
AcDbEntity
  8
1
  6
Continuous
 62
     2
100
AcDbLine
 10
263.4102922059232
 20
-74.0000000000001
 30
0.0
 11
-280.589707794077
 21
-74.0000000000001
 31
0.0
  0
LINE
  5
3C4
330
1F
100
AcDbEntity
  8
1
  6
Continuous
 62
     7
100
AcDbLine
 10
39.41029220592311
 20
-26.00000000000011
 30
0.0
 11
39.41029220592299
 21
-150.0000000000001
 31
0.0
  0
LINE
  5
3C5
330
1F
100
AcDbEntity
  8
1
  6
Continuous
 62
     7
100
AcDbLine
 10
263.410292205923
 20
-93.0
 30
0.0
 11
-280.589707794077
 21
-93.0
 31
0.0
  0
LINE
  5
3C6
330
1F
100
AcDbEntity
  8
1
  6
Continuous
 62
     2
100
AcDbLine
 10
263.4102922059232
 20
-112.0
 30
0.0
 11
-280.589707794077
 21
-112.0
 31
0.0
  0
LINE
  5
3C7
330
1F
100
AcDbEntity
  8
1
  6
Continuous
 62
     2
100
AcDbLine
 10
263.410292205923
 20
-131.0000000000001
 30
0.0
 11
-280.589707794077
 21
-131.0000000000001
 31
0.0
  0
LINE
  5
3C8
330
1F
100
AcDbEntity
  8
1
  6
Continuous
 62
     7
100
AcDbLine
 10
263.410292205923
 20
-150.0000000000001
 30
0.0
 11
113.4102922059231
 21
-150.0000000000001
 31
0.0
  0
LINE
  5
3C9
330
1F
100
AcDbEntity
  8
1
  6
Continuous
 62
     7
100
AcDbLine
 10
-280.589707794077
 20
-26.00000000000011
 30
0.0
 11
-280.589707794077
 21
-150.0000000000001
 31
0.0
  0
LINE
  5
3CA
330
1F
100
AcDbEntity
  8
1
  6
Continuous
 62
     7
100
AcDbLine
 10
231.4102922059231
 20
-26.00000000000017
 30
0.0
 11
231.4102922059231
 21
-150.0000000000001
 31
0.0
  0
LINE
  5
3CB
330
1F
100
AcDbEntity
  8
1
  6
Continuous
 62
     7
100
AcDbLine
 10
-78.58970779407696
 20
-26.00000000000011
 30
0.0
 11
-78.58970779407696
 21
-150.0000000000001
 31
0.0
  0
LINE
  5
3CC
330
1F
100
AcDbEntity
  8
1
  6
Continuous
 62
     7
100
AcDbLine
 10
-152.5897077940771
 20
-26.00000000000011
 30
0.0
 11
-152.5897077940771
 21
-150.0000000000001
 31
0.0
  0
LINE
  5
3CD
330
1F
100
AcDbEntity
  8
1
  6
Continuous
 62
     7
100
AcDbLine
 10
263.4102922059232
 20
-26.00000000000017
 30
0.0
 11
263.410292205923
 21
-93.0
 31
0.0
  0
LINE
  5
3CE
330
1F
100
AcDbEntity
  8
1
  6
Continuous
 62
     2
100
AcDbLine
 10
160.317922021331
 20
257.649872918835
 30
0.0
 11
166.317922021331
 21
257.649872918835
 31
0.0
  0
LINE
  5
3CF
330
1F
100
AcDbEntity
  8
1
  6
Continuous
 62
     2
100
AcDbLine
 10
166.317922021331
 20
257.649872918835
 30
0.0
 11
166.317922021331
 21
251.649872918835
 31
0.0
  0
LINE
  5
3D0
330
1F
100
AcDbEntity
  8
1
  6
Continuous
 62
     2
100
AcDbLine
 10
166.317922021331
 20
251.649872918835
 30
0.0
 11
160.317922021331
 21
251.649872918835
 31
0.0
  0
LINE
  5
3D1
330
1F
100
AcDbEntity
  8
1
  6
Continuous
 62
     2
100
AcDbLine
 10
160.317922021331
 20
251.649872918835
 30
0.0
 11
160.317922021331
 21
257.649872918835
 31
0.0
  0
LEADER
  5
3D2
330
1F
100
AcDbEntity
  8
1
  6
Continuous
 62
     2
100
AcDbLeader
  3
Standard
 71
     0
 76
     5
 10
-186.451161286082
 20
114.3728485582577
 30
0.0
 10
-184.0
 20
117.0
 30
0.0
 10
-188.80335280016
 20
120.7146752598758
 30
0.0
 10
-188.80335280016
 20
204.0
 30
0.0
 10
-241.018187142864
 20
204.0
 30
0.0
  0
MTEXT
  5
3D3
330
1F
100
AcDbEntity
  8
1
 62
     3
100
AcDbMText
 10
172.4102922059232
 20
-140.5
 30
0.0
 40
7.0
 41
0.0
 71
     5
 72
     1
  1
max. 280
  7
CONVERTER_11
 73
     1
 44
1.32052821128451
  0
MTEXT
  5
3D4
330
1F
100
AcDbEntity
  8
1
 62
     3
100
AcDbMText
 10
172.4102922059232
 20
-121.5
 30
0.0
 40
7.0
 41
0.0
 71
     5
 72
     1
  1
max. 240
  7
CONVERTER_11
 73
     1
 44
1.32052821128451
  0
MTEXT
  5
3D5
330
1F
100
AcDbEntity
  8
1
 62
     3
100
AcDbMText
 10
172.4102922059232
 20
-102.5
 30
0.0
 40
7.0
 41
0.0
 71
     5
 72
     1
  1
max. 200
  7
CONVERTER_11
 73
     1
 44
1.32052821128451
  0
MTEXT
  5
3D6
330
1F
100
AcDbEntity
  8
1
 62
     3
100
AcDbMText
 10
76.41029220592308
 20
-140.5
 30
0.0
 40
7.0
 41
0.0
 71
     5
 72
     1
  1
max. 232
  7
CONVERTER_11
 73
     1
 44
1.32052821128451
  0
MTEXT
  5
3D7
330
1F
100
AcDbEntity
  8
1
 62
     3
100
AcDbMText
 10
76.41029220592308
 20
-121.5
 30
0.0
 40
7.0
 41
0.0
 71
     5
 72
     1
  1
max. 192
  7
CONVERTER_11
 73
     1
 44
1.32052821128451
  0
MTEXT
  5
3D8
330
1F
100
AcDbEntity
  8
1
 62
     3
100
AcDbMText
 10
76.41029220592308
 20
-102.5
 30
0.0
 40
7.0
 41
0.0
 71
     5
 72
     1
  1
max. 152
  7
CONVERTER_11
 73
     1
 44
1.32052821128451
  0
MTEXT
  5
3D9
330
1F
100
AcDbEntity
  8
1
 62
     7
100
AcDbMText
 10
172.4102922059232
 20
-82.5000000000001
 30
0.0
 40
7.0
 41
0.0
 71
     5
 72
     1
  1
k
  7
CONVERTER_11
 73
     1
 44
1.32052821128451
  0
MTEXT
  5
3DA
330
1F
100
AcDbEntity
  8
1
 62
     7
100
AcDbMText
 10
76.41029220592318
 20
-82.5000000000001
 30
0.0
 40
7.0
 41
0.0
 71
     5
 72
     1
  1
k
  7
CONVERTER_11
 73
     1
 44
1.32052821128451
  0
MTEXT
  5
3DB
330
1F
100
AcDbEntity
  8
1
 62
     7
100
AcDbMText
 10
-59.61025255692692
 20
7.52551451090605
 30
0.0
 40
7.0
 41
0.0
 71
     4
 72
     1
  1
Sonderausführung /S23\PSpecial construction /S23\PExecution speciale /S23
  7
CONVERTER_11
 73
     1
 44
1.32052821128451
  0
MTEXT
  5
3DC
330
1F
100
AcDbEntity
  8
1
 62
     3
100
AcDbMText
 10
245.9642247889644
 20
-12.97060184166946
 30
0.0
 40
7.0
 41
0.0
 71
     5
 72
     1
  1
K3002
  7
CONVERTER_11
 73
     1
 44
1.32052821128451
  0
MTEXT
  5
3DD
330
1F
100
AcDbEntity
  8
1
 62
     7
100
AcDbMText
 10
-150.0983092322843
 20
-51.29070136301937
 30
0.0
 40
7.0
 41
0.0
 71
     4
 72
     1
  1
mit Resolver\Pwith resolver\Pavec resolveur
  7
CONVERTER_11
 73
     1
 44
1.08043217286915
  0
MTEXT
  5
3DE
330
1F
100
AcDbEntity
  8
1
 62
     7
100
AcDbMText
 10
111.7016907677152
 20
-51.29070136301937
 30
0.0
 40
7.0
 41
0.0
 71
     4
 72
     1
  1
mit Drehgeber und Bremse\Pwith encoder and brake\Pavec codeur et frein
  7
CONVERTER_11
 73
     1
 44
1.08043217286915
  0
MTEXT
  5
3DF
330
1F
100
AcDbEntity
  8
1
 62
     7
100
AcDbMText
 10
38.42169076771537
 20
-51.29070136301937
 30
0.0
 40
7.0
 41
0.0
 71
     4
 72
     1
  1
mit Drehgeber\Pwith encoder\Pavec codeur
  7
CONVERTER_11
 73
     1
 44
1.08043217286915
  0
MTEXT
  5
3E0
330
1F
100
AcDbEntity
  8
1
 62
     7
100
AcDbMText
 10
-79.77830923228441
 20
-51.29070136301937
 30
0.0
 40
7.0
 41
0.0
 71
     4
 72
     1
  1
mit Resolver und Bremse\Pwith resolver and Brake\Pavec resolveur et frein
  7
CONVERTER_11
 73
     1
 44
1.08043217286915
  0
MTEXT
  5
3E1
330
1F
100
AcDbEntity
  8
1
 62
     7
100
AcDbMText
 10
-273.7665888903611
 20
-51.50000000000023
 30
0.0
 40
7.0
 41
0.0
 71
     4
 72
     1
  1
Motor - Typ
  7
CONVERTER_11
 73
     1
 44
1.32052821128451
  0
MTEXT
  5
3E2
330
1F
100
AcDbEntity
  8
1
 62
     7
100
AcDbMText
 10
-115.589707794077
 20
-83.5000000000001
 30
0.0
 40
7.0
 41
0.0
 71
     5
 72
     1
  1
k
  7
CONVERTER_11
 73
     1
 44
1.32052821128451
  0
MTEXT
  5
3E3
330
1F
100
AcDbEntity
  8
1
 62
     3
100
AcDbMText
 10
-19.58970779407686
 20
-140.5
 30
0.0
 40
7.0
 41
0.0
 71
     5
 72
     1
  1
245
  7
CONVERTER_11
 73
     1
 44
1.32052821128451
  0
MTEXT
  5
3E4
330
1F
100
AcDbEntity
  8
1
 62
     3
100
AcDbMText
 10
-19.58970779407686
 20
-121.5
 30
0.0
 40
7.0
 41
0.0
 71
     5
 72
     1
  1
205
  7
CONVERTER_11
 73
     1
 44
1.32052821128451
  0
MTEXT
  5
3E5
330
1F
100
AcDbEntity
  8
1
 62
     3
100
AcDbMText
 10
-19.58970779407686
 20
-102.5
 30
0.0
 40
7.0
 41
0.0
 71
     5
 72
     1
  1
165
  7
CONVERTER_11
 73
     1
 44
1.32052821128451
  0
MTEXT
  5
3E6
330
1F
100
AcDbEntity
  8
1
 62
     3
100
AcDbMText
 10
-238.559791469196
 20
204.0
 30
0.0
 40
7.0
 41
0.0
 71
     4
 72
     1
  1
Zentrierung\PM4 DIN 332
  7
CONVERTER_11
 73
     1
 44
1.32052821128451
  0
MTEXT
  5
3E7
330
1F
100
AcDbEntity
  8
1
 62
     3
100
AcDbMText
 10
-273.7665888903611
 20
-102.5
 30
0.0
 40
7.0
 41
0.0
 71
     4
 72
     1
  1
KSY 3104... Q (/S23)
  7
CONVERTER_11
 73
     1
 44
1.32052821128451
  0
MTEXT
  5
3E8
330
1F
100
AcDbEntity
  8
1
 62
     3
100
AcDbMText
 10
-273.7665888903611
 20
-121.5
 30
0.0
 40
7.0
 41
0.0
 71
     4
 72
     1
  1
KSY 3108... Q (/S23)
  7
CONVERTER_11
 73
     1
 44
1.32052821128451
  0
MTEXT
  5
3E9
330
1F
100
AcDbEntity
  8
1
 62
     3
100
AcDbMText
 10
-273.7665888903611
 20
-140.5
 30
0.0
 40
7.0
 41
0.0
 71
     4
 72
     1
  1
KSY 31012... Q (/S23)
  7
CONVERTER_11
 73
     1
 44
1.32052821128451
  0
MTEXT
  5
3EA
330
1F
100
AcDbEntity
  8
1
 62
     7
100
AcDbMText
 10
247.4102922059232
 20
-82.5000000000001
 30
0.0
 40
7.0
 41
0.0
 71
     5
 72
     1
  1
q
  7
CONVERTER_11
 73
     1
 44
1.32052821128451
  0
MTEXT
  5
3EB
330
1F
100
AcDbEntity
  8
1
 62
     3
100
AcDbMText
 10
247.4102922059232
 20
-140.5
 30
0.0
 40
7.0
 41
0.0
 71
     5
 72
     1
  1
172
  7
CONVERTER_11
 73
     1
 44
1.32052821128451
  0
MTEXT
  5
3EC
330
1F
100
AcDbEntity
  8
1
 62
     3
100
AcDbMText
 10
247.4102922059232
 20
-121.5
 30
0.0
 40
7.0
 41
0.0
 71
     5
 72
     1
  1
132
  7
CONVERTER_11
 73
     1
 44
1.32052821128451
  0
MTEXT
  5
3ED
330
1F
100
AcDbEntity
  8
1
 62
     3
100
AcDbMText
 10
247.4102922059232
 20
-102.5
 30
0.0
 40
7.0
 41
0.0
 71
     5
 72
     1
  1
92
  7
CONVERTER_11
 73
     1
 44
1.32052821128451
  0
MTEXT
  5
3EE
330
1F
100
AcDbEntity
  8
1
 62
     7
100
AcDbMText
 10
-19.58970779407686
 20
-83.5000000000001
 30
0.0
 40
7.0
 41
0.0
 71
     5
 72
     1
  1
k
  7
CONVERTER_11
 73
     1
 44
1.32052821128451
  0
MTEXT
  5
3EF
330
1F
100
AcDbEntity
  8
1
 62
     3
100
AcDbMText
 10
-115.589707794077
 20
-140.5
 30
0.0
 40
7.0
 41
0.0
 71
     5
 72
     1
  1
199
  7
CONVERTER_11
 73
     1
 44
1.32052821128451
  0
MTEXT
  5
3F0
330
1F
100
AcDbEntity
  8
1
 62
     3
100
AcDbMText
 10
-115.589707794077
 20
-121.5
 30
0.0
 40
7.0
 41
0.0
 71
     5
 72
     1
  1
159
  7
CONVERTER_11
 73
     1
 44
1.32052821128451
  0
MTEXT
  5
3F1
330
1F
100
AcDbEntity
  8
1
 62
     3
100
AcDbMText
 10
-115.589707794077
 20
-102.5
 30
0.0
 40
7.0
 41
0.0
 71
     5
 72
     1
  1
119
  7
CONVERTER_11
 73
     1
 44
1.32052821128451
  0
DIMENSION
  5
3FC
330
1F
100
AcDbEntity
  8
1
100
AcDbDimension
  2
*D10
 10
160.8093975133095
 20
216.384816864842
 30
0.0
 11
172.850209497631
 21
223.884816864842
 31
0.0
 70
    32
  1
<>
 71
     5
 42
-1.0
 53
0.00013888888889
  3
ME10_DIM_10
100
AcDbAlignedDimension
 13
188.8093975133085
 23
202.7499756716067
 33
0.0
 14
160.8093975133095
 24
202.7499756716067
 34
0.0
100
AcDbRotatedDimension
  0
DIMENSION
  5
407
330
1F
100
AcDbEntity
  8
1
100
AcDbDimension
  2
*D11
 10
269.818989534849
 20
71.99999999999997
 30
0.0
 11
262.318989534849
 21
131.3347801486373
 31
0.0
 70
    32
  1
<>
 71
     5
 42
-1.0
 53
90.0
  3
ME10_DIM_11
100
AcDbAlignedDimension
 13
160.809397513309
 23
201.9999756716066
 33
0.0
 14
211.1266773497618
 24
72.0
 34
0.0
 50
90.0
100
AcDbRotatedDimension
  0
DIMENSION
  5
412
330
1F
100
AcDbEntity
  8
1
100
AcDbDimension
  2
*D12
 10
-236.538556451615
 20
77.0
 30
0.0
 11
-247.363556451615
 21
117.0
 31
0.0
 70
    32
  1
<>
 71
     5
 42
-1.0
 53
90.0
  3
ME10_DIM_12
100
AcDbAlignedDimension
 13
-147.0
 23
157.0
 33
0.0
 14
-147.0
 24
77.0
 34
0.0
 50
90.0
100
AcDbRotatedDimension
  0
DIMENSION
  5
41D
330
1F
100
AcDbEntity
  8
1
100
AcDbDimension
  2
*D13
 10
244.750590661174
 20
72.0
 30
0.0
 11
237.250590661174
 21
92.47470783176847
 31
0.0
 70
    32
  1
<>
 71
     5
 42
-1.0
 53
90.0
  3
ME10_DIM_13
100
AcDbAlignedDimension
 13
229.5333733581463
 23
117.0
 33
0.0
 14
211.1266773497618
 24
72.0
 34
0.0
 50
90.0
100
AcDbRotatedDimension
  0
DIMENSION
  5
42A
330
1F
100
AcDbEntity
  8
1
100
AcDbDimension
  2
*D14
 10
-147.0
 20
177.065007057417
 30
0.0
 11
-156.194514680293
 21
184.565007057417
 31
0.0
 70
    32
  1
<>
 71
     5
 42
-1.0
 53
0.00013888888889
  3
ME10_DIM_14
100
AcDbAlignedDimension
 13
-144.0
 23
162.0
 33
0.0
 14
-147.0
 24
157.0
 34
0.0
100
AcDbRotatedDimension
  0
DIMENSION
  5
437
330
1F
100
AcDbEntity
  8
1
100
AcDbDimension
  2
*D15
 10
142.9540584539816
 20
51.389067772512
 30
0.0
 11
126.539945971563
 21
58.889067772512
 31
0.0
 70
    33
  1
<>
 71
     5
 42
-1.0
 53
0.00013888888889
  3
ME10_DIM_15
100
AcDbAlignedDimension
 13
135.9540584539816
 23
81.64466094067271
 33
0.0
 14
142.9540584539816
 24
81.64466094067271
 34
0.0
  0
DIMENSION
  5
444
330
1F
100
AcDbEntity
  8
1
100
AcDbDimension
  2
*D16
 10
-182.0
 20
24.3779880414284
 30
0.0
 11
-178.799042663894
 21
31.8779880414284
 31
0.0
 70
    32
  1
<>
 71
     5
 42
-1.0
 53
0.00013888888889
  3
ME10_DIM_16
100
AcDbAlignedDimension
 13
-177.0
 23
2.0
 33
0.0
 14
-182.0
 24
11.0
 34
0.0
100
AcDbRotatedDimension
  0
DIMENSION
  5
44F
330
1F
100
AcDbEntity
  8
1
100
AcDbDimension
  2
*D17
 10
-177.0
 20
24.3779880414284
 30
0.0
 11
-160.482305850028
 21
31.8779880414284
 31
0.0
 70
    32
  1
<>
 71
     5
 42
-1.0
 53
0.00013888888889
  3
ME10_DIM_17
100
AcDbAlignedDimension
 13
-145.0
 23
2.0
 33
0.0
 14
-177.0
 24
2.0
 34
0.0
100
AcDbRotatedDimension
  0
DIMENSION
  5
45C
330
1F
100
AcDbEntity
  8
1
100
AcDbDimension
  2
*D18
 10
-73.4525393795537
 20
-1.0
 30
0.0
 11
-82.7025393795537
 21
18.1002552679501
 31
0.0
 70
    32
  1
<>
 71
     5
 42
-1.0
 53
90.0
  3
ME10_DIM_18
100
AcDbAlignedDimension
 13
-97.17672429803106
 23
5.0
 33
0.0
 14
-97.176724298031
 24
-1.0
 34
0.0
 50
90.0
100
AcDbRotatedDimension
  0
DIMENSION
  5
467
330
1F
100
AcDbEntity
  8
1
100
AcDbDimension
  2
*D19
 10
-184.0
 20
246.420894558262
 30
0.0
 11
-164.295321771691
 21
253.920894558262
 31
0.0
 70
    32
  1
<>
 71
     5
 42
-1.0
 53
0.00013888888889
  3
ME10_DIM_19
100
AcDbAlignedDimension
 13
-144.0
 23
162.0
 33
0.0
 14
-184.0
 24
126.0
 34
0.0
100
AcDbRotatedDimension
  0
DIMENSION
  5
472
330
1F
100
AcDbEntity
  8
1
100
AcDbDimension
  2
*D20
 10
-144.0
 20
220.87461920658
 30
0.0
 11
-73.6585366198332
 21
228.37461920658
 31
0.0
 70
    32
  1
q
 71
     5
 42
-1.0
 53
0.00013888888889
  3
ME10_DIM_20
100
AcDbAlignedDimension
 13
-11.72875295132157
 23
163.9999756716065
 33
0.0
 14
-144.0
 24
157.0
 34
0.0
100
AcDbRotatedDimension
  0
DIMENSION
  5
47D
330
1F
100
AcDbEntity
  8
1
100
AcDbDimension
  2
*D21
 10
-144.0
 20
246.070945580842
 30
0.0
 11
-66.3096080940069
 21
253.570945580842
 31
0.0
 70
    32
  1
k
 71
     5
 42
-1.0
 53
0.00013888888889
  3
ME10_DIM_21
100
AcDbAlignedDimension
 13
15.00000000000003
 23
153.7
 33
0.0
 14
-144.0
 24
152.3172798364529
 34
0.0
100
AcDbRotatedDimension
  0
DIMENSION
  5
48A
330
1F
100
AcDbEntity
  8
1
100
AcDbDimension
  2
*D22
 10
-144.0
 20
197.078088742
 30
0.0
 11
-136.649352555487
 21
204.578088742
 31
0.0
 70
    32
  1
<>
 71
     5
 42
-1.0
 53
0.00013888888889
  3
ME10_DIM_22
100
AcDbAlignedDimension
 13
-130.0
 23
145.0
 33
0.0
 14
-144.0
 24
152.3172798364529
 34
0.0
100
AcDbRotatedDimension
  0
DIMENSION
  5
495
330
1F
100
AcDbEntity
  8
1
100
AcDbDimension
  2
*D23
 10
129.809397513309
 20
248.170661290323
 30
0.0
 11
174.809397513309
 21
255.670661290323
 31
0.0
 70
    32
  1
<>
 71
     5
 42
-1.0
 53
0.00013888888889
  3
ME10_DIM_23
100
AcDbAlignedDimension
 13
219.809397513309
 23
117.0
 33
0.0
 14
129.809397513309
 24
153.3172798364529
 34
0.0
100
AcDbRotatedDimension
  0
DIMENSION
  5
4A2
330
1F
100
AcDbEntity
  8
1
100
AcDbDimension
  2
*D24
 10
-211.124579728394
 20
107.5
 30
0.0
 11
-220.374579728394
 21
117.0
 31
0.0
 70
    32
  1
<>
 71
     5
 42
-1.0
 53
90.0
  3
ME10_DIM_24
100
AcDbAlignedDimension
 13
-183.5
 23
126.5
 33
0.0
 14
-183.5
 24
107.5
 34
0.0
 50
90.0
100
AcDbRotatedDimension
  0
INSERT
  5
4AA
330
1F
100
AcDbEntity
  8
1
100
AcDbBlockReference
  2
*D25
 10
0.0
 20
0.0
 30
0.0
  0
INSERT
  5
4B1
330
1F
100
AcDbEntity
  8
1
100
AcDbBlockReference
  2
*D26
 10
0.0
 20
0.0
 30
0.0
  0
INSERT
  5
4BB
330
1F
100
AcDbEntity
  8
1
100
AcDbBlockReference
  2
*D27
 10
0.0
 20
0.0
 30
0.0
  0
DIMENSION
  5
4C8
330
1F
100
AcDbEntity
  8
1
100
AcDbDimension
  2
*D28
 10
135.7001106856908
 20
22.58182932602487
 30
0.0
 11
135.834770616113
 21
30.694766350711
 31
0.0
 70
    37
  1
<>
 71
     5
 42
-1.0
  3
ME10_DIM_25
100
AcDb3PointAngularDimension
 13
151.534893908908
 23
93.7254963955991
 33
0.0
 14
174.809397513309
 24
59.462191632715
 34
0.0
 15
174.809397513309
 25
117.0000000000001
 35
0.0
  0
ENDSEC
  0
SECTION
  2
OBJECTS
  0
DICTIONARY
  5
C
330
0
100
AcDbDictionary
281
     1
  3
ACAD_GROUP
350
D
  3
ACAD_LAYOUT
350
1A
  3
ACAD_MLINESTYLE
350
17
  3
ACAD_PLOTSETTINGS
350
19
  3
ACAD_PLOTSTYLENAME
350
E
  0
DICTIONARY
  5
D
102
{ACAD_REACTORS
330
C
102
}
330
C
100
AcDbDictionary
281
     1
  0
DICTIONARY
  5
1A
102
{ACAD_REACTORS
330
C
102
}
330
C
100
AcDbDictionary
281
     1
  3
Layout1
350
1E
  3
Layout2
350
26
  3
Model
350
22
  0
DICTIONARY
  5
17
102
{ACAD_REACTORS
330
C
102
}
330
C
100
AcDbDictionary
281
     1
  3
Standard
350
18
  0
DICTIONARY
  5
19
102
{ACAD_REACTORS
330
C
102
}
330
C
100
AcDbDictionary
281
     1
  0
ACDBDICTIONARYWDFLT
  5
E
102
{ACAD_REACTORS
330
C
102
}
330
C
100
AcDbDictionary
281
     1
  3
Normal
350
F
100
AcDbDictionaryWithDefault
340
F
  0
LAYOUT
  5
1E
102
{ACAD_REACTORS
330
1A
102
}
330
1A
100
AcDbPlotSettings
  1

  2

  4

  6

 40
0.0
 41
0.0
 42
0.0
 43
0.0
 44
0.0
 45
0.0
 46
0.0
 47
0.0
 48
0.0
 49
0.0
140
0.0
141
0.0
142
1.0
143
1.0
 70
   688
 72
     0
 73
     0
 74
     5
  7

 75
    16
 76
     0
 77
     2
 78
   300
147
1.0
148
0.0
149
0.0
100
AcDbLayout
  1
Layout1
 70
     1
 71
     1
 10
0.0
 20
0.0
 11
0.0
 21
0.0
 12
0.0
 22
0.0
 32
0.0
 14
0.0
 24
0.0
 34
0.0
 15
0.0
 25
0.0
 35
0.0
146
0.0
 13
0.0
 23
0.0
 33
0.0
 16
1.0
 26
0.0
 36
0.0
 17
0.0
 27
1.0
 37
0.0
 76
     0
330
1B
  0
LAYOUT
  5
26
102
{ACAD_REACTORS
330
1A
102
}
330
1A
100
AcDbPlotSettings
  1

  2

  4

  6

 40
0.0
 41
0.0
 42
0.0
 43
0.0
 44
0.0
 45
0.0
 46
0.0
 47
0.0
 48
0.0
 49
0.0
140
0.0
141
0.0
142
1.0
143
1.0
 70
   688
 72
     0
 73
     0
 74
     5
  7

 75
    16
 76
     0
 77
     2
 78
   300
147
1.0
148
0.0
149
0.0
100
AcDbLayout
  1
Layout2
 70
     1
 71
     2
 10
0.0
 20
0.0
 11
0.0
 21
0.0
 12
0.0
 22
0.0
 32
0.0
 14
0.0
 24
0.0
 34
0.0
 15
0.0
 25
0.0
 35
0.0
146
0.0
 13
0.0
 23
0.0
 33
0.0
 16
1.0
 26
0.0
 36
0.0
 17
0.0
 27
1.0
 37
0.0
 76
     0
330
23
  0
LAYOUT
  5
22
102
{ACAD_REACTORS
330
1A
102
}
330
1A
100
AcDbPlotSettings
  1

  2

  4

  6

 40
0.0
 41
0.0
 42
0.0
 43
0.0
 44
0.0
 45
0.0
 46
0.0
 47
0.0
 48
0.0
 49
0.0
140
0.0
141
0.0
142
1.0
143
1.0
 70
  1712
 72
     0
 73
     0
 74
     0
  7

 75
     0
 76
     0
 77
     2
 78
   300
147
1.0
148
0.0
149
0.0
100
AcDbLayout
  1
Model
 70
     1
 71
     0
 10
0.0
 20
0.0
 11
0.0
 21
0.0
 12
0.0
 22
0.0
 32
0.0
 14
-397.760000000002
 24
-285.0
 34
0.0
 15
410.0
 25
284.0
 35
0.0
146
0.0
 13
0.0
 23
0.0
 33
0.0
 16
1.0
 26
0.0
 36
0.0
 17
0.0
 27
1.0
 37
0.0
 76
     0
330
1F
  0
MLINESTYLE
  5
18
102
{ACAD_REACTORS
330
17
102
}
330
17
100
AcDbMlineStyle
  2
Standard
 70
     0
  3

 62
   256
 51
90.0
 52
90.0
 71
     2
 49
0.5
 62
   256
  6
BYLAYER
 49
-0.5
 62
   256
  6
BYLAYER
  0
ACDBPLACEHOLDER
  5
F
102
{ACAD_REACTORS
330
E
102
}
330
E
  0
ENDSEC
  0
EOF
