  0
SECTION
  2
HEADER
  9
$ACADVER
  1
AC1018
  9
$ACADMAINTVER
 70
     0
  9
$DWGCODEPAGE
  3
ANSI_1252
  9
$INSBASE
 10
0.0
 20
0.0
 30
0.0
  9
$EXTMIN
 10
-397.760000000002
 20
-285.0
 30
0.0
  9
$EXTMAX
 10
410.0
 20
284.0
 30
0.0
  9
$LIMMIN
 10
0.0
 20
0.0
  9
$LIMMAX
 10
12.0
 20
9.0
  9
$ORTHOMODE
 70
     0
  9
$REGENMODE
 70
     1
  9
$FILLMODE
 70
     1
  9
$QTEXTMODE
 70
     0
  9
$MIRRTEXT
 70
     1
  9
$LTSCALE
 40
1.0
  9
$ATTMODE
 70
     1
  9
$TEXTSIZE
 40
0.2
  9
$TRACEWID
 40
0.05
  9
$TEXTSTYLE
  7
Standard
  9
$CLAYER
  8
0
  9
$CELTYPE
  6
ByLayer
  9
$CECOLOR
 62
   256
  9
$CELTSCALE
 40
1.0
  9
$DISPSILH
 70
     0
  9
$DIMSCALE
 40
1.0
  9
$DIMASZ
 40
0.18
  9
$DIMEXO
 40
0.0625
  9
$DIMDLI
 40
0.38
  9
$DIMRND
 40
0.0
  9
$DIMDLE
 40
0.0
  9
$DIMEXE
 40
0.18
  9
$DIMTP
 40
0.0
  9
$DIMTM
 40
0.0
  9
$DIMTXT
 40
0.18
  9
$DIMCEN
 40
0.09
  9
$DIMTSZ
 40
0.0
  9
$DIMTOL
 70
     0
  9
$DIMLIM
 70
     0
  9
$DIMTIH
 70
     1
  9
$DIMTOH
 70
     1
  9
$DIMSE1
 70
     0
  9
$DIMSE2
 70
     0
  9
$DIMTAD
 70
     0
  9
$DIMZIN
 70
     0
  9
$DIMBLK
  1

  9
$DIMASO
 70
     1
  9
$DIMSHO
 70
     1
  9
$DIMPOST
  1

  9
$DIMAPOST
  1

  9
$DIMALT
 70
     0
  9
$DIMALTD
 70
     2
  9
$DIMALTF
 40
25.4
  9
$DIMLFAC
 40
1.0
  9
$DIMTOFL
 70
     0
  9
$DIMTVP
 40
0.0
  9
$DIMTIX
 70
     0
  9
$DIMSOXD
 70
     0
  9
$DIMSAH
 70
     0
  9
$DIMBLK1
  1

  9
$DIMBLK2
  1

  9
$DIMSTYLE
  2
Standard
  9
$DIMCLRD
 70
     0
  9
$DIMCLRE
 70
     0
  9
$DIMCLRT
 70
     0
  9
$DIMTFAC
 40
1.0
  9
$DIMGAP
 40
0.09
  9
$DIMJUST
 70
     0
  9
$DIMSD1
 70
     0
  9
$DIMSD2
 70
     0
  9
$DIMTOLJ
 70
     1
  9
$DIMTZIN
 70
     0
  9
$DIMALTZ
 70
     0
  9
$DIMALTTZ
 70
     0
  9
$DIMUPT
 70
     0
  9
$DIMDEC
 70
     4
  9
$DIMTDEC
 70
     4
  9
$DIMALTU
 70
     2
  9
$DIMALTTD
 70
     2
  9
$DIMTXSTY
  7
Standard
  9
$DIMAUNIT
 70
     0
  9
$DIMADEC
 70
     0
  9
$DIMALTRND
 40
0.0
  9
$DIMAZIN
 70
     0
  9
$DIMDSEP
 70
    46
  9
$DIMATFIT
 70
     3
  9
$DIMFRAC
 70
     0
  9
$DIMLDRBLK
  1

  9
$DIMLUNIT
 70
     2
  9
$DIMLWD
 70
    -2
  9
$DIMLWE
 70
    -2
  9
$DIMTMOVE
 70
     0
  9
$LUNITS
 70
     2
  9
$LUPREC
 70
     4
  9
$SKETCHINC
 40
0.1
  9
$FILLETRAD
 40
0.5
  9
$AUNITS
 70
     0
  9
$AUPREC
 70
     0
  9
$MENU
  1
.
  9
$ELEVATION
 40
0.0
  9
$PELEVATION
 40
0.0
  9
$THICKNESS
 40
0.0
  9
$LIMCHECK
 70
     0
  9
$CHAMFERA
 40
0.5
  9
$CHAMFERB
 40
0.5
  9
$CHAMFERC
 40
1.0
  9
$CHAMFERD
 40
0.0
  9
$SKPOLY
 70
     0
  9
$TDCREATE
 40
2454958.399779954
  9
$TDUCREATE
 40
2454958.316446621
  9
$TDUPDATE
 40
2454958.399779965
  9
$TDUUPDATE
 40
2454958.316446632
  9
$TDINDWG
 40
0.0000000116
  9
$TDUSRTIMER
 40
0.0000000116
  9
$USRTIMER
 70
     1
  9
$ANGBASE
 50
0.0
  9
$ANGDIR
 70
     0
  9
$PDMODE
 70
     0
  9
$PDSIZE
 40
0.0
  9
$PLINEWID
 40
0.0
  9
$SPLFRAME
 70
     0
  9
$SPLINETYPE
 70
     6
  9
$SPLINESEGS
 70
     8
  9
$HANDSEED
  5
51D
  9
$SURFTAB1
 70
     6
  9
$SURFTAB2
 70
     6
  9
$SURFTYPE
 70
     6
  9
$SURFU
 70
     6
  9
$SURFV
 70
     6
  9
$UCSBASE
  2

  9
$UCSNAME
  2

  9
$UCSORG
 10
0.0
 20
0.0
 30
0.0
  9
$UCSXDIR
 10
1.0
 20
0.0
 30
0.0
  9
$UCSYDIR
 10
0.0
 20
1.0
 30
0.0
  9
$UCSORTHOREF
  2

  9
$UCSORTHOVIEW
 70
     0
  9
$UCSORGTOP
 10
0.0
 20
0.0
 30
0.0
  9
$UCSORGBOTTOM
 10
0.0
 20
0.0
 30
0.0
  9
$UCSORGLEFT
 10
0.0
 20
0.0
 30
0.0
  9
$UCSORGRIGHT
 10
0.0
 20
0.0
 30
0.0
  9
$UCSORGFRONT
 10
0.0
 20
0.0
 30
0.0
  9
$UCSORGBACK
 10
0.0
 20
0.0
 30
0.0
  9
$PUCSBASE
  2

  9
$PUCSNAME
  2

  9
$PUCSORG
 10
0.0
 20
0.0
 30
0.0
  9
$PUCSXDIR
 10
1.0
 20
0.0
 30
0.0
  9
$PUCSYDIR
 10
0.0
 20
1.0
 30
0.0
  9
$PUCSORTHOREF
  2

  9
$PUCSORTHOVIEW
 70
     0
  9
$PUCSORGTOP
 10
0.0
 20
0.0
 30
0.0
  9
$PUCSORGBOTTOM
 10
0.0
 20
0.0
 30
0.0
  9
$PUCSORGLEFT
 10
0.0
 20
0.0
 30
0.0
  9
$PUCSORGRIGHT
 10
0.0
 20
0.0
 30
0.0
  9
$PUCSORGFRONT
 10
0.0
 20
0.0
 30
0.0
  9
$PUCSORGBACK
 10
0.0
 20
0.0
 30
0.0
  9
$USERI1
 70
     0
  9
$USERI2
 70
     0
  9
$USERI3
 70
     0
  9
$USERI4
 70
     0
  9
$USERI5
 70
     0
  9
$USERR1
 40
14.5
  9
$USERR2
 40
0.0
  9
$USERR3
 40
0.0
  9
$USERR4
 40
0.0
  9
$USERR5
 40
0.0
  9
$WORLDVIEW
 70
     1
  9
$SHADEDGE
 70
     3
  9
$SHADEDIF
 70
    70
  9
$TILEMODE
 70
     1
  9
$MAXACTVP
 70
    64
  9
$PINSBASE
 10
0.0
 20
0.0
 30
0.0
  9
$PLIMCHECK
 70
     0
  9
$PEXTMIN
 10
1.00000000000000E+20
 20
1.00000000000000E+20
 30
1.00000000000000E+20
  9
$PEXTMAX
 10
-1.00000000000000E+20
 20
-1.00000000000000E+20
 30
-1.00000000000000E+20
  9
$PLIMMIN
 10
0.0
 20
0.0
  9
$PLIMMAX
 10
12.0
 20
9.0
  9
$UNITMODE
 70
     0
  9
$VISRETAIN
 70
     1
  9
$PLINEGEN
 70
     0
  9
$PSLTSCALE
 70
     1
  9
$TREEDEPTH
 70
  3020
  9
$CMLSTYLE
  2
Standard
  9
$CMLJUST
 70
     0
  9
$CMLSCALE
 40
1.0
  9
$PROXYGRAPHICS
 70
     1
  9
$MEASUREMENT
 70
     1
  9
$CELWEIGHT
370
    -1
  9
$ENDCAPS
280
     0
  9
$JOINSTYLE
280
     0
  9
$LWDISPLAY
290
     0
  9
$INSUNITS
 70
     1
  9
$HYPERLINKBASE
  1

  9
$STYLESHEET
  1

  9
$XEDIT
290
     1
  9
$CEPSNTYPE
380
     0
  9
$PSTYLEMODE
290
     1
  9
$FINGERPRINTGUID
  2
{73785ACF-FF38-4FA9-B0DA-E5D9CF83493C}
  9
$VERSIONGUID
  2
{FAEB1C32-E019-11D5-929B-00C0DF256EC4}
  9
$EXTNAMES
290
     1
  9
$PSVPSCALE
 40
0.0
  9
$OLESTARTUP
290
     0
  9
$SORTENTS
280
   127
  9
$INDEXCTL
280
     0
  9
$HIDETEXT
280
     1
  9
$XCLIPFRAME
290
     0
  9
$HALOGAP
280
     0
  9
$OBSCOLOR
 70
   257
  9
$OBSLTYPE
280
     0
  9
$INTERSECTIONDISPLAY
280
     0
  9
$INTERSECTIONCOLOR
 70
   257
  9
$DIMASSOC
280
     2
  9
$PROJECTNAME
  1

  0
ENDSEC
  0
SECTION
  2
CLASSES
  0
CLASS
  1
ACDBDICTIONARYWDFLT
  2
AcDbDictionaryWithDefault
  3
ObjectDBX Classes
 90
        0
 91
        3
280
     0
281
     0
  0
CLASS
  1

  2
exOdDbCircle
  3

 90
        0
 91
        3
280
     0
281
     1
  0
CLASS
  1

  2
exOdDbSpline
  3

 90
        0
 91
        3
280
     0
281
     1
  0
ENDSEC
  0
SECTION
  2
TABLES
  0
TABLE
  2
VPORT
  5
8
330
0
100
AcDbSymbolTable
 70
     1
  0
VPORT
  5
29
330
8
100
AcDbSymbolTableRecord
100
AcDbViewportTableRecord
  2
*Active
 70
     0
 10
0.0
 20
0.0
 11
1.0
 21
1.0
 12
6.11999999999901
 22
-0.5
 13
0.0
 23
0.0
 14
0.5
 24
0.5
 15
0.5
 25
0.5
 16
0.0
 26
0.0
 36
1.0
 17
0.0
 27
0.0
 37
0.0
 40
625.9000000000001
 41
1.60267857142857
 42
50.0
 43
0.0
 44
0.0
 50
0.0
 51
0.0
 71
     0
 72
   100
 73
     1
 74
     3
 75
     0
 76
     0
 77
     0
 78
     0
281
     0
 65
     1
110
0.0
120
0.0
130
0.0
111
1.0
121
0.0
131
0.0
112
0.0
122
1.0
132
0.0
 79
     0
146
0.0
  0
ENDTAB
  0
TABLE
  2
LTYPE
  5
5
330
0
100
AcDbSymbolTable
 70
     8
  0
LTYPE
  5
14
330
5
100
AcDbSymbolTableRecord
100
AcDbLinetypeTableRecord
  2
ByBlock
 70
     0
  3

 72
    65
 73
     0
 40
0.0
  0
LTYPE
  5
15
330
5
100
AcDbSymbolTableRecord
100
AcDbLinetypeTableRecord
  2
ByLayer
 70
     0
  3

 72
    65
 73
     0
 40
0.0
  0
LTYPE
  5
16
330
5
100
AcDbSymbolTableRecord
100
AcDbLinetypeTableRecord
  2
Continuous
 70
     0
  3
Solid line
 72
    65
 73
     0
 40
0.0
  0
LTYPE
  5
2A
330
5
100
AcDbSymbolTableRecord
100
AcDbLinetypeTableRecord
  2
DASHED
 70
     0
  3
Dashed
 72
    65
 73
     2
 40
15.0
 49
7.0
 74
     0
 49
-8.0
 74
     0
  0
LTYPE
  5
2B
330
5
100
AcDbSymbolTableRecord
100
AcDbLinetypeTableRecord
  2
DOTTED
 70
     0
  3
Dotted
 72
    65
 73
     2
 40
1.0
 49
0.0
 74
     0
 49
-1.0
 74
     0
  0
LTYPE
  5
2C
330
5
100
AcDbSymbolTableRecord
100
AcDbLinetypeTableRecord
  2
DOT_CENTER
 70
     0
  3
Dot_Center
 72
    65
 73
     4
 40
14.0
 49
12.0
 74
     0
 49
-1.0
 74
     0
 49
0.0
 74
     0
 49
-1.0
 74
     0
  0
LTYPE
  5
2D
330
5
100
AcDbSymbolTableRecord
100
AcDbLinetypeTableRecord
  2
LONG_DASHED
 70
     0
  3
Long_Dashed
 72
    65
 73
     2
 40
15.0
 49
10.0
 74
     0
 49
-5.0
 74
     0
  0
LTYPE
  5
2E
330
5
100
AcDbSymbolTableRecord
100
AcDbLinetypeTableRecord
  2
DASH_CENTER
 70
     0
  3
Dash_Center
 72
    65
 73
     4
 40
14.0
 49
11.0
 74
     0
 49
-1.0
 74
     0
 49
1.0
 74
     0
 49
-1.0
 74
     0
  0
LTYPE
  5
2F
330
5
100
AcDbSymbolTableRecord
100
AcDbLinetypeTableRecord
  2
PHANTOM
 70
     0
  3
Phantom
 72
    65
 73
     6
 40
13.0
 49
10.0
 74
     0
 49
-1.0
 74
     0
 49
0.0
 74
     0
 49
-1.0
 74
     0
 49
0.0
 74
     0
 49
-1.0
 74
     0
  0
LTYPE
  5
30
330
5
100
AcDbSymbolTableRecord
100
AcDbLinetypeTableRecord
  2
CENTER_DASH_DASH
 70
     0
  3
Center_Dash_Dash
 72
    65
 73
     6
 40
14.0
 49
9.0
 74
     0
 49
-1.0
 74
     0
 49
1.0
 74
     0
 49
-1.0
 74
     0
 49
1.0
 74
     0
 49
-1.0
 74
     0
  0
ENDTAB
  0
TABLE
  2
LAYER
  5
2
330
0
100
AcDbSymbolTable
 70
     3
  0
LAYER
  5
10
330
2
100
AcDbSymbolTableRecord
100
AcDbLayerTableRecord
  2
0
 70
     0
 62
     7
  6
Continuous
370
    -3
390
F
  0
LAYER
  5
31
330
2
100
AcDbSymbolTableRecord
100
AcDbLayerTableRecord
  2
1
 70
     0
 62
     7
  6
Continuous
370
    -3
390
F
  0
LAYER
  5
32
330
2
100
AcDbSymbolTableRecord
100
AcDbLayerTableRecord
  2
AM_VIS
 70
     0
 62
     7
  6
Continuous
370
    -3
390
F
  0
ENDTAB
  0
TABLE
  2
STYLE
  5
3
330
0
100
AcDbSymbolTable
 70
     6
  0
STYLE
  5
11
330
3
100
AcDbSymbolTableRecord
100
AcDbTextStyleTableRecord
  2
Standard
 70
     0
 40
0.0
 41
1.0
 50
0.0
 71
     0
 42
0.2
  3
txt
  4

  0
STYLE
  5
2CC
330
3
100
AcDbSymbolTableRecord
100
AcDbTextStyleTableRecord
  2
CONVERTER_11
 70
     0
 40
0.0
 41
0.72
 50
0.0
 71
     0
 42
0.2
  3
txt.shx
  4

  0
STYLE
  5
3E0
330
3
100
AcDbSymbolTableRecord
100
AcDbTextStyleTableRecord
  2
CONVERTER_12
 70
     0
 40
0.0
 41
0.855
 50
0.0
 71
     0
 42
0.2
  3
complex.shx
  4

  0
STYLE
  5
3E2
330
3
100
AcDbSymbolTableRecord
100
AcDbTextStyleTableRecord
  2
CONVERTER_13
 70
     0
 40
0.0
 41
0.9
 50
0.0
 71
     0
 42
0.2
  3
txt.shx
  4

  0
STYLE
  5
3EA
330
3
100
AcDbSymbolTableRecord
100
AcDbTextStyleTableRecord
  2
CONVERTER_14
 70
     0
 40
0.0
 41
0.765
 50
0.0
 71
     0
 42
0.2
  3
txt.shx
  4

  0
STYLE
  5
3EE
330
3
100
AcDbSymbolTableRecord
100
AcDbTextStyleTableRecord
  2
CONVERTER_15
 70
     0
 40
0.0
 41
0.81
 50
0.0
 71
     0
 42
0.2
  3
txt.shx
  4

  0
ENDTAB
  0
TABLE
  2
VIEW
  5
6
330
0
100
AcDbSymbolTable
 70
     0
  0
ENDTAB
  0
TABLE
  2
UCS
  5
7
330
0
100
AcDbSymbolTable
 70
     0
  0
ENDTAB
  0
TABLE
  2
APPID
  5
9
330
0
100
AcDbSymbolTable
 70
     1
  0
APPID
  5
12
330
9
100
AcDbSymbolTableRecord
100
AcDbRegAppTableRecord
  2
ACAD
 70
     0
  0
ENDTAB
  0
TABLE
  2
DIMSTYLE
  5
A
330
0
100
AcDbSymbolTable
 70
    17
100
AcDbDimStyleTable
  0
DIMSTYLE
105
27
330
A
100
AcDbSymbolTableRecord
100
AcDbDimStyleTableRecord
  2
Standard
 70
     0
340
11
  0
DIMSTYLE
105
2D0
102
{ACAD_REACTORS
330
2D1
102
}
330
A
100
AcDbSymbolTableRecord
100
AcDbDimStyleTableRecord
  2
ME10_DIM_10
 70
     0
 41
7.0
 42
0.0
 44
2.0
 73
     0
 74
     0
 77
     1
 78
     8
140
7.0
147
4.0
172
     1
173
     1
176
     2
177
     2
178
     3
271
     3
340
2CC
  0
DIMSTYLE
105
2DD
102
{ACAD_REACTORS
330
2DE
102
}
330
A
100
AcDbSymbolTableRecord
100
AcDbDimStyleTableRecord
  2
ME10_DIM_11
 70
     0
 41
7.0
 42
0.0
 44
2.0
 48
-9.0
 71
     1
 73
     0
 74
     0
 77
     1
 78
     8
140
7.0
146
0.6
147
4.0
172
     1
173
     1
176
     2
177
     2
178
     3
271
     3
272
     0
340
2CC
  0
DIMSTYLE
105
2EA
102
{ACAD_REACTORS
330
2EB
102
}
330
A
100
AcDbSymbolTableRecord
100
AcDbDimStyleTableRecord
  2
ME10_DIM_12
 70
     0
 41
7.0
 42
0.0
 44
2.0
 73
     0
 74
     0
 77
     1
 78
     8
140
7.0
147
4.0
172
     1
173
     1
176
     2
177
     2
178
     3
271
     3
340
2CC
  0
DIMSTYLE
105
2F5
102
{ACAD_REACTORS
330
2F6
102
}
330
A
100
AcDbSymbolTableRecord
100
AcDbDimStyleTableRecord
  2
ME10_DIM_13
 70
     0
 41
7.0
 42
0.0
 44
2.0
 71
     1
 73
     0
 74
     0
 77
     1
 78
     8
140
7.0
146
0.6
147
4.0
172
     1
173
     1
176
     2
177
     2
178
     3
271
     3
272
     0
340
2CC
  0
DIMSTYLE
105
481
102
{ACAD_REACTORS
330
482
102
}
330
A
100
AcDbSymbolTableRecord
100
AcDbDimStyleTableRecord
  2
ME10_DIM_14
 70
     0
 41
7.0
 42
0.0
 44
2.0
 73
     0
 74
     0
 77
     1
 78
     8
140
7.0
147
4.0
172
     1
173
     1
176
     2
177
     2
178
     3
271
     3
340
2CC
  0
DIMSTYLE
105
48E
102
{ACAD_REACTORS
330
48F
102
}
330
A
100
AcDbSymbolTableRecord
100
AcDbDimStyleTableRecord
  2
ME10_DIM_15
 70
     0
 41
7.0
 42
0.0
 44
2.0
 73
     0
 74
     0
 77
     1
 78
     8
140
7.0
147
4.0
172
     1
173
     1
176
     2
177
     2
178
     3
271
     3
340
2CC
  0
DIMSTYLE
105
499
102
{ACAD_REACTORS
330
49A
102
}
330
A
100
AcDbSymbolTableRecord
100
AcDbDimStyleTableRecord
  2
ME10_DIM_16
 70
     0
 41
7.0
 42
0.0
 44
2.0
 73
     0
 74
     0
 77
     1
 78
     8
140
7.0
147
4.0
172
     1
173
     1
176
     2
177
     2
178
     3
271
     3
340
2CC
  0
DIMSTYLE
105
4A6
102
{ACAD_REACTORS
330
4A7
102
}
330
A
100
AcDbSymbolTableRecord
100
AcDbDimStyleTableRecord
  2
ME10_DIM_17
 70
     0
 41
7.0
 42
0.0
 44
2.0
 73
     0
 74
     0
 77
     1
 78
     8
140
7.0
147
4.0
172
     1
173
     1
176
     2
177
     2
178
     3
271
     3
340
2CC
  0
DIMSTYLE
105
4B1
102
{ACAD_REACTORS
330
4B2
102
}
330
A
100
AcDbSymbolTableRecord
100
AcDbDimStyleTableRecord
  2
ME10_DIM_18
 70
     0
 41
7.0
 42
0.0
 44
2.0
 73
     0
 74
     0
 77
     1
 78
     8
140
7.0
147
4.0
172
     1
173
     1
176
     2
177
     2
178
     3
271
     3
340
2CC
  0
DIMSTYLE
105
4BC
102
{ACAD_REACTORS
330
4BD
102
}
330
A
100
AcDbSymbolTableRecord
100
AcDbDimStyleTableRecord
  2
ME10_DIM_19
 70
     0
  3
{\Fgdt;n}<>
 41
7.0
 42
0.0
 44
2.0
 48
-6.0
 71
     1
 73
     0
 74
     0
 77
     1
 78
     8
140
7.0
146
0.6
147
4.0
172
     1
173
     1
176
     2
177
     2
178
     3
271
     3
272
     0
340
2CC
  0
DIMSTYLE
105
4C7
102
{ACAD_REACTORS
330
4C8
102
}
330
A
100
AcDbSymbolTableRecord
100
AcDbDimStyleTableRecord
  2
ME10_DIM_20
 70
     0
  3
{\Fgdt;8}<>
 41
7.0
 42
0.0
 44
2.0
 73
     0
 74
     0
 77
     1
 78
     8
140
7.0
147
4.0
172
     1
173
     1
176
     2
177
     2
178
     3
271
     3
340
2CC
  0
DIMSTYLE
105
4D2
102
{ACAD_REACTORS
330
4D3
102
}
330
A
100
AcDbSymbolTableRecord
100
AcDbDimStyleTableRecord
  2
ME10_DIM_21
 70
     0
 41
7.0
 42
0.0
 44
2.0
 73
     0
 74
     0
 77
     1
 78
     8
140
7.0
147
4.0
172
     1
173
     1
176
     2
177
     2
178
     3
271
     3
340
2CC
  0
DIMSTYLE
105
4DD
102
{ACAD_REACTORS
330
4DE
102
}
330
A
100
AcDbSymbolTableRecord
100
AcDbDimStyleTableRecord
  2
ME10_DIM_22
 70
     0
 41
7.0
 42
0.0
 44
2.0
 73
     0
 74
     0
 77
     1
 78
     8
140
7.0
147
4.0
172
     1
173
     1
176
     2
177
     2
178
     3
271
     3
340
2CC
  0
DIMSTYLE
105
4E8
102
{ACAD_REACTORS
330
4E9
102
}
330
A
100
AcDbSymbolTableRecord
100
AcDbDimStyleTableRecord
  2
ME10_DIM_23
 70
     0
  3
{\Fgdt;n}<>
 41
7.0
 42
0.0
 44
2.0
 47
5.0
 71
     1
 73
     0
 74
     0
 77
     1
 78
     8
140
7.0
146
0.6
147
4.0
172
     1
173
     1
176
     2
177
     2
178
     3
271
     3
272
     0
340
2CC
  0
DIMSTYLE
105
4F3
102
{ACAD_REACTORS
330
4F4
102
}
330
A
100
AcDbSymbolTableRecord
100
AcDbDimStyleTableRecord
  2
ME10_DIM_24
 70
     0
 41
7.0
 42
0.0
 44
2.0
 73
     0
 74
     0
 77
     1
 78
     8
140
7.0
147
4.0
172
     1
173
     1
176
     2
177
     2
178
     3
271
     3
340
2CC
  0
DIMSTYLE
105
51B
102
{ACAD_REACTORS
330
51C
102
}
330
A
100
AcDbSymbolTableRecord
100
AcDbDimStyleTableRecord
  2
ME10_DIM_25
 70
     0
 41
7.0
 42
0.0
 44
2.0
 73
     0
 74
     0
 77
     1
 78
     8
140
7.0
147
4.0
172
     1
173
     1
176
     2
177
     2
178
     3
271
     3
340
2CC
  0
ENDTAB
  0
TABLE
  2
BLOCK_RECORD
  5
1
330
0
100
AcDbSymbolTable
 70
    31
  0
BLOCK_RECORD
  5
1F
330
1
100
AcDbSymbolTableRecord
100
AcDbBlockTableRecord
  2
*Model_Space
340
22
  0
BLOCK_RECORD
  5
1B
330
1
100
AcDbSymbolTableRecord
100
AcDbBlockTableRecord
  2
*Paper_Space
340
1E
  0
BLOCK_RECORD
  5
23
330
1
100
AcDbSymbolTableRecord
100
AcDbBlockTableRecord
  2
*Paper_Space0
340
26
  0
BLOCK_RECORD
  5
33
330
1
100
AcDbSymbolTableRecord
100
AcDbBlockTableRecord
  2
Winkelflanschdose_12-polig_drehbar
340
0
102
{BLKREFS
331
55
102
}
  0
BLOCK_RECORD
  5
36
330
1
100
AcDbSymbolTableRecord
100
AcDbBlockTableRecord
  2
Steckerplatte
340
0
102
{BLKREFS
331
56
102
}
  0
BLOCK_RECORD
  5
39
330
1
100
AcDbSymbolTableRecord
100
AcDbBlockTableRecord
  2
M2_5x6_DIN_7985
340
0
102
{BLKREFS
331
57
102
}
  0
BLOCK_RECORD
  5
3C
330
1
100
AcDbSymbolTableRecord
100
AcDbBlockTableRecord
  2
O-Ring
340
0
102
{BLKREFS
331
40
102
}
  0
BLOCK_RECORD
  5
3F
330
1
100
AcDbSymbolTableRecord
100
AcDbBlockTableRecord
  2
Winkelflanschdose_8-polig_drehbar
340
0
102
{BLKREFS
331
58
102
}
  0
BLOCK_RECORD
  5
43
330
1
100
AcDbSymbolTableRecord
100
AcDbBlockTableRecord
  2
M3x10_DIN_84
340
0
102
{BLKREFS
331
59
102
}
  0
BLOCK_RECORD
  5
46
330
1
100
AcDbSymbolTableRecord
100
AcDbBlockTableRecord
  2
Lagerschild
340
0
102
{BLKREFS
331
5A
102
}
  0
BLOCK_RECORD
  5
49
330
1
100
AcDbSymbolTableRecord
100
AcDbBlockTableRecord
  2
Deckel
340
0
102
{BLKREFS
331
5B
102
}
  0
BLOCK_RECORD
  5
4C
330
1
100
AcDbSymbolTableRecord
100
AcDbBlockTableRecord
  2
Rotor
340
0
102
{BLKREFS
331
5C
102
}
  0
BLOCK_RECORD
  5
4F
330
1
100
AcDbSymbolTableRecord
100
AcDbBlockTableRecord
  2
Lagerschild_B-S
340
0
102
{BLKREFS
331
5D
102
}
  0
BLOCK_RECORD
  5
52
330
1
100
AcDbSymbolTableRecord
100
AcDbBlockTableRecord
  2
tb_frame_A3
340
0
102
{BLKREFS
331
5E
102
}
  0
BLOCK_RECORD
  5
2C6
330
1
100
AcDbSymbolTableRecord
100
AcDbBlockTableRecord
  2
*D12
340
0
  0
BLOCK_RECORD
  5
2D2
330
1
100
AcDbSymbolTableRecord
100
AcDbBlockTableRecord
  2
*D13
340
0
  0
BLOCK_RECORD
  5
2DF
330
1
100
AcDbSymbolTableRecord
100
AcDbBlockTableRecord
  2
*D14
340
0
  0
BLOCK_RECORD
  5
2EC
330
1
100
AcDbSymbolTableRecord
100
AcDbBlockTableRecord
  2
*D15
340
0
  0
BLOCK_RECORD
  5
478
330
1
100
AcDbSymbolTableRecord
100
AcDbBlockTableRecord
  2
*D16
340
0
  0
BLOCK_RECORD
  5
483
330
1
100
AcDbSymbolTableRecord
100
AcDbBlockTableRecord
  2
*D17
340
0
  0
BLOCK_RECORD
  5
490
330
1
100
AcDbSymbolTableRecord
100
AcDbBlockTableRecord
  2
*D18
340
0
  0
BLOCK_RECORD
  5
49B
330
1
100
AcDbSymbolTableRecord
100
AcDbBlockTableRecord
  2
*D19
340
0
  0
BLOCK_RECORD
  5
4A8
330
1
100
AcDbSymbolTableRecord
100
AcDbBlockTableRecord
  2
*D20
340
0
  0
BLOCK_RECORD
  5
4B3
330
1
100
AcDbSymbolTableRecord
100
AcDbBlockTableRecord
  2
*D21
340
0
  0
BLOCK_RECORD
  5
4BE
330
1
100
AcDbSymbolTableRecord
100
AcDbBlockTableRecord
  2
*D22
340
0
  0
BLOCK_RECORD
  5
4C9
330
1
100
AcDbSymbolTableRecord
100
AcDbBlockTableRecord
  2
*D23
340
0
  0
BLOCK_RECORD
  5
4D4
330
1
100
AcDbSymbolTableRecord
100
AcDbBlockTableRecord
  2
*D24
340
0
  0
BLOCK_RECORD
  5
4DF
330
1
100
AcDbSymbolTableRecord
100
AcDbBlockTableRecord
  2
*D25
340
0
  0
BLOCK_RECORD
  5
4EA
330
1
100
AcDbSymbolTableRecord
100
AcDbBlockTableRecord
  2
*D26
340
0
  0
BLOCK_RECORD
  5
4F5
330
1
100
AcDbSymbolTableRecord
100
AcDbBlockTableRecord
  2
*D27
340
0
102
{BLKREFS
331
4FC
102
}
  0
BLOCK_RECORD
  5
4FD
330
1
100
AcDbSymbolTableRecord
100
AcDbBlockTableRecord
  2
*D28
340
0
102
{BLKREFS
331
503
102
}
  0
BLOCK_RECORD
  5
504
330
1
100
AcDbSymbolTableRecord
100
AcDbBlockTableRecord
  2
*D29
340
0
102
{BLKREFS
331
50F
102
}
  0
BLOCK_RECORD
  5
510
330
1
100
AcDbSymbolTableRecord
100
AcDbBlockTableRecord
  2
*D30
340
0
  0
ENDTAB
  0
ENDSEC
  0
SECTION
  2
BLOCKS
  0
BLOCK
  5
20
330
1F
100
AcDbEntity
  8
0
100
AcDbBlockBegin
  2
*Model_Space
 70
     0
 71
     0
 10
0.0
 20
0.0
 30
0.0
  3
*Model_Space
  1

  0
ENDBLK
  5
21
330
1F
100
AcDbEntity
  8
0
100
AcDbBlockEnd
  0
BLOCK
  5
1C
330
1B
100
AcDbEntity
 67
     1
  8
0
100
AcDbBlockBegin
  2
*Paper_Space
 70
     0
 71
     0
 10
0.0
 20
0.0
 30
0.0
  3
*Paper_Space
  1

  0
ENDBLK
  5
1D
330
1B
100
AcDbEntity
 67
     1
  8
0
100
AcDbBlockEnd
  0
BLOCK
  5
24
330
23
100
AcDbEntity
  8
0
100
AcDbBlockBegin
  2
*Paper_Space0
 70
     0
 71
     0
 10
0.0
 20
0.0
 30
0.0
  3
*Paper_Space0
  1

  0
ENDBLK
  5
25
330
23
100
AcDbEntity
  8
0
100
AcDbBlockEnd
  0
BLOCK
  5
34
330
33
100
AcDbEntity
  8
0
100
AcDbBlockBegin
  2
Winkelflanschdose_12-polig_drehbar
 70
     0
 71
     0
 10
360.2648307690583
 20
274.139896652593
 30
0.0
  3
Winkelflanschdose_12-polig_drehbar
  1

  0
POINT
  5
5F
330
33
100
AcDbEntity
  8
1
 62
     3
 60
     1
100
AcDbPoint
 10
216.65
 20
180.999874334957
 30
0.0
  0
POINT
  5
60
330
33
100
AcDbEntity
  8
1
 62
     3
 60
     1
100
AcDbPoint
 10
216.65
 20
170.999874334957
 30
0.0
  0
POINT
  5
61
330
33
100
AcDbEntity
  8
1
 62
     3
 60
     1
100
AcDbPoint
 10
217.5000000000001
 20
190.4998866158474
 30
0.0
  0
POINT
  5
62
330
33
100
AcDbEntity
  8
1
 62
     3
 60
     1
100
AcDbPoint
 10
219.6904520000001
 20
183.088089334957
 30
0.0
  0
POINT
  5
63
330
33
100
AcDbEntity
  8
1
 62
     3
 60
     1
100
AcDbPoint
 10
241.5
 20
190.4998866158473
 30
0.0
  0
POINT
  5
64
330
33
100
AcDbEntity
  8
1
 62
     3
 60
     1
100
AcDbPoint
 10
239.3095470000002
 20
183.088089334957
 30
0.0
  0
POINT
  5
65
330
33
100
AcDbEntity
  8
1
 62
     3
 60
     1
100
AcDbPoint
 10
236.411785
 20
180.190327334957
 30
0.0
  0
POINT
  5
66
330
33
100
AcDbEntity
  8
1
 62
     3
 60
     1
100
AcDbPoint
 10
222.5882100000001
 20
180.1903303349571
 30
0.0
  0
LINE
  5
67
330
33
100
AcDbEntity
  8
AM_VIS
  6
Continuous
 62
     7
100
AcDbLine
 10
219.6904576842047
 20
172.4999036158473
 30
0.0
 11
219.6904520000001
 21
183.088089334957
 31
0.0
  0
LINE
  5
68
330
33
100
AcDbEntity
  8
AM_VIS
  6
Continuous
 62
     7
100
AcDbLine
 10
217.5000000000001
 20
180.999874334957
 30
0.0
 11
217.5000000000001
 21
170.999874334957
 31
0.0
  0
LINE
  5
69
330
33
100
AcDbEntity
  8
1
  6
Continuous
 62
     7
100
AcDbLine
 10
216.65
 20
180.999874334957
 30
0.0
 11
217.5000000000001
 21
180.999874334957
 31
0.0
  0
LINE
  5
6A
330
33
100
AcDbEntity
  8
1
  6
Continuous
 62
     7
100
AcDbLine
 10
216.65
 20
170.999874334957
 30
0.0
 11
216.65
 21
180.999874334957
 31
0.0
  0
LINE
  5
6B
330
33
100
AcDbEntity
  8
AM_VIS
  6
Continuous
 62
     7
100
AcDbLine
 10
216.65
 20
168.499899334957
 30
0.0
 11
242.336481
 21
168.499899334957
 31
0.0
  0
LINE
  5
6C
330
33
100
AcDbEntity
  8
AM_VIS
  6
Continuous
 62
     7
100
AcDbLine
 10
236.4117900000001
 20
170.999874334957
 30
0.0
 11
222.5882100000001
 21
170.999874334957
 31
0.0
  0
LINE
  5
6D
330
33
100
AcDbEntity
  8
AM_VIS
  6
Continuous
 62
     7
100
AcDbLine
 10
239.3095440000001
 20
170.999874334957
 30
0.0
 11
236.4118020797501
 21
170.999874334957
 31
0.0
  0
LINE
  5
6E
330
33
100
AcDbEntity
  8
AM_VIS
  6
Continuous
 62
     7
100
AcDbLine
 10
222.5882100000001
 20
170.999874334957
 30
0.0
 11
219.690455
 21
170.999874334957
 31
0.0
  0
LINE
  5
6F
330
33
100
AcDbEntity
  8
AM_VIS
  6
Continuous
 62
     7
100
AcDbLine
 10
217.5000000000001
 20
170.999874334957
 30
0.0
 11
216.65
 21
170.999874334957
 31
0.0
  0
LINE
  5
70
330
33
100
AcDbEntity
  8
AM_VIS
  6
Continuous
 62
     7
100
AcDbLine
 10
217.5000000000001
 20
190.4998866158474
 30
0.0
 11
217.5000000000001
 21
180.999874334957
 31
0.0
  0
LINE
  5
71
330
33
100
AcDbEntity
  8
1
  6
DOT_CENTER
 62
     2
100
AcDbLine
 10
242.9478551469724
 20
193.9998866158473
 30
0.0
 11
215.7489666476191
 21
193.9998866158473
 31
0.0
  0
LINE
  5
72
330
33
100
AcDbEntity
  8
AM_VIS
  6
Continuous
 62
     7
100
AcDbLine
 10
219.6904520000001
 20
183.088089334957
 30
0.0
 11
221.711216
 21
182.211090334957
 31
0.0
  0
LINE
  5
73
330
33
100
AcDbEntity
  8
AM_VIS
  6
Continuous
 62
     7
100
AcDbLine
 10
221.711216
 20
182.211090334957
 30
0.0
 11
222.5882100000001
 21
180.1903303349571
 31
0.0
  0
LINE
  5
74
330
33
100
AcDbEntity
  8
AM_VIS
  6
Continuous
 62
     7
100
AcDbLine
 10
219.691669
 20
183.5798743349571
 30
0.0
 11
222.588156
 21
183.579913334957
 31
0.0
  0
LINE
  5
75
330
33
100
AcDbEntity
  8
AM_VIS
  6
Continuous
 62
     7
100
AcDbLine
 10
241.5
 20
170.999874334957
 30
0.0
 11
239.3095440000001
 21
170.999874334957
 31
0.0
  0
LINE
  5
76
330
33
100
AcDbEntity
  8
AM_VIS
  6
Continuous
 62
     7
100
AcDbLine
 10
241.5
 20
170.999874334957
 30
0.0
 11
241.5
 21
190.4998866158473
 31
0.0
  0
LINE
  5
77
330
33
100
AcDbEntity
  8
AM_VIS
  6
Continuous
 62
     7
100
AcDbLine
 10
236.4118020797501
 20
170.999874334957
 30
0.0
 11
236.411785
 21
180.190327334957
 31
0.0
  0
LINE
  5
78
330
33
100
AcDbEntity
  8
AM_VIS
  6
Continuous
 62
     7
100
AcDbLine
 10
239.3095470000002
 20
183.088089334957
 30
0.0
 11
239.3095413157954
 21
172.4999036158473
 31
0.0
  0
LINE
  5
79
330
33
100
AcDbEntity
  8
AM_VIS
  6
Continuous
 62
     7
100
AcDbLine
 10
236.411785
 20
180.190327334957
 30
0.0
 11
237.2887840000001
 21
182.211090334957
 31
0.0
  0
LINE
  5
7A
330
33
100
AcDbEntity
  8
AM_VIS
  6
Continuous
 62
     7
100
AcDbLine
 10
237.2887840000001
 20
182.211090334957
 30
0.0
 11
239.3095470000002
 21
183.088089334957
 31
0.0
  0
LINE
  5
7B
330
33
100
AcDbEntity
  8
AM_VIS
  6
Continuous
 62
     7
100
AcDbLine
 10
236.411785
 20
180.190327334957
 30
0.0
 11
236.411785
 21
183.5798743349571
 31
0.0
  0
LINE
  5
7C
330
33
100
AcDbEntity
  8
AM_VIS
  6
Continuous
 62
     7
100
AcDbLine
 10
239.3095470000002
 20
183.5798743349571
 30
0.0
 11
239.3095470000002
 21
183.088089334957
 31
0.0
  0
LINE
  5
7D
330
33
100
AcDbEntity
  8
AM_VIS
  6
Continuous
 62
     7
100
AcDbLine
 10
239.3083300000001
 20
183.5798743349571
 30
0.0
 11
239.3095470000002
 21
183.5798743349571
 31
0.0
  0
LINE
  5
7E
330
33
100
AcDbEntity
  8
AM_VIS
  6
Continuous
 62
     7
100
AcDbLine
 10
239.3083300000001
 20
186.2804713349569
 30
0.0
 11
239.3083300000001
 21
183.5798743349571
 31
0.0
  0
LINE
  5
7F
330
33
100
AcDbEntity
  8
AM_VIS
  6
Continuous
 62
     7
100
AcDbLine
 10
236.411785
 20
183.5798743349571
 30
0.0
 11
239.3083300000001
 21
183.5798743349571
 31
0.0
  0
LINE
  5
80
330
33
100
AcDbEntity
  8
AM_VIS
  6
Continuous
 62
     7
100
AcDbLine
 10
242.336481
 20
168.499899334957
 30
0.0
 11
242.349743
 21
168.499899334957
 31
0.0
  0
LINE
  5
81
330
33
100
AcDbEntity
  8
AM_VIS
  6
Continuous
 62
     7
100
AcDbLine
 10
242.349743
 20
168.499899334957
 30
0.0
 11
242.35
 21
170.999874334957
 31
0.0
  0
LINE
  5
82
330
33
100
AcDbEntity
  8
AM_VIS
  6
Continuous
 62
     7
100
AcDbLine
 10
242.3367380000001
 20
170.999874334957
 30
0.0
 11
241.5
 21
170.999874334957
 31
0.0
  0
LINE
  5
83
330
33
100
AcDbEntity
  8
AM_VIS
  6
Continuous
 62
     7
100
AcDbLine
 10
242.35
 20
170.999874334957
 30
0.0
 11
242.3367380000001
 21
170.999874334957
 31
0.0
  0
LINE
  5
84
330
33
100
AcDbEntity
  8
AM_VIS
  6
Continuous
 62
     7
100
AcDbLine
 10
222.5882100000001
 20
180.1903303349571
 30
0.0
 11
222.5882100000001
 21
170.999874334957
 31
0.0
  0
LINE
  5
85
330
33
100
AcDbEntity
  8
AM_VIS
  6
Continuous
 62
     7
100
AcDbLine
 10
222.588156
 20
183.579913334957
 30
0.0
 11
222.5882100000001
 21
180.1903303349571
 31
0.0
  0
LINE
  5
86
330
33
100
AcDbEntity
  8
AM_VIS
  6
Continuous
 62
     7
100
AcDbLine
 10
219.6904520000001
 20
183.5798743349571
 30
0.0
 11
219.691669
 21
183.5798743349571
 31
0.0
  0
LINE
  5
87
330
33
100
AcDbEntity
  8
AM_VIS
  6
Continuous
 62
     7
100
AcDbLine
 10
219.6904520000001
 20
183.088089334957
 30
0.0
 11
219.6904520000001
 21
183.5798743349571
 31
0.0
  0
LINE
  5
88
330
33
100
AcDbEntity
  8
AM_VIS
  6
Continuous
 62
     7
100
AcDbLine
 10
219.691669
 20
183.5798743349571
 30
0.0
 11
219.691669
 21
186.2804713349569
 31
0.0
  0
LINE
  5
89
330
33
100
AcDbEntity
  8
AM_VIS
  6
Continuous
 62
     7
100
AcDbLine
 10
216.65
 20
170.999874334957
 30
0.0
 11
216.65
 21
168.499899334957
 31
0.0
  0
LINE
  5
8A
330
33
100
AcDbEntity
  8
AM_VIS
  6
Continuous
 62
     7
100
AcDbLine
 10
219.690455
 20
170.999874334957
 30
0.0
 11
217.5000000000001
 21
170.999874334957
 31
0.0
  0
LINE
  5
8B
330
33
100
AcDbEntity
  8
1
  6
DOT_CENTER
 62
     2
100
AcDbLine
 10
229.5
 20
166.4998743349569
 30
0.0
 11
229.5
 21
209.269893067818
 31
0.0
  0
LINE
  5
8C
330
33
100
AcDbEntity
  8
1
  6
Continuous
 62
     7
100
AcDbLine
 10
241.5
 20
177.499874334957
 30
0.0
 11
217.5000000000001
 21
177.499874334957
 31
0.0
  0
LINE
  5
8D
330
33
100
AcDbEntity
  8
AM_VIS
  6
Continuous
 62
     7
100
AcDbLine
 10
236.4118020797501
 20
170.999874334957
 30
0.0
 11
236.4117900000001
 21
170.999874334957
 31
0.0
  0
ARC
  5
8E
330
33
100
AcDbEntity
  8
1
  6
Continuous
 62
     7
100
AcDbCircle
 10
229.5
 20
193.9998866158473
 30
0.0
 40
12.5
100
AcDbArc
 50
-16.26020470831196
 51
0.0
  0
ARC
  5
8F
330
33
100
AcDbEntity
  8
1
  6
Continuous
 62
     7
100
AcDbCircle
 10
229.4999995000001
 20
136.9999154201995
 30
0.0
 40
69.99997119564773
100
AcDbArc
 50
86.36555075479056
 51
89.99999959074434
  0
ARC
  5
90
330
33
100
AcDbEntity
  8
1
  6
Continuous
 62
     7
100
AcDbCircle
 10
234.4713776279775
 20
191.4859603496965
 30
0.0
 40
16.99999999999994
100
AcDbArc
 50
-176.6747298525212
 51
-150.3966691892984
  0
ARC
  5
91
330
33
100
AcDbEntity
  8
1
  6
Continuous
 62
     7
100
AcDbCircle
 10
225.515081728298
 20
191.1944280811361
 30
0.0
 40
16.0000000000001
100
AcDbArc
 50
-30.44068999899262
 51
-2.48792517799266
  0
ARC
  5
92
330
33
100
AcDbEntity
  8
1
  6
Continuous
 62
     7
100
AcDbCircle
 10
229.4999999613382
 20
191.5318261202798
 30
0.0
 40
13.28165528532293
100
AcDbArc
 50
-121.359170144129
 51
-58.64085472459604
  0
ARC
  5
93
330
33
100
AcDbEntity
  8
1
  6
Continuous
 62
     7
100
AcDbCircle
 10
229.5
 20
193.9998866158473
 30
0.0
 40
12.49999999999986
100
AcDbArc
 50
131.7916668414016
 51
-163.7397952916884
  0
ARC
  5
94
330
33
100
AcDbEntity
  8
1
  6
Continuous
 62
     7
100
AcDbCircle
 10
229.5
 20
193.9998866158473
 30
0.0
 40
12.49999999999986
100
AcDbArc
 50
-163.7397952916884
 51
-16.26020470831196
  0
ARC
  5
95
330
33
100
AcDbEntity
  8
1
  6
Continuous
 62
     7
100
AcDbCircle
 10
241.3145953739761
 20
209.3907663820034
 30
0.0
 40
6.999999999999778
100
AcDbArc
 50
-153.0067442793671
 51
-119.8516759502465
  0
ARC
  5
96
330
33
100
AcDbEntity
  8
1
  6
Continuous
 62
     7
100
AcDbCircle
 10
229.4999995000001
 20
136.9999154201995
 30
0.0
 40
69.9999711956477
100
AcDbArc
 50
89.99999959074434
 51
93.63444836870298
  0
ARC
  5
97
330
33
100
AcDbEntity
  8
1
  6
Continuous
 62
     7
100
AcDbCircle
 10
229.5
 20
193.9998866158473
 30
0.0
 40
12.5
100
AcDbArc
 50
0.0
 51
48.20833315859804
  0
ARC
  5
98
330
33
100
AcDbEntity
  8
1
  6
Continuous
 62
     7
100
AcDbCircle
 10
217.685404626024
 20
209.3907663820034
 30
0.0
 40
6.999999999999898
100
AcDbArc
 50
-60.14832404975326
 51
-29.6686042991095
  0
ARC
  5
99
330
33
100
AcDbEntity
  8
1
  6
Continuous
 62
     7
100
AcDbCircle
 10
233.8422520247491
 20
205.3621191355265
 30
0.0
 40
1.500000000000071
100
AcDbArc
 50
34.58525929494056
 51
86.36555075479296
  0
ARC
  5
9A
330
33
100
AcDbEntity
  8
1
  6
Continuous
 62
     7
100
AcDbCircle
 10
225.157748021051
 20
205.362119201954
 30
0.0
 40
1.500000000000082
100
AcDbArc
 50
93.63444836870487
 51
157.9233961932059
  0
ENDBLK
  5
35
330
33
100
AcDbEntity
  8
0
100
AcDbBlockEnd
  0
BLOCK
  5
37
330
36
100
AcDbEntity
  8
0
100
AcDbBlockBegin
  2
Steckerplatte
 70
     0
 71
     0
 10
3.2819721498952
 20
163.762155334957
 30
0.0
  3
Steckerplatte
  1

  0
LINE
  5
9B
330
36
100
AcDbEntity
  8
1
  6
Continuous
 62
     7
100
AcDbLine
 10
-6.65174435010466
 20
168.499899334957
 30
0.0
 11
23.34825264989533
 21
168.499899334957
 31
0.0
  0
LINE
  5
9C
330
36
100
AcDbEntity
  8
1
  6
Continuous
 62
     7
100
AcDbLine
 10
23.34825264989533
 20
168.499899334957
 30
0.0
 11
23.34825264989533
 21
166.975974334957
 31
0.0
  0
LINE
  5
9D
330
36
100
AcDbEntity
  8
1
  6
Continuous
 62
     7
100
AcDbLine
 10
-6.65174435010466
 20
166.762155334957
 30
0.0
 11
-6.65174435010466
 21
168.499899334957
 31
0.0
  0
LINE
  5
9E
330
36
100
AcDbEntity
  8
1
  6
DOT_CENTER
 62
     2
100
AcDbLine
 10
8.34825414989533
 20
164.762155334957
 30
0.0
 11
8.34825414989533
 21
209.396746601312
 31
0.0
  0
LINE
  5
9F
330
36
100
AcDbEntity
  8
1
  6
Continuous
 62
     7
100
AcDbLine
 10
248.5000150000001
 20
168.499899334957
 30
0.0
 11
182.499999
 21
168.499899334957
 31
0.0
  0
LINE
  5
A0
330
36
100
AcDbEntity
  8
1
  6
Continuous
 62
     7
100
AcDbLine
 10
248.5000150000001
 20
168.499899334957
 30
0.0
 11
248.5000150000001
 21
166.999907334957
 31
0.0
  0
LINE
  5
A1
330
36
100
AcDbEntity
  8
1
  6
Continuous
 62
     7
100
AcDbLine
 10
182.499999
 20
166.999907334957
 30
0.0
 11
182.499999
 21
168.499899334957
 31
0.0
  0
ENDBLK
  5
38
330
36
100
AcDbEntity
  8
0
100
AcDbBlockEnd
  0
BLOCK
  5
3A
330
39
100
AcDbEntity
  8
0
100
AcDbBlockBegin
  2
M2_5x6_DIN_7985
 70
     0
 71
     0
 10
6.63249414989519
 20
168.9998860540667
 30
0.0
  3
M2_5x6_DIN_7985
  1

  0
LINE
  5
A2
330
39
100
AcDbEntity
  8
1
  6
Continuous
 62
     7
100
AcDbLine
 10
-1.66130485010473
 20
172.4999033349571
 30
0.0
 11
-1.66130485010473
 21
171.5498883349571
 31
0.0
  0
LINE
  5
A3
330
39
100
AcDbEntity
  8
1
  6
Continuous
 62
     7
100
AcDbLine
 10
-2.81128285010473
 20
172.4999033349571
 30
0.0
 11
-1.66130485010473
 21
172.4999033349571
 31
0.0
  0
LINE
  5
A4
330
39
100
AcDbEntity
  8
1
  6
Continuous
 62
     7
100
AcDbLine
 10
-1.66130485010473
 20
171.5498883349571
 30
0.0
 11
-1.26128085010473
 21
171.5498883349571
 31
0.0
  0
LINE
  5
A5
330
39
100
AcDbEntity
  8
1
  6
Continuous
 62
     7
100
AcDbLine
 10
0.28869714989527
 20
172.0999033349571
 30
0.0
 11
-1.26128085010473
 21
172.0999033349571
 31
0.0
  0
LINE
  5
A6
330
39
100
AcDbEntity
  8
1
  6
Continuous
 62
     7
100
AcDbLine
 10
-1.66130485010473
 20
172.0999033349571
 30
0.0
 11
-3.21128285010474
 21
172.0999033349571
 31
0.0
  0
LINE
  5
A7
330
39
100
AcDbEntity
  8
1
  6
Continuous
 62
     7
100
AcDbLine
 10
-1.26128085010473
 20
172.4999033349571
 30
0.0
 11
-0.11130285010474
 21
172.4999033349571
 31
0.0
  0
LINE
  5
A8
330
39
100
AcDbEntity
  8
1
  6
Continuous
 62
     7
100
AcDbLine
 10
-2.81128285010473
 20
172.4999033349571
 30
0.0
 11
-3.21128285010474
 21
172.0999033349571
 31
0.0
  0
LINE
  5
A9
330
39
100
AcDbEntity
  8
1
  6
Continuous
 62
     7
100
AcDbLine
 10
-3.21128285010474
 20
172.0999033349571
 30
0.0
 11
-3.21128285010474
 21
170.9998983349571
 31
0.0
  0
LINE
  5
AA
330
39
100
AcDbEntity
  8
1
  6
Continuous
 62
     7
100
AcDbLine
 10
0.28869714989527
 20
170.9998983349571
 30
0.0
 11
0.28869714989527
 21
172.0999033349571
 31
0.0
  0
LINE
  5
AB
330
39
100
AcDbEntity
  8
1
  6
Continuous
 62
     7
100
AcDbLine
 10
-3.17717685010473
 20
170.9998983349571
 30
0.0
 11
0.28869714989527
 21
170.9998983349571
 31
0.0
  0
LINE
  5
AC
330
39
100
AcDbEntity
  8
1
  6
Continuous
 62
     7
100
AcDbLine
 10
-1.26128085010473
 20
171.5498883349571
 30
0.0
 11
-1.26128085010473
 21
172.4999033349571
 31
0.0
  0
LINE
  5
AD
330
39
100
AcDbEntity
  8
1
  6
Continuous
 62
     7
100
AcDbLine
 10
0.28869714989527
 20
172.0999033349571
 30
0.0
 11
-0.11130285010474
 21
172.4999033349571
 31
0.0
  0
LINE
  5
AE
330
39
100
AcDbEntity
  8
1
  6
Continuous
 62
     7
100
AcDbLine
 10
18.53769214989529
 20
171.5498883349571
 30
0.0
 11
18.53769214989529
 21
172.4999033349571
 31
0.0
  0
LINE
  5
AF
330
39
100
AcDbEntity
  8
1
  6
Continuous
 62
     7
100
AcDbLine
 10
18.53769214989529
 20
172.4999033349571
 30
0.0
 11
19.6876701498953
 21
172.4999033349571
 31
0.0
  0
LINE
  5
B0
330
39
100
AcDbEntity
  8
1
  6
Continuous
 62
     7
100
AcDbLine
 10
18.13766814989529
 20
171.5498883349571
 30
0.0
 11
18.53769214989529
 21
171.5498883349571
 31
0.0
  0
LINE
  5
B1
330
39
100
AcDbEntity
  8
1
  6
Continuous
 62
     7
100
AcDbLine
 10
18.13766814989529
 20
172.0999033349571
 30
0.0
 11
16.58769014989531
 21
172.0999033349571
 31
0.0
  0
LINE
  5
B2
330
39
100
AcDbEntity
  8
1
  6
Continuous
 62
     7
100
AcDbLine
 10
20.0876701498953
 20
172.0999033349571
 30
0.0
 11
18.53769214989529
 21
172.0999033349571
 31
0.0
  0
LINE
  5
B3
330
39
100
AcDbEntity
  8
1
  6
Continuous
 62
     7
100
AcDbLine
 10
16.98769014989532
 20
172.4999033349571
 30
0.0
 11
18.13766814989529
 21
172.4999033349571
 31
0.0
  0
LINE
  5
B4
330
39
100
AcDbEntity
  8
1
  6
Continuous
 62
     7
100
AcDbLine
 10
20.0876701498953
 20
172.0999033349571
 30
0.0
 11
19.6876701498953
 21
172.4999033349571
 31
0.0
  0
LINE
  5
B5
330
39
100
AcDbEntity
  8
1
  6
Continuous
 62
     7
100
AcDbLine
 10
20.0876701498953
 20
170.9998983349571
 30
0.0
 11
20.0876701498953
 21
172.0999033349571
 31
0.0
  0
LINE
  5
B6
330
39
100
AcDbEntity
  8
1
  6
Continuous
 62
     7
100
AcDbLine
 10
16.58769014989531
 20
172.0999033349571
 30
0.0
 11
16.58769014989531
 21
170.9998983349571
 31
0.0
  0
LINE
  5
B7
330
39
100
AcDbEntity
  8
1
  6
Continuous
 62
     7
100
AcDbLine
 10
16.58769014989531
 20
170.9998983349571
 30
0.0
 11
20.0535641498953
 21
170.9998983349571
 31
0.0
  0
LINE
  5
B8
330
39
100
AcDbEntity
  8
1
  6
Continuous
 62
     7
100
AcDbLine
 10
18.13766814989529
 20
172.4999033349571
 30
0.0
 11
18.13766814989529
 21
171.5498883349571
 31
0.0
  0
LINE
  5
B9
330
39
100
AcDbEntity
  8
1
  6
Continuous
 62
     7
100
AcDbLine
 10
16.98769014989532
 20
172.4999033349571
 30
0.0
 11
16.58769014989531
 21
172.0999033349571
 31
0.0
  0
LINE
  5
BA
330
39
100
AcDbEntity
  8
1
  6
Continuous
 62
     7
100
AcDbLine
 10
193.350499
 20
170.9998860540667
 30
0.0
 11
193.350499
 21
171.5498760540667
 31
0.0
  0
LINE
  5
BB
330
39
100
AcDbEntity
  8
1
  6
Continuous
 62
     7
100
AcDbLine
 10
192.747871
 20
172.4998910540667
 30
0.0
 11
192.935602
 21
172.4998910540667
 31
0.0
  0
LINE
  5
BC
330
39
100
AcDbEntity
  8
1
  6
Continuous
 62
     7
100
AcDbLine
 10
191.328118
 20
172.4998910540667
 30
0.0
 11
191.8729000000001
 21
172.4998910540667
 31
0.0
  0
LINE
  5
BD
330
39
100
AcDbEntity
  8
1
  6
Continuous
 62
     7
100
AcDbLine
 10
190.2654160000001
 20
172.4998910540667
 30
0.0
 11
190.4531470000001
 21
172.4998910540667
 31
0.0
  0
LINE
  5
BE
330
39
100
AcDbEntity
  8
1
  6
Continuous
 62
     7
100
AcDbLine
 10
189.853377
 20
171.5498760540667
 30
0.0
 11
189.861977
 21
171.5498760540667
 31
0.0
  0
LINE
  5
BF
330
39
100
AcDbEntity
  8
1
  6
Continuous
 62
     7
100
AcDbLine
 10
190.04714
 20
172.0998910540667
 30
0.0
 11
189.861977
 21
172.0998910540667
 31
0.0
  0
LINE
  5
C0
330
39
100
AcDbEntity
  8
1
  6
Continuous
 62
     7
100
AcDbLine
 10
191.600509
 20
172.0998910540667
 30
0.0
 11
190.977388
 21
172.0998910540667
 31
0.0
  0
LINE
  5
C1
330
39
100
AcDbEntity
  8
1
  6
Continuous
 62
     7
100
AcDbLine
 10
193.153878
 20
172.0998910540667
 30
0.0
 11
192.765094
 21
172.0998910540667
 31
0.0
  0
LINE
  5
C2
330
39
100
AcDbEntity
  8
1
  6
Continuous
 62
     7
100
AcDbLine
 10
186.1014750000001
 20
170.299910334957
 30
0.0
 11
186.635211
 21
170.299910334957
 31
0.0
  0
LINE
  5
C3
330
39
100
AcDbEntity
  8
1
  6
Continuous
 62
     7
100
AcDbLine
 10
189.861977
 20
172.0998910540667
 30
0.0
 11
190.2654160000001
 21
172.4998910540667
 31
0.0
  0
LINE
  5
C4
330
39
100
AcDbEntity
  8
1
  6
Continuous
 62
     7
100
AcDbLine
 10
191.8729000000001
 20
172.4998910540667
 30
0.0
 11
192.3733060000001
 21
172.4998910540667
 31
0.0
  0
LINE
  5
C5
330
39
100
AcDbEntity
  8
1
  6
Continuous
 62
     7
100
AcDbLine
 10
190.4531470000001
 20
172.4998910540667
 30
0.0
 11
190.827712
 21
172.4998910540667
 31
0.0
  0
LINE
  5
C6
330
39
100
AcDbEntity
  8
1
  6
Continuous
 62
     7
100
AcDbLine
 10
193.3390410000001
 20
171.5498760540667
 30
0.0
 11
193.3476410000001
 21
171.5498760540667
 31
0.0
  0
LINE
  5
C7
330
39
100
AcDbEntity
  8
1
  6
Continuous
 62
     7
100
AcDbLine
 10
189.861977
 20
171.5498760540667
 30
0.0
 11
189.861977
 21
172.0998910540667
 31
0.0
  0
LINE
  5
C8
330
39
100
AcDbEntity
  8
1
  6
Continuous
 62
     7
100
AcDbLine
 10
190.977388
 20
172.0998910540667
 30
0.0
 11
190.4359240000001
 21
172.0998910540667
 31
0.0
  0
LINE
  5
C9
330
39
100
AcDbEntity
  8
1
  6
Continuous
 62
     7
100
AcDbLine
 10
192.765094
 20
172.0998910540667
 30
0.0
 11
192.2236300000001
 21
172.0998910540667
 31
0.0
  0
LINE
  5
CA
330
39
100
AcDbEntity
  8
1
  6
Continuous
 62
     7
100
AcDbLine
 10
186.635211
 20
170.299910334957
 30
0.0
 11
187.041049
 21
170.299910334957
 31
0.0
  0
LINE
  5
CB
330
39
100
AcDbEntity
  8
1
  6
Continuous
 62
     7
100
AcDbLine
 10
193.3390410000001
 20
172.0998910540667
 30
0.0
 11
193.3390410000001
 21
171.5498760540667
 31
0.0
  0
LINE
  5
CC
330
39
100
AcDbEntity
  8
1
  6
Continuous
 62
     7
100
AcDbLine
 10
189.850519
 20
171.5498760540667
 30
0.0
 11
189.850519
 21
170.9998860540667
 31
0.0
  0
LINE
  5
CD
330
39
100
AcDbEntity
  8
1
  6
Continuous
 62
     7
100
AcDbLine
 10
192.935602
 20
172.4998910540667
 30
0.0
 11
193.3390410000001
 21
172.0998910540667
 31
0.0
  0
LINE
  5
CE
330
39
100
AcDbEntity
  8
1
  6
Continuous
 62
     7
100
AcDbLine
 10
189.884625
 20
170.9998860540667
 30
0.0
 11
193.350499
 21
170.9998860540667
 31
0.0
  0
LINE
  5
CF
330
39
100
AcDbEntity
  8
1
  6
Continuous
 62
     7
100
AcDbLine
 10
192.3733060000001
 20
172.4998910540667
 30
0.0
 11
192.747871
 21
172.4998910540667
 31
0.0
  0
LINE
  5
D0
330
39
100
AcDbEntity
  8
1
  6
Continuous
 62
     7
100
AcDbLine
 10
190.827712
 20
172.4998910540667
 30
0.0
 11
191.328118
 21
172.4998910540667
 31
0.0
  0
LINE
  5
D1
330
39
100
AcDbEntity
  8
1
  6
Continuous
 62
     7
100
AcDbLine
 10
193.3476410000001
 20
171.5498760540667
 30
0.0
 11
193.350499
 21
171.5498760540667
 31
0.0
  0
LINE
  5
D2
330
39
100
AcDbEntity
  8
1
  6
Continuous
 62
     7
100
AcDbLine
 10
189.850519
 20
171.5498760540667
 30
0.0
 11
189.853377
 21
171.5498760540667
 31
0.0
  0
LINE
  5
D3
330
39
100
AcDbEntity
  8
1
  6
Continuous
 62
     7
100
AcDbLine
 10
190.4359240000001
 20
172.0998910540667
 30
0.0
 11
190.04714
 21
172.0998910540667
 31
0.0
  0
LINE
  5
D4
330
39
100
AcDbEntity
  8
1
  6
Continuous
 62
     7
100
AcDbLine
 10
187.273278
 20
170.299910334957
 30
0.0
 11
187.397592
 21
170.291675334957
 31
0.0
  0
LINE
  5
D5
330
39
100
AcDbEntity
  8
1
  6
Continuous
 62
     7
100
AcDbLine
 10
192.2236300000001
 20
172.0998910540667
 30
0.0
 11
191.600509
 21
172.0998910540667
 31
0.0
  0
LINE
  5
D6
330
39
100
AcDbEntity
  8
1
  6
Continuous
 62
     7
100
AcDbLine
 10
187.041049
 20
170.299910334957
 30
0.0
 11
187.273278
 21
170.299910334957
 31
0.0
  0
LINE
  5
D7
330
39
100
AcDbEntity
  8
1
  6
Continuous
 62
     7
100
AcDbLine
 10
193.3390410000001
 20
172.0998910540667
 30
0.0
 11
193.153878
 21
172.0998910540667
 31
0.0
  0
LINE
  5
D8
330
39
100
AcDbEntity
  8
1
  6
Continuous
 62
     7
100
AcDbLine
 10
212.734611
 20
172.4998910540667
 30
0.0
 11
213.138026
 21
172.0998910540667
 31
0.0
  0
LINE
  5
D9
330
39
100
AcDbEntity
  8
1
  6
Continuous
 62
     7
100
AcDbLine
 10
212.172291
 20
172.4998910540667
 30
0.0
 11
212.546856
 21
172.4998910540667
 31
0.0
  0
LINE
  5
DA
330
39
100
AcDbEntity
  8
1
  6
Continuous
 62
     7
100
AcDbLine
 10
210.626721
 20
172.4998910540667
 30
0.0
 11
211.127127
 21
172.4998910540667
 31
0.0
  0
LINE
  5
DB
330
39
100
AcDbEntity
  8
1
  6
Continuous
 62
     7
100
AcDbLine
 10
213.146626
 20
171.5498760540667
 30
0.0
 11
213.149508
 21
171.5498760540667
 31
0.0
  0
LINE
  5
DC
330
39
100
AcDbEntity
  8
1
  6
Continuous
 62
     7
100
AcDbLine
 10
209.649504
 20
171.5498760540667
 30
0.0
 11
209.652362
 21
171.5498760540667
 31
0.0
  0
LINE
  5
DD
330
39
100
AcDbEntity
  8
1
  6
Continuous
 62
     7
100
AcDbLine
 10
210.234909
 20
172.0998910540667
 30
0.0
 11
209.846125
 21
172.0998910540667
 31
0.0
  0
LINE
  5
DE
330
39
100
AcDbEntity
  8
1
  6
Continuous
 62
     7
100
AcDbLine
 10
212.022639
 20
172.0998910540667
 30
0.0
 11
211.3994940000001
 21
172.0998910540667
 31
0.0
  0
LINE
  5
DF
330
39
100
AcDbEntity
  8
1
  6
Continuous
 62
     7
100
AcDbLine
 10
213.138026
 20
172.0998910540667
 30
0.0
 11
212.952863
 21
172.0998910540667
 31
0.0
  0
LINE
  5
E0
330
39
100
AcDbEntity
  8
1
  6
Continuous
 62
     7
100
AcDbLine
 10
209.649504
 20
170.9998860540667
 30
0.0
 11
213.115378
 21
170.9998860540667
 31
0.0
  0
LINE
  5
E1
330
39
100
AcDbEntity
  8
1
  6
Continuous
 62
     7
100
AcDbLine
 10
212.546856
 20
172.4998910540667
 30
0.0
 11
212.734611
 21
172.4998910540667
 31
0.0
  0
LINE
  5
E2
330
39
100
AcDbEntity
  8
1
  6
Continuous
 62
     7
100
AcDbLine
 10
211.127127
 20
172.4998910540667
 30
0.0
 11
211.671885
 21
172.4998910540667
 31
0.0
  0
LINE
  5
E3
330
39
100
AcDbEntity
  8
1
  6
Continuous
 62
     7
100
AcDbLine
 10
210.064401
 20
172.4998910540667
 30
0.0
 11
210.2521320000001
 21
172.4998910540667
 31
0.0
  0
LINE
  5
E4
330
39
100
AcDbEntity
  8
1
  6
Continuous
 62
     7
100
AcDbLine
 10
209.652362
 20
171.5498760540667
 30
0.0
 11
209.660962
 21
171.5498760540667
 31
0.0
  0
LINE
  5
E5
330
39
100
AcDbEntity
  8
1
  6
Continuous
 62
     7
100
AcDbLine
 10
209.846125
 20
172.0998910540667
 30
0.0
 11
209.660962
 21
172.0998910540667
 31
0.0
  0
LINE
  5
E6
330
39
100
AcDbEntity
  8
1
  6
Continuous
 62
     7
100
AcDbLine
 10
211.3994940000001
 20
172.0998910540667
 30
0.0
 11
210.776373
 21
172.0998910540667
 31
0.0
  0
LINE
  5
E7
330
39
100
AcDbEntity
  8
1
  6
Continuous
 62
     7
100
AcDbLine
 10
212.952863
 20
172.0998910540667
 30
0.0
 11
212.564079
 21
172.0998910540667
 31
0.0
  0
LINE
  5
E8
330
39
100
AcDbEntity
  8
1
  6
Continuous
 62
     7
100
AcDbLine
 10
209.649504
 20
171.5498760540667
 30
0.0
 11
209.649504
 21
170.9998860540667
 31
0.0
  0
LINE
  5
E9
330
39
100
AcDbEntity
  8
1
  6
Continuous
 62
     7
100
AcDbLine
 10
213.149508
 20
170.9998860540667
 30
0.0
 11
213.149508
 21
171.5498760540667
 31
0.0
  0
LINE
  5
EA
330
39
100
AcDbEntity
  8
1
  6
Continuous
 62
     7
100
AcDbLine
 10
209.660962
 20
172.0998910540667
 30
0.0
 11
210.064401
 21
172.4998910540667
 31
0.0
  0
LINE
  5
EB
330
39
100
AcDbEntity
  8
1
  6
Continuous
 62
     7
100
AcDbLine
 10
211.671885
 20
172.4998910540667
 30
0.0
 11
212.172291
 21
172.4998910540667
 31
0.0
  0
LINE
  5
EC
330
39
100
AcDbEntity
  8
1
  6
Continuous
 62
     7
100
AcDbLine
 10
210.2521320000001
 20
172.4998910540667
 30
0.0
 11
210.626721
 21
172.4998910540667
 31
0.0
  0
LINE
  5
ED
330
39
100
AcDbEntity
  8
1
  6
Continuous
 62
     7
100
AcDbLine
 10
213.138026
 20
171.5498760540667
 30
0.0
 11
213.146626
 21
171.5498760540667
 31
0.0
  0
LINE
  5
EE
330
39
100
AcDbEntity
  8
1
  6
Continuous
 62
     7
100
AcDbLine
 10
209.660962
 20
171.5498760540667
 30
0.0
 11
209.660962
 21
172.0998910540667
 31
0.0
  0
LINE
  5
EF
330
39
100
AcDbEntity
  8
1
  6
Continuous
 62
     7
100
AcDbLine
 10
210.776373
 20
172.0998910540667
 30
0.0
 11
210.234909
 21
172.0998910540667
 31
0.0
  0
LINE
  5
F0
330
39
100
AcDbEntity
  8
1
  6
Continuous
 62
     7
100
AcDbLine
 10
212.564079
 20
172.0998910540667
 30
0.0
 11
212.022639
 21
172.0998910540667
 31
0.0
  0
LINE
  5
F1
330
39
100
AcDbEntity
  8
1
  6
Continuous
 62
     7
100
AcDbLine
 10
213.138026
 20
172.0998910540667
 30
0.0
 11
213.138026
 21
171.5498760540667
 31
0.0
  0
LINE
  5
F2
330
39
100
AcDbEntity
  8
1
  6
Continuous
 62
     7
100
AcDbLine
 10
220.7478570000001
 20
172.499915334957
 30
0.0
 11
220.935612
 21
172.499915334957
 31
0.0
  0
LINE
  5
F3
330
39
100
AcDbEntity
  8
1
  6
Continuous
 62
     7
100
AcDbLine
 10
219.328128
 20
172.499915334957
 30
0.0
 11
219.872887
 21
172.499915334957
 31
0.0
  0
LINE
  5
F4
330
39
100
AcDbEntity
  8
1
  6
Continuous
 62
     7
100
AcDbLine
 10
218.2654020000001
 20
172.499915334957
 30
0.0
 11
218.453157
 21
172.499915334957
 31
0.0
  0
LINE
  5
F5
330
39
100
AcDbEntity
  8
1
  6
Continuous
 62
     7
100
AcDbLine
 10
217.8533880000001
 20
171.549900334957
 30
0.0
 11
217.8619630000001
 21
171.549900334957
 31
0.0
  0
LINE
  5
F6
330
39
100
AcDbEntity
  8
1
  6
Continuous
 62
     7
100
AcDbLine
 10
218.04715
 20
172.099915334957
 30
0.0
 11
217.8619630000001
 21
172.099915334957
 31
0.0
  0
LINE
  5
F7
330
39
100
AcDbEntity
  8
1
  6
Continuous
 62
     7
100
AcDbLine
 10
219.600519
 20
172.099915334957
 30
0.0
 11
218.9773740000001
 21
172.099915334957
 31
0.0
  0
LINE
  5
F8
330
39
100
AcDbEntity
  8
1
  6
Continuous
 62
     7
100
AcDbLine
 10
221.153889
 20
172.099915334957
 30
0.0
 11
220.76508
 21
172.099915334957
 31
0.0
  0
LINE
  5
F9
330
39
100
AcDbEntity
  8
1
  6
Continuous
 62
     7
100
AcDbLine
 10
217.8505050000001
 20
171.549900334957
 30
0.0
 11
217.8505050000001
 21
170.999910334957
 31
0.0
  0
LINE
  5
FA
330
39
100
AcDbEntity
  8
1
  6
Continuous
 62
     7
100
AcDbLine
 10
217.8619630000001
 20
172.099915334957
 30
0.0
 11
218.2654020000001
 21
172.499915334957
 31
0.0
  0
LINE
  5
FB
330
39
100
AcDbEntity
  8
1
  6
Continuous
 62
     7
100
AcDbLine
 10
219.872887
 20
172.499915334957
 30
0.0
 11
220.373292
 21
172.499915334957
 31
0.0
  0
LINE
  5
FC
330
39
100
AcDbEntity
  8
1
  6
Continuous
 62
     7
100
AcDbLine
 10
218.453157
 20
172.499915334957
 30
0.0
 11
218.827723
 21
172.499915334957
 31
0.0
  0
LINE
  5
FD
330
39
100
AcDbEntity
  8
1
  6
Continuous
 62
     7
100
AcDbLine
 10
221.339052
 20
171.549900334957
 30
0.0
 11
221.347651
 21
171.549900334957
 31
0.0
  0
LINE
  5
FE
330
39
100
AcDbEntity
  8
1
  6
Continuous
 62
     7
100
AcDbLine
 10
217.8619630000001
 20
171.549900334957
 30
0.0
 11
217.8619630000001
 21
172.099915334957
 31
0.0
  0
LINE
  5
FF
330
39
100
AcDbEntity
  8
1
  6
Continuous
 62
     7
100
AcDbLine
 10
218.9773740000001
 20
172.099915334957
 30
0.0
 11
218.435935
 21
172.099915334957
 31
0.0
  0
LINE
  5
100
330
39
100
AcDbEntity
  8
1
  6
Continuous
 62
     7
100
AcDbLine
 10
220.76508
 20
172.099915334957
 30
0.0
 11
220.22364
 21
172.099915334957
 31
0.0
  0
LINE
  5
101
330
39
100
AcDbEntity
  8
1
  6
Continuous
 62
     7
100
AcDbLine
 10
221.339052
 20
172.099915334957
 30
0.0
 11
221.339052
 21
171.549900334957
 31
0.0
  0
LINE
  5
102
330
39
100
AcDbEntity
  8
1
  6
Continuous
 62
     7
100
AcDbLine
 10
217.8846360000001
 20
170.999910334957
 30
0.0
 11
221.350509
 21
170.999910334957
 31
0.0
  0
LINE
  5
103
330
39
100
AcDbEntity
  8
1
  6
Continuous
 62
     7
100
AcDbLine
 10
221.350509
 20
170.999910334957
 30
0.0
 11
221.350509
 21
171.549900334957
 31
0.0
  0
LINE
  5
104
330
39
100
AcDbEntity
  8
1
  6
Continuous
 62
     7
100
AcDbLine
 10
220.935612
 20
172.499915334957
 30
0.0
 11
221.339052
 21
172.099915334957
 31
0.0
  0
LINE
  5
105
330
39
100
AcDbEntity
  8
1
  6
Continuous
 62
     7
100
AcDbLine
 10
220.373292
 20
172.499915334957
 30
0.0
 11
220.7478570000001
 21
172.499915334957
 31
0.0
  0
LINE
  5
106
330
39
100
AcDbEntity
  8
1
  6
Continuous
 62
     7
100
AcDbLine
 10
218.827723
 20
172.499915334957
 30
0.0
 11
219.328128
 21
172.499915334957
 31
0.0
  0
LINE
  5
107
330
39
100
AcDbEntity
  8
1
  6
Continuous
 62
     7
100
AcDbLine
 10
221.347651
 20
171.549900334957
 30
0.0
 11
221.350509
 21
171.549900334957
 31
0.0
  0
LINE
  5
108
330
39
100
AcDbEntity
  8
1
  6
Continuous
 62
     7
100
AcDbLine
 10
217.8505050000001
 20
171.549900334957
 30
0.0
 11
217.8533880000001
 21
171.549900334957
 31
0.0
  0
LINE
  5
109
330
39
100
AcDbEntity
  8
1
  6
Continuous
 62
     7
100
AcDbLine
 10
218.435935
 20
172.099915334957
 30
0.0
 11
218.04715
 21
172.099915334957
 31
0.0
  0
LINE
  5
10A
330
39
100
AcDbEntity
  8
1
  6
Continuous
 62
     7
100
AcDbLine
 10
220.22364
 20
172.099915334957
 30
0.0
 11
219.600519
 21
172.099915334957
 31
0.0
  0
LINE
  5
10B
330
39
100
AcDbEntity
  8
1
  6
Continuous
 62
     7
100
AcDbLine
 10
221.339052
 20
172.099915334957
 30
0.0
 11
221.153889
 21
172.099915334957
 31
0.0
  0
LINE
  5
10C
330
39
100
AcDbEntity
  8
1
  6
Continuous
 62
     7
100
AcDbLine
 10
237.660972
 20
172.099915334957
 30
0.0
 11
238.064387
 21
172.499915334957
 31
0.0
  0
LINE
  5
10D
330
39
100
AcDbEntity
  8
1
  6
Continuous
 62
     7
100
AcDbLine
 10
239.671872
 20
172.499915334957
 30
0.0
 11
240.172277
 21
172.499915334957
 31
0.0
  0
LINE
  5
10E
330
39
100
AcDbEntity
  8
1
  6
Continuous
 62
     7
100
AcDbLine
 10
238.252142
 20
172.499915334957
 30
0.0
 11
238.626708
 21
172.499915334957
 31
0.0
  0
LINE
  5
10F
330
39
100
AcDbEntity
  8
1
  6
Continuous
 62
     7
100
AcDbLine
 10
241.1380370000001
 20
171.549900334957
 30
0.0
 11
241.1466360000001
 21
171.549900334957
 31
0.0
  0
LINE
  5
110
330
39
100
AcDbEntity
  8
1
  6
Continuous
 62
     7
100
AcDbLine
 10
237.660972
 20
171.549900334957
 30
0.0
 11
237.660972
 21
172.099915334957
 31
0.0
  0
LINE
  5
111
330
39
100
AcDbEntity
  8
1
  6
Continuous
 62
     7
100
AcDbLine
 10
238.7763590000001
 20
172.099915334957
 30
0.0
 11
238.23492
 21
172.099915334957
 31
0.0
  0
LINE
  5
112
330
39
100
AcDbEntity
  8
1
  6
Continuous
 62
     7
100
AcDbLine
 10
240.5640890000001
 20
172.099915334957
 30
0.0
 11
240.0226250000001
 21
172.099915334957
 31
0.0
  0
LINE
  5
113
330
39
100
AcDbEntity
  8
1
  6
Continuous
 62
     7
100
AcDbLine
 10
241.1380370000001
 20
172.099915334957
 30
0.0
 11
241.1380370000001
 21
171.549900334957
 31
0.0
  0
LINE
  5
114
330
39
100
AcDbEntity
  8
1
  6
Continuous
 62
     7
100
AcDbLine
 10
241.149494
 20
170.999910334957
 30
0.0
 11
241.149494
 21
171.549900334957
 31
0.0
  0
LINE
  5
115
330
39
100
AcDbEntity
  8
1
  6
Continuous
 62
     7
100
AcDbLine
 10
240.734597
 20
172.499915334957
 30
0.0
 11
241.1380370000001
 21
172.099915334957
 31
0.0
  0
LINE
  5
116
330
39
100
AcDbEntity
  8
1
  6
Continuous
 62
     7
100
AcDbLine
 10
240.172277
 20
172.499915334957
 30
0.0
 11
240.546867
 21
172.499915334957
 31
0.0
  0
LINE
  5
117
330
39
100
AcDbEntity
  8
1
  6
Continuous
 62
     7
100
AcDbLine
 10
238.626708
 20
172.499915334957
 30
0.0
 11
239.127113
 21
172.499915334957
 31
0.0
  0
LINE
  5
118
330
39
100
AcDbEntity
  8
1
  6
Continuous
 62
     7
100
AcDbLine
 10
241.1466360000001
 20
171.549900334957
 30
0.0
 11
241.149494
 21
171.549900334957
 31
0.0
  0
LINE
  5
119
330
39
100
AcDbEntity
  8
1
  6
Continuous
 62
     7
100
AcDbLine
 10
237.64949
 20
171.549900334957
 30
0.0
 11
237.652373
 21
171.549900334957
 31
0.0
  0
LINE
  5
11A
330
39
100
AcDbEntity
  8
1
  6
Continuous
 62
     7
100
AcDbLine
 10
238.23492
 20
172.099915334957
 30
0.0
 11
237.846135
 21
172.099915334957
 31
0.0
  0
LINE
  5
11B
330
39
100
AcDbEntity
  8
1
  6
Continuous
 62
     7
100
AcDbLine
 10
240.0226250000001
 20
172.099915334957
 30
0.0
 11
239.399504
 21
172.099915334957
 31
0.0
  0
LINE
  5
11C
330
39
100
AcDbEntity
  8
1
  6
Continuous
 62
     7
100
AcDbLine
 10
241.1380370000001
 20
172.099915334957
 30
0.0
 11
240.9528740000001
 21
172.099915334957
 31
0.0
  0
LINE
  5
11D
330
39
100
AcDbEntity
  8
1
  6
Continuous
 62
     7
100
AcDbLine
 10
240.546867
 20
172.499915334957
 30
0.0
 11
240.734597
 21
172.499915334957
 31
0.0
  0
LINE
  5
11E
330
39
100
AcDbEntity
  8
1
  6
Continuous
 62
     7
100
AcDbLine
 10
239.127113
 20
172.499915334957
 30
0.0
 11
239.671872
 21
172.499915334957
 31
0.0
  0
LINE
  5
11F
330
39
100
AcDbEntity
  8
1
  6
Continuous
 62
     7
100
AcDbLine
 10
238.064387
 20
172.499915334957
 30
0.0
 11
238.252142
 21
172.499915334957
 31
0.0
  0
LINE
  5
120
330
39
100
AcDbEntity
  8
1
  6
Continuous
 62
     7
100
AcDbLine
 10
237.652373
 20
171.549900334957
 30
0.0
 11
237.660972
 21
171.549900334957
 31
0.0
  0
LINE
  5
121
330
39
100
AcDbEntity
  8
1
  6
Continuous
 62
     7
100
AcDbLine
 10
237.846135
 20
172.099915334957
 30
0.0
 11
237.660972
 21
172.099915334957
 31
0.0
  0
LINE
  5
122
330
39
100
AcDbEntity
  8
1
  6
Continuous
 62
     7
100
AcDbLine
 10
239.399504
 20
172.099915334957
 30
0.0
 11
238.7763590000001
 21
172.099915334957
 31
0.0
  0
LINE
  5
123
330
39
100
AcDbEntity
  8
1
  6
Continuous
 62
     7
100
AcDbLine
 10
240.9528740000001
 20
172.099915334957
 30
0.0
 11
240.5640890000001
 21
172.099915334957
 31
0.0
  0
LINE
  5
124
330
39
100
AcDbEntity
  8
1
  6
Continuous
 62
     7
100
AcDbLine
 10
237.660972
 20
170.999910334957
 30
0.0
 11
241.115364
 21
170.999910334957
 31
0.0
  0
LINE
  5
125
330
39
100
AcDbEntity
  8
1
  6
Continuous
 62
     7
100
AcDbLine
 10
237.64949
 20
171.549900334957
 30
0.0
 11
237.64949
 21
170.999910334957
 31
0.0
  0
LINE
  5
126
330
39
100
AcDbEntity
  8
1
  6
DOT_CENTER
 62
     2
100
AcDbLine
 10
-1.46129285010473
 20
174.0999033349571
 30
0.0
 11
-1.46129285010473
 21
168.9998983349571
 31
0.0
  0
LINE
  5
127
330
39
100
AcDbEntity
  8
1
  6
DOT_CENTER
 62
     2
100
AcDbLine
 10
18.33768014989531
 20
168.9998983349571
 30
0.0
 11
18.33768014989531
 21
174.0999033349571
 31
0.0
  0
LINE
  5
128
330
39
100
AcDbEntity
  8
1
  6
DOT_CENTER
 62
     2
100
AcDbLine
 10
191.59478
 20
174.0998910540667
 30
0.0
 11
191.59478
 21
168.9998860540667
 31
0.0
  0
LINE
  5
129
330
39
100
AcDbEntity
  8
1
  6
DOT_CENTER
 62
     2
100
AcDbLine
 10
211.3994940000001
 20
169.5498760540667
 30
0.0
 11
211.3994940000001
 21
174.0998910540667
 31
0.0
  0
LINE
  5
12A
330
39
100
AcDbEntity
  8
1
  6
DOT_CENTER
 62
     2
100
AcDbLine
 10
219.6005075
 20
169.549900334957
 30
0.0
 11
219.6005075
 21
174.099915334957
 31
0.0
  0
LINE
  5
12B
330
39
100
AcDbEntity
  8
1
  6
DOT_CENTER
 62
     2
100
AcDbLine
 10
239.3995045
 20
169.549900334957
 30
0.0
 11
239.3995045
 21
174.099915334957
 31
0.0
  0
ENDBLK
  5
3B
330
39
100
AcDbEntity
  8
0
100
AcDbBlockEnd
  0
BLOCK
  5
3D
330
3C
100
AcDbEntity
  8
0
100
AcDbBlockBegin
  2
O-Ring
 70
     0
 71
     0
 10
314.5271967487042
 20
119.8581310804264
 30
0.0
  3
O-Ring
  1

  0
LINE
  5
12C
330
3C
100
AcDbEntity
  8
1
  6
Continuous
 62
     7
100
AcDbLine
 10
33.41155414989525
 20
204.7487836947401
 30
0.0
 11
33.41155414989525
 21
205.3237836947399
 31
0.0
  0
LINE
  5
12D
330
3C
100
AcDbEntity
  8
1
  6
Continuous
 62
     7
100
AcDbLine
 10
33.41155414989525
 20
182.5737836947399
 30
0.0
 11
33.41155414989525
 21
183.1487836947399
 31
0.0
  0
ARC
  5
12E
102
{ACAD_REACTORS
330
132
330
132
102
}
330
3C
100
AcDbEntity
  8
1
  6
Continuous
 62
     7
100
AcDbCircle
 10
32.61155414989519
 20
205.3237836947399
 30
0.0
 40
0.7999999999999616
100
AcDbArc
 50
180.0
 51
0.0
  0
ARC
  5
12F
102
{ACAD_REACTORS
330
132
330
132
102
}
330
3C
100
AcDbEntity
  8
1
  6
Continuous
 62
     7
100
AcDbCircle
 10
32.61155414989519
 20
205.3237836947399
 30
0.0
 40
0.8000000000000611
100
AcDbArc
 50
0.0
 51
180.0
  0
CIRCLE
  5
130
102
{ACAD_REACTORS
330
131
330
131
102
}
330
3C
100
AcDbEntity
  8
1
  6
Continuous
 62
     7
100
AcDbCircle
 10
32.61155414989519
 20
182.5737836947399
 30
0.0
 40
0.8000000000000611
  0
HATCH
  5
131
330
3C
100
AcDbEntity
  8
1
  6
Continuous
 62
     2
100
AcDbHatch
 10
0.0
 20
0.0
 30
0.0
210
0.0
220
0.0
230
1.0
  2
CUSTOM0
 70
     0
 71
     1
 91
        1
 92
        1
 93
        1
 72
     2
 10
32.61155414989519
 20
182.5737836947399
 40
0.8000000000000611
 50
0.0
 51
360.0
 73
     1
 97
        1
330
130
 75
     1
 76
     2
 52
45.0
 41
0.5
 77
     0
 78
     2
 53
45.0
 43
0.0
 44
0.0
 45
-0.7071067811865475
 46
0.0000000000000001
 79
     0
 53
135.0
 43
0.0
 44
0.0
 45
0.0000000000000003
 46
-0.7071067811865475
 79
     0
 98
        1
 10
0.0
 20
0.0
  0
HATCH
  5
132
330
3C
100
AcDbEntity
  8
1
  6
Continuous
 62
     2
100
AcDbHatch
 10
0.0
 20
0.0
 30
0.0
210
0.0
220
0.0
230
1.0
  2
CUSTOM1
 70
     0
 71
     1
 91
        1
 92
        1
 93
        2
 72
     2
 10
32.61155414989519
 20
205.3237836947399
 40
0.7999999999999616
 50
180.0
 51
360.0
 73
     1
 72
     2
 10
32.61155414989519
 20
205.3237836947399
 40
0.8000000000000611
 50
0.0
 51
180.0
 73
     1
 97
        2
330
12E
330
12F
 75
     1
 76
     2
 52
45.0
 41
0.5
 77
     0
 78
     2
 53
45.0
 43
0.0
 44
0.0
 45
-0.7071067811865475
 46
0.0000000000000001
 79
     0
 53
135.0
 43
0.0
 44
0.0
 45
0.0000000000000003
 46
-0.7071067811865475
 79
     0
 98
        1
 10
0.0
 20
0.0
  0
ENDBLK
  5
3E
330
3C
100
AcDbEntity
  8
0
100
AcDbBlockEnd
  0
BLOCK
  5
41
330
3F
100
AcDbEntity
  8
0
100
AcDbBlockBegin
  2
Winkelflanschdose_8-polig_drehbar
 70
     0
 71
     0
 10
636.191638802001
 20
-171.725200247529
 30
0.0
  3
Winkelflanschdose_8-polig_drehbar
  1

  0
INSERT
  5
40
330
3F
100
AcDbEntity
  8
1
100
AcDbBlockReference
  2
O-Ring
 10
314.5271967487042
 20
119.8581310804264
 30
0.0
  0
POINT
  5
133
330
3F
100
AcDbEntity
  8
1
 62
     3
 60
     1
100
AcDbPoint
 10
189.4980700102992
 20
177.499874334957
 30
0.0
  0
POINT
  5
134
330
3F
100
AcDbEntity
  8
1
 62
     3
 60
     1
100
AcDbPoint
 10
213.4980700102992
 20
177.499874334957
 30
0.0
  0
POINT
  5
135
330
3F
100
AcDbEntity
  8
1
 62
     3
 60
     1
100
AcDbPoint
 10
21.19825414989525
 20
181.451323685038
 30
0.0
  0
POINT
  5
136
330
3F
100
AcDbEntity
  8
1
 62
     3
 60
     1
100
AcDbPoint
 10
21.19825414989525
 20
177.451323685038
 30
0.0
  0
POINT
  5
137
330
3F
100
AcDbEntity
  8
1
 62
     3
 60
     1
100
AcDbPoint
 10
21.19825414989525
 20
177.4513245263842
 30
0.0
  0
POINT
  5
138
330
3F
100
AcDbEntity
  8
1
 62
     3
 60
     1
100
AcDbPoint
 10
188.6480700102991
 20
170.999874334957
 30
0.0
  0
POINT
  5
139
330
3F
100
AcDbEntity
  8
1
 62
     3
 60
     1
100
AcDbPoint
 10
188.6480700102991
 20
180.999874334957
 30
0.0
  0
POINT
  5
13A
330
3F
100
AcDbEntity
  8
1
 62
     3
 60
     1
100
AcDbPoint
 10
189.4980700102992
 20
180.999874334957
 30
0.0
  0
LINE
  5
13B
330
3F
100
AcDbEntity
  8
AM_VIS
  6
Continuous
 62
     7
100
AcDbLine
 10
-3.65174585010473
 20
170.9513236850392
 30
0.0
 11
-4.50174585010473
 21
170.9513236850396
 31
0.0
  0
LINE
  5
13C
330
3F
100
AcDbEntity
  8
1
  6
DOT_CENTER
 62
     2
100
AcDbLine
 10
8.34825414989554
 20
168.2511447169435
 30
0.0
 11
8.34825414989497
 21
172.9513236850412
 31
0.0
  0
LINE
  5
13D
330
3F
100
AcDbEntity
  8
AM_VIS
  6
Continuous
 62
     2
100
AcDbLine
 10
-3.65174585010473
 20
181.574088685038
 30
0.0
 11
-4.37485485010473
 21
181.574088685038
 31
0.0
  0
LINE
  5
13E
330
3F
100
AcDbEntity
  8
AM_VIS
  6
Continuous
 62
     7
100
AcDbLine
 10
-3.65174585010473
 20
181.574088685038
 30
0.0
 11
-3.65174585010473
 21
170.9513236850392
 31
0.0
  0
LINE
  5
13F
330
3F
100
AcDbEntity
  8
AM_VIS
  6
Continuous
 62
     7
100
AcDbLine
 10
17.54825596389471
 20
168.4513282745101
 30
0.0
 11
-0.85174925756974
 21
168.4513464870926
 31
0.0
  0
LINE
  5
140
330
3F
100
AcDbEntity
  8
AM_VIS
  6
Continuous
 62
     7
100
AcDbLine
 10
21.19825414989522
 20
170.251144716945
 30
0.0
 11
21.19825414989514
 21
170.9513236850379
 31
0.0
  0
LINE
  5
141
330
3F
100
AcDbEntity
  8
AM_VIS
  6
Continuous
 62
     7
100
AcDbLine
 10
18.15779914989519
 20
183.6750446549929
 30
0.0
 11
18.15779914989519
 21
172.4513286850381
 31
0.0
  0
LINE
  5
142
330
3F
100
AcDbEntity
  8
AM_VIS
  6
Continuous
 62
     7
100
AcDbLine
 10
-1.46129285010473
 20
172.4513286850381
 30
0.0
 11
-1.46129285010473
 21
183.531323685038
 31
0.0
  0
LINE
  5
143
330
3F
100
AcDbEntity
  8
AM_VIS
  6
Continuous
 62
     2
100
AcDbLine
 10
-4.48812998951263
 20
181.451323685038
 30
0.0
 11
-3.65174585010473
 21
181.451323685038
 31
0.0
  0
LINE
  5
144
330
3F
100
AcDbEntity
  8
AM_VIS
  6
Continuous
 62
     7
100
AcDbLine
 10
-1.46129285010473
 20
170.9513236850379
 30
0.0
 11
-1.67540085010474
 21
170.9513236850379
 31
0.0
  0
LINE
  5
145
330
3F
100
AcDbEntity
  8
AM_VIS
  6
Continuous
 62
     7
100
AcDbLine
 10
-1.67540085010474
 20
170.9513236850379
 30
0.0
 11
-3.65174585010473
 21
170.9513236850392
 31
0.0
  0
LINE
  5
146
330
3F
100
AcDbEntity
  8
AM_VIS
  6
Continuous
 62
     7
100
AcDbLine
 10
18.37191014989519
 20
170.951323685038
 30
0.0
 11
18.15779914989519
 21
170.951323685038
 31
0.0
  0
LINE
  5
147
330
3F
100
AcDbEntity
  8
AM_VIS
  6
Continuous
 62
     7
100
AcDbLine
 10
18.15779914989519
 20
170.951323685038
 30
0.0
 11
-1.46129285010473
 21
170.9513236850379
 31
0.0
  0
LINE
  5
148
330
3F
100
AcDbEntity
  8
AM_VIS
  6
Continuous
 62
     7
100
AcDbLine
 10
191.6885246380346
 20
172.499879334957
 30
0.0
 11
191.6885220102992
 21
183.088089334957
 31
0.0
  0
LINE
  5
149
330
3F
100
AcDbEntity
  8
AM_VIS
  6
Continuous
 62
     2
100
AcDbLine
 10
31.01155414989528
 20
182.152850685038
 30
0.0
 11
19.66224269652564
 21
182.152850685038
 31
0.0
  0
LINE
  5
14A
330
3F
100
AcDbEntity
  8
AM_VIS
  6
Continuous
 62
     7
100
AcDbLine
 10
47.21155414989538
 20
204.7513236850379
 30
0.0
 11
42.01155414989528
 21
204.7513236850379
 31
0.0
  0
LINE
  5
14B
330
3F
100
AcDbEntity
  8
1
  6
Continuous
 62
     7
100
AcDbLine
 10
213.4980700102992
 20
170.999874334957
 30
0.0
 11
188.6480700102991
 21
170.999874334957
 31
0.0
  0
LINE
  5
14C
330
3F
100
AcDbEntity
  8
AM_VIS
  6
Continuous
 62
     7
100
AcDbLine
 10
213.4980700102992
 20
177.499874334957
 30
0.0
 11
213.4980700102992
 21
190.4998866158473
 31
0.0
  0
LINE
  5
14D
330
3F
100
AcDbEntity
  8
AM_VIS
  6
Continuous
 62
     7
100
AcDbLine
 10
189.4980700102992
 20
177.499874334957
 30
0.0
 11
189.4980700102992
 21
170.999874334957
 31
0.0
  0
LINE
  5
14E
330
3F
100
AcDbEntity
  8
1
  6
Continuous
 62
     7
100
AcDbLine
 10
213.4980700102992
 20
177.499874334957
 30
0.0
 11
189.4980700102992
 21
177.499874334957
 31
0.0
  0
LINE
  5
14F
330
3F
100
AcDbEntity
  8
1
  6
Continuous
 62
     7
100
AcDbLine
 10
-3.65174585010473
 20
177.45134828192
 30
0.0
 11
1.43646414989527
 21
177.4513432455385
 31
0.0
  0
LINE
  5
150
330
3F
100
AcDbEntity
  8
AM_VIS
  6
Continuous
 62
     7
100
AcDbLine
 10
1.43646414989527
 20
186.2952458216735
 30
0.0
 11
1.43646414989527
 21
179.9513236850379
 31
0.0
  0
LINE
  5
151
330
3F
100
AcDbEntity
  8
1
  6
Continuous
 62
     7
100
AcDbLine
 10
3.43646414989527
 20
179.9513236850379
 30
0.0
 11
3.43646414989527
 21
170.9513236850379
 31
0.0
  0
LINE
  5
152
330
3F
100
AcDbEntity
  8
AM_VIS
  6
Continuous
 62
     7
100
AcDbLine
 10
18.37191014989519
 20
170.951323685038
 30
0.0
 11
18.15779914989519
 21
170.951323685038
 31
0.0
  0
LINE
  5
153
330
3F
100
AcDbEntity
  8
AM_VIS
  6
Continuous
 62
     2
100
AcDbLine
 10
17.25416914989528
 20
185.6218366850381
 30
0.0
 11
16.03824039098338
 21
185.6218366850381
 31
0.0
  0
LINE
  5
154
330
3F
100
AcDbEntity
  8
AM_VIS
  6
Continuous
 62
     2
100
AcDbLine
 10
15.87779714989522
 20
186.435025685038
 30
0.0
 11
15.0954003287125
 21
186.435025685038
 31
0.0
  0
LINE
  5
155
330
3F
100
AcDbEntity
  8
AM_VIS
  6
Continuous
 62
     7
100
AcDbLine
 10
15.26004414989534
 20
170.951323685038
 30
0.0
 11
15.26004414989522
 21
186.233523685038
 31
0.0
  0
LINE
  5
156
330
3F
100
AcDbEntity
  8
AM_VIS
  6
Continuous
 62
     7
100
AcDbLine
 10
20.34825414989523
 20
177.4513245263842
 30
0.0
 11
20.34825414989523
 21
181.451323685038
 31
0.0
  0
LINE
  5
157
330
3F
100
AcDbEntity
  8
AM_VIS
  6
Continuous
 62
     7
100
AcDbLine
 10
14.72353614989531
 20
192.735910685038
 30
0.0
 11
11.13284114989567
 21
192.735910685038
 31
0.0
  0
LINE
  5
158
330
3F
100
AcDbEntity
  8
AM_VIS
  6
Continuous
 62
     2
100
AcDbLine
 10
14.95026914989528
 20
188.527963685038
 30
0.0
 11
12.49106014989518
 21
188.527963685038
 31
0.0
  0
LINE
  5
159
330
3F
100
AcDbEntity
  8
AM_VIS
  6
Continuous
 62
     2
100
AcDbLine
 10
14.78868214989523
 20
189.8226396850381
 30
0.0
 11
10.53823814989521
 21
189.8226396850381
 31
0.0
  0
LINE
  5
15A
330
3F
100
AcDbEntity
  8
AM_VIS
  6
Continuous
 62
     2
100
AcDbLine
 10
6.15827114989527
 20
189.8226396850381
 30
0.0
 11
2.45060714989526
 21
189.8226396850381
 31
0.0
  0
LINE
  5
15B
330
3F
100
AcDbEntity
  8
AM_VIS
  6
Continuous
 62
     2
100
AcDbLine
 10
14.72248214989524
 20
192.203739685038
 30
0.0
 11
3.62137314989526
 21
192.203739685038
 31
0.0
  0
LINE
  5
15C
330
3F
100
AcDbEntity
  8
AM_VIS
  6
Continuous
 62
     2
100
AcDbLine
 10
15.20041114989526
 20
187.6002036850381
 30
0.0
 11
13.67894791016333
 21
187.6002036850381
 31
0.0
  0
LINE
  5
15D
330
3F
100
AcDbEntity
  8
AM_VIS
  6
Continuous
 62
     7
100
AcDbLine
 10
-1.46129285010473
 20
183.531323685038
 30
0.0
 11
1.43646914989538
 21
183.531323685038
 31
0.0
  0
LINE
  5
15E
330
3F
100
AcDbEntity
  8
AM_VIS
  6
Continuous
 62
     2
100
AcDbLine
 10
0.65826790880706
 20
185.6218366850381
 30
0.0
 11
-0.69665171688123
 21
185.6218366850381
 31
0.0
  0
LINE
  5
15F
330
3F
100
AcDbEntity
  8
AM_VIS
  6
Continuous
 62
     2
100
AcDbLine
 10
-3.55464174502484
 20
181.574088685038
 30
0.0
 11
-3.65174585010473
 21
181.574088685038
 31
0.0
  0
LINE
  5
160
330
3F
100
AcDbEntity
  8
AM_VIS
  6
Continuous
 62
     2
100
AcDbLine
 10
-3.29271832575454
 20
181.8474776850381
 30
0.0
 11
-4.12771230534153
 21
181.8474776850381
 31
0.0
  0
LINE
  5
161
330
3F
100
AcDbEntity
  8
AM_VIS
  6
Continuous
 62
     2
100
AcDbLine
 10
-2.99656400978503
 20
182.152850685038
 30
0.0
 11
-3.84988643593613
 21
182.152850685038
 31
0.0
  0
LINE
  5
162
330
3F
100
AcDbEntity
  8
AM_VIS
  6
Continuous
 62
     2
100
AcDbLine
 10
-2.46710473001583
 20
182.689122685038
 30
0.0
 11
-3.36199053604393
 21
182.689122685038
 31
0.0
  0
LINE
  5
163
330
3F
100
AcDbEntity
  8
AM_VIS
  6
Continuous
 62
     2
100
AcDbLine
 10
-1.96656875755933
 20
183.185020685038
 30
0.0
 11
-2.91082657267333
 21
183.185020685038
 31
0.0
  0
LINE
  5
164
330
3F
100
AcDbEntity
  8
AM_VIS
  6
Continuous
 62
     2
100
AcDbLine
 10
-1.15868165594293
 20
183.963567685038
 30
0.0
 11
-2.20251085010473
 21
183.963567685038
 31
0.0
  0
LINE
  5
165
330
3F
100
AcDbEntity
  8
AM_VIS
  6
Continuous
 62
     2
100
AcDbLine
 10
-0.44374259041413
 20
184.6309346850381
 30
0.0
 11
-1.57433543678143
 21
184.6309346850381
 31
0.0
  0
LINE
  5
166
330
3F
100
AcDbEntity
  8
AM_VIS
  6
Continuous
 62
     2
100
AcDbLine
 10
-4.48844585010472
 20
181.451323685038
 30
0.0
 11
-4.48812998951263
 21
181.451323685038
 31
0.0
  0
LINE
  5
167
330
3F
100
AcDbEntity
  8
AM_VIS
  6
Continuous
 62
     7
100
AcDbLine
 10
1.43646414989527
 20
179.9513236850379
 30
0.0
 11
1.43646414989508
 21
170.951323685038
 31
0.0
  0
LINE
  5
168
330
3F
100
AcDbEntity
  8
AM_VIS
  6
Continuous
 62
     7
100
AcDbLine
 10
11.13284114989567
 20
192.735910685038
 30
0.0
 11
-3.65174585010473
 21
177.951323685038
 31
0.0
  0
LINE
  5
169
330
3F
100
AcDbEntity
  8
AM_VIS
  6
Continuous
 62
     7
100
AcDbLine
 10
-4.48844585010472
 20
206.951323685038
 30
0.0
 11
-4.48844585010472
 21
181.451323685038
 31
0.0
  0
LINE
  5
16A
330
3F
100
AcDbEntity
  8
AM_VIS
  6
Continuous
 62
     2
100
AcDbLine
 10
1.60110797107797
 20
186.435025685038
 30
0.0
 11
-0.02178166760294
 21
186.435025685038
 31
0.0
  0
LINE
  5
16B
330
3F
100
AcDbEntity
  8
AM_VIS
  6
Continuous
 62
     2
100
AcDbLine
 10
3.01756038962717
 20
187.6002036850381
 30
0.0
 11
0.87976072568047
 21
187.6002036850381
 31
0.0
  0
LINE
  5
16C
330
3F
100
AcDbEntity
  8
AM_VIS
  6
Continuous
 62
     2
100
AcDbLine
 10
4.20544814989516
 20
188.527963685038
 30
0.0
 11
1.54654861330848
 21
188.527963685038
 31
0.0
  0
LINE
  5
16D
330
3F
100
AcDbEntity
  8
AM_VIS
  6
Continuous
 62
     2
100
AcDbLine
 10
14.72353614989531
 20
193.250649685038
 30
0.0
 11
3.86461914989526
 21
193.250649685038
 31
0.0
  0
LINE
  5
16E
330
3F
100
AcDbEntity
  8
AM_VIS
  6
Continuous
 62
     2
100
AcDbLine
 10
15.87779714989522
 20
201.467621685038
 30
0.0
 11
-0.07110685010473
 21
201.467621685038
 31
0.0
  0
LINE
  5
16F
330
3F
100
AcDbEntity
  8
AM_VIS
  6
Continuous
 62
     2
100
AcDbLine
 10
15.20041114989526
 20
200.3024436850381
 30
0.0
 11
0.86681814989527
 21
200.3024436850381
 31
0.0
  0
LINE
  5
170
330
3F
100
AcDbEntity
  8
AM_VIS
  6
Continuous
 62
     2
100
AcDbLine
 10
14.95026914989528
 20
199.374683685038
 30
0.0
 11
1.56757414989527
 21
199.374683685038
 31
0.0
  0
LINE
  5
171
330
3F
100
AcDbEntity
  8
AM_VIS
  6
Continuous
 62
     2
100
AcDbLine
 10
14.74043214989529
 20
197.073329685038
 30
0.0
 11
3.03268214989527
 21
197.073329685038
 31
0.0
  0
LINE
  5
172
330
3F
100
AcDbEntity
  8
AM_VIS
  6
Continuous
 62
     2
100
AcDbLine
 10
14.72248214989524
 20
195.6989076850381
 30
0.0
 11
3.62137314989526
 21
195.6989076850381
 31
0.0
  0
LINE
  5
173
330
3F
100
AcDbEntity
  8
AM_VIS
  6
Continuous
 62
     2
100
AcDbLine
 10
14.72353614989531
 20
194.651997685038
 30
0.0
 11
3.86461914989526
 21
194.651997685038
 31
0.0
  0
LINE
  5
174
330
3F
100
AcDbEntity
  8
1
  6
Continuous
 62
     2
100
AcDbLine
 10
2.45060714989526
 20
198.0800066850381
 30
0.0
 11
14.78868214989523
 21
198.0800076850381
 31
0.0
  0
LINE
  5
175
330
3F
100
AcDbEntity
  8
1
  6
Continuous
 62
     2
100
AcDbLine
 10
-0.75767344885803
 20
202.2808106850379
 30
0.0
 11
31.01155414989528
 21
202.2808106850379
 31
0.0
  0
LINE
  5
176
330
3F
100
AcDbEntity
  8
AM_VIS
  6
Continuous
 62
     7
100
AcDbLine
 10
20.34825414989523
 20
170.9513236850379
 30
0.0
 11
18.37191014989519
 21
170.951323685038
 31
0.0
  0
LINE
  5
177
330
3F
100
AcDbEntity
  8
AM_VIS
  6
Continuous
 62
     7
100
AcDbLine
 10
-1.46129285010473
 20
170.9513236850379
 30
0.0
 11
-1.67540085010474
 21
170.9513236850379
 31
0.0
  0
LINE
  5
178
330
3F
100
AcDbEntity
  8
AM_VIS
  6
Continuous
 62
     7
100
AcDbLine
 10
-4.50174585010473
 20
170.9513236850396
 30
0.0
 11
-4.50174585010473
 21
170.2513356850381
 31
0.0
  0
LINE
  5
179
330
3F
100
AcDbEntity
  8
AM_VIS
  6
Continuous
 62
     7
100
AcDbLine
 10
21.19825414989514
 20
170.9513236850379
 30
0.0
 11
20.34825414989523
 21
170.9513236850379
 31
0.0
  0
LINE
  5
17A
330
3F
100
AcDbEntity
  8
1
  6
DOT_CENTER
 62
     2
100
AcDbLine
 10
18.25835814989516
 20
167.581506745941
 30
0.0
 11
18.25835814989516
 21
171.5246731659799
 31
0.0
  0
LINE
  5
17B
330
3F
100
AcDbEntity
  8
1
  6
Continuous
 62
     7
100
AcDbLine
 10
3.43646414989527
 20
177.4513412659105
 30
0.0
 11
20.34825414989523
 21
177.4513245263842
 31
0.0
  0
LINE
  5
17C
330
3F
100
AcDbEntity
  8
AM_VIS
  6
Continuous
 62
     7
100
AcDbLine
 10
20.34825414989523
 20
170.9513236850379
 30
0.0
 11
20.34825414989523
 21
177.4513245263842
 31
0.0
  0
LINE
  5
17D
330
3F
100
AcDbEntity
  8
1
  6
Continuous
 62
     3
100
AcDbLine
 10
21.10287714989527
 20
190.829317685038
 30
0.0
 11
21.10287714989527
 21
197.073329685038
 31
0.0
  0
LINE
  5
17E
330
3F
100
AcDbEntity
  8
1
  6
Continuous
 62
     3
100
AcDbLine
 10
14.74043214989529
 20
190.829317685038
 30
0.0
 11
14.74043214989529
 21
197.073329685038
 31
0.0
  0
LINE
  5
17F
330
3F
100
AcDbEntity
  8
1
  6
Continuous
 62
     3
100
AcDbLine
 10
-0.75767344885803
 20
202.2808106850379
 30
0.0
 11
2.45060714989526
 21
198.0800066850381
 31
0.0
  0
LINE
  5
180
330
3F
100
AcDbEntity
  8
1
  6
Continuous
 62
     3
100
AcDbLine
 10
-4.48812998951263
 20
181.451323685038
 30
0.0
 11
-2.20251085010473
 21
183.963567685038
 31
0.0
  0
LINE
  5
181
330
3F
100
AcDbEntity
  8
1
  6
Continuous
 62
     3
100
AcDbLine
 10
-4.48844585010472
 20
206.951323685038
 30
0.0
 11
-3.48861185010473
 21
206.739000685038
 31
0.0
  0
LINE
  5
182
330
3F
100
AcDbEntity
  8
1
  6
Continuous
 62
     3
100
AcDbLine
 10
10.53823814989521
 20
189.8226396850381
 30
0.0
 11
12.49106014989518
 21
188.527963685038
 31
0.0
  0
LINE
  5
183
330
3F
100
AcDbEntity
  8
AM_VIS
  6
Continuous
 62
     2
100
AcDbLine
 10
14.74043214989529
 20
190.829317685038
 30
0.0
 11
3.03268214989527
 21
190.829317685038
 31
0.0
  0
LINE
  5
184
330
3F
100
AcDbEntity
  8
1
  6
Continuous
 62
     3
100
AcDbLine
 10
4.20544814989516
 20
188.527963685038
 30
0.0
 11
6.15827014989528
 21
189.8226396850381
 31
0.0
  0
LINE
  5
185
330
3F
100
AcDbEntity
  8
AM_VIS
  6
Continuous
 62
     2
100
AcDbLine
 10
-4.48844585010472
 20
181.451323685038
 30
0.0
 11
-4.48812998951263
 21
181.451323685038
 31
0.0
  0
LINE
  5
186
330
3F
100
AcDbEntity
  8
1
  6
DOT_CENTER
 62
     2
100
AcDbLine
 10
214.9459251572716
 20
193.9998866158473
 30
0.0
 11
187.7470366579183
 21
193.9998866158473
 31
0.0
  0
LINE
  5
187
330
3F
100
AcDbEntity
  8
AM_VIS
  6
Continuous
 62
     7
100
AcDbLine
 10
191.6885220102992
 20
183.088089334957
 30
0.0
 11
193.7092860102992
 21
182.211090334957
 31
0.0
  0
LINE
  5
188
330
3F
100
AcDbEntity
  8
AM_VIS
  6
Continuous
 62
     7
100
AcDbLine
 10
193.7092860102992
 20
182.211090334957
 30
0.0
 11
194.5862800102992
 21
180.1903303349571
 31
0.0
  0
LINE
  5
189
330
3F
100
AcDbEntity
  8
AM_VIS
  6
Continuous
 62
     7
100
AcDbLine
 10
191.6897390102992
 20
183.5798743349571
 30
0.0
 11
194.5862260102992
 21
183.579913334957
 31
0.0
  0
LINE
  5
18A
330
3F
100
AcDbEntity
  8
AM_VIS
  6
Continuous
 62
     7
100
AcDbLine
 10
208.4098550102992
 20
180.190327334957
 30
0.0
 11
209.2868540102992
 21
182.211090334957
 31
0.0
  0
LINE
  5
18B
330
3F
100
AcDbEntity
  8
AM_VIS
  6
Continuous
 62
     7
100
AcDbLine
 10
209.2868540102992
 20
182.211090334957
 30
0.0
 11
211.3076170102992
 21
183.088089334957
 31
0.0
  0
LINE
  5
18C
330
3F
100
AcDbEntity
  8
AM_VIS
  6
Continuous
 62
     7
100
AcDbLine
 10
208.4098550102992
 20
180.190327334957
 30
0.0
 11
208.4098550102992
 21
183.5798743349571
 31
0.0
  0
LINE
  5
18D
330
3F
100
AcDbEntity
  8
AM_VIS
  6
Continuous
 62
     7
100
AcDbLine
 10
211.3076170102992
 20
183.5798743349571
 30
0.0
 11
211.3076170102992
 21
183.088089334957
 31
0.0
  0
LINE
  5
18E
330
3F
100
AcDbEntity
  8
AM_VIS
  6
Continuous
 62
     7
100
AcDbLine
 10
211.3064000102992
 20
183.5798743349571
 30
0.0
 11
211.3076170102992
 21
183.5798743349571
 31
0.0
  0
LINE
  5
18F
330
3F
100
AcDbEntity
  8
AM_VIS
  6
Continuous
 62
     7
100
AcDbLine
 10
211.3064000102992
 20
186.280471334957
 30
0.0
 11
211.3064000102992
 21
183.5798743349571
 31
0.0
  0
LINE
  5
190
330
3F
100
AcDbEntity
  8
AM_VIS
  6
Continuous
 62
     7
100
AcDbLine
 10
208.4098550102992
 20
183.5798743349571
 30
0.0
 11
211.3064000102992
 21
183.5798743349571
 31
0.0
  0
LINE
  5
191
330
3F
100
AcDbEntity
  8
AM_VIS
  6
Continuous
 62
     7
100
AcDbLine
 10
194.5862260102992
 20
183.579913334957
 30
0.0
 11
194.5862800102992
 21
180.1903303349571
 31
0.0
  0
LINE
  5
192
330
3F
100
AcDbEntity
  8
AM_VIS
  6
Continuous
 62
     7
100
AcDbLine
 10
191.6885220102992
 20
183.5798743349571
 30
0.0
 11
191.6897390102992
 21
183.5798743349571
 31
0.0
  0
LINE
  5
193
330
3F
100
AcDbEntity
  8
AM_VIS
  6
Continuous
 62
     7
100
AcDbLine
 10
191.6885220102992
 20
183.088089334957
 30
0.0
 11
191.6885220102992
 21
183.5798743349571
 31
0.0
  0
LINE
  5
194
330
3F
100
AcDbEntity
  8
AM_VIS
  6
Continuous
 62
     7
100
AcDbLine
 10
191.6897390102992
 20
183.5798743349571
 30
0.0
 11
191.6897390102992
 21
186.280471334957
 31
0.0
  0
LINE
  5
195
330
3F
100
AcDbEntity
  8
1
  6
Continuous
 62
     7
100
AcDbLine
 10
214.3480700102992
 20
170.999874334957
 30
0.0
 11
213.4980700102992
 21
170.999874334957
 31
0.0
  0
LINE
  5
196
330
3F
100
AcDbEntity
  8
AM_VIS
  6
Continuous
 62
     7
100
AcDbLine
 10
194.5862800102992
 20
180.1903303349571
 30
0.0
 11
194.5862800102992
 21
170.999874334957
 31
0.0
  0
LINE
  5
197
330
3F
100
AcDbEntity
  8
AM_VIS
  6
Continuous
 62
     7
100
AcDbLine
 10
188.6480700102991
 20
168.499899334957
 30
0.0
 11
214.3345510102992
 21
168.499899334957
 31
0.0
  0
LINE
  5
198
330
3F
100
AcDbEntity
  8
AM_VIS
  6
Continuous
 62
     7
100
AcDbLine
 10
189.4980700102992
 20
190.4998866158475
 30
0.0
 11
189.4980700102992
 21
180.999874334957
 31
0.0
  0
LINE
  5
199
330
3F
100
AcDbEntity
  8
AM_VIS
  6
Continuous
 62
     7
100
AcDbLine
 10
213.4980700102992
 20
170.999874334957
 30
0.0
 11
213.4980700102992
 21
177.499874334957
 31
0.0
  0
LINE
  5
19A
330
3F
100
AcDbEntity
  8
AM_VIS
  6
Continuous
 62
     7
100
AcDbLine
 10
208.4098600102992
 20
170.999874334957
 30
0.0
 11
208.4098550102992
 21
180.190327334957
 31
0.0
  0
LINE
  5
19B
330
3F
100
AcDbEntity
  8
AM_VIS
  6
Continuous
 62
     7
100
AcDbLine
 10
211.3076170102992
 20
183.088089334957
 30
0.0
 11
211.3076143825638
 21
172.499879334957
 31
0.0
  0
LINE
  5
19C
330
3F
100
AcDbEntity
  8
AM_VIS
  6
Continuous
 62
     7
100
AcDbLine
 10
214.3345510102992
 20
168.499899334957
 30
0.0
 11
214.3478130102992
 21
168.499899334957
 31
0.0
  0
LINE
  5
19D
330
3F
100
AcDbEntity
  8
AM_VIS
  6
Continuous
 62
     7
100
AcDbLine
 10
214.3478130102992
 20
168.499899334957
 30
0.0
 11
214.3480700102992
 21
170.999874334957
 31
0.0
  0
LINE
  5
19E
330
3F
100
AcDbEntity
  8
AM_VIS
  6
Continuous
 62
     7
100
AcDbLine
 10
188.6480700102991
 20
170.999874334957
 30
0.0
 11
188.6480700102991
 21
168.499899334957
 31
0.0
  0
LINE
  5
19F
330
3F
100
AcDbEntity
  8
1
  6
DOT_CENTER
 62
     2
100
AcDbLine
 10
201.4978386413573
 20
166.4992388476042
 30
0.0
 11
201.5
 21
208.5485974988193
 31
0.0
  0
LINE
  5
1A0
330
3F
100
AcDbEntity
  8
AM_VIS
  6
Continuous
 62
     7
100
AcDbLine
 10
34.01155414989528
 20
182.451323685038
 30
0.0
 11
34.01155414989528
 21
189.857120685038
 31
0.0
  0
LINE
  5
1A1
330
3F
100
AcDbEntity
  8
AM_VIS
  6
Continuous
 62
     7
100
AcDbLine
 10
31.01155414989528
 20
181.451323685038
 30
0.0
 11
31.01155414989528
 21
182.401323685038
 31
0.0
  0
LINE
  5
1A2
330
3F
100
AcDbEntity
  8
AM_VIS
  6
Continuous
 62
     7
100
AcDbLine
 10
34.01155414989528
 20
205.451323685038
 30
0.0
 11
34.01155414989528
 21
205.5013236850379
 31
0.0
  0
LINE
  5
1A3
330
3F
100
AcDbEntity
  8
AM_VIS
  6
Continuous
 62
     7
100
AcDbLine
 10
31.01155414989528
 20
205.5013236850379
 30
0.0
 11
31.01155414989528
 21
182.401323685038
 31
0.0
  0
LINE
  5
1A4
330
3F
100
AcDbEntity
  8
AM_VIS
  6
Continuous
 62
     7
100
AcDbLine
 10
33.41155414989525
 20
204.526323685038
 30
0.0
 11
33.41155414989525
 21
205.5013236850379
 31
0.0
  0
LINE
  5
1A5
330
3F
100
AcDbEntity
  8
AM_VIS
  6
Continuous
 62
     7
100
AcDbLine
 10
31.81155414989523
 20
204.526323685038
 30
0.0
 11
31.81155414989523
 21
205.5013236850379
 31
0.0
  0
LINE
  5
1A6
330
3F
100
AcDbEntity
  8
AM_VIS
  6
Continuous
 62
     7
100
AcDbLine
 10
31.81155414989523
 20
183.3763236850379
 30
0.0
 11
31.81155414989523
 21
204.526323685038
 31
0.0
  0
LINE
  5
1A7
330
3F
100
AcDbEntity
  8
AM_VIS
  6
Continuous
 62
     7
100
AcDbLine
 10
33.41155414989525
 20
183.3763236850379
 30
0.0
 11
33.41155414989525
 21
189.857120685038
 31
0.0
  0
LINE
  5
1A8
330
3F
100
AcDbEntity
  8
AM_VIS
  6
Continuous
 62
     7
100
AcDbLine
 10
21.19825414989525
 20
181.451323685038
 30
0.0
 11
31.01155414989528
 21
181.451323685038
 31
0.0
  0
LINE
  5
1A9
330
3F
100
AcDbEntity
  8
AM_VIS
  6
Continuous
 62
     2
100
AcDbLine
 10
31.01155414989528
 20
181.470976685038
 30
0.0
 11
20.3277811498953
 21
181.470976685038
 31
0.0
  0
LINE
  5
1AA
330
3F
100
AcDbEntity
  8
AM_VIS
  6
Continuous
 62
     2
100
AcDbLine
 10
31.01155414989528
 20
181.8474776850379
 30
0.0
 11
19.93501814989513
 21
181.8474776850379
 31
0.0
  0
LINE
  5
1AB
330
3F
100
AcDbEntity
  8
AM_VIS
  6
Continuous
 62
     2
100
AcDbLine
 10
31.01155414989528
 20
182.689122685038
 30
0.0
 11
19.05279414989529
 21
182.689122685038
 31
0.0
  0
LINE
  5
1AC
330
3F
100
AcDbEntity
  8
AM_VIS
  6
Continuous
 62
     2
100
AcDbLine
 10
31.01155414989528
 20
183.185020685038
 30
0.0
 11
18.5297711498951
 21
183.185020685038
 31
0.0
  0
LINE
  5
1AD
330
3F
100
AcDbEntity
  8
AM_VIS
  6
Continuous
 62
     2
100
AcDbLine
 10
31.01155414989528
 20
183.963567685038
 30
0.0
 11
17.70267914989533
 21
183.963567685038
 31
0.0
  0
LINE
  5
1AE
330
3F
100
AcDbEntity
  8
AM_VIS
  6
Continuous
 62
     2
100
AcDbLine
 10
31.01155414989528
 20
186.435025685038
 30
0.0
 11
19.96551114989534
 21
186.435025685038
 31
0.0
  0
LINE
  5
1AF
330
3F
100
AcDbEntity
  8
AM_VIS
  6
Continuous
 62
     2
100
AcDbLine
 10
31.01155414989528
 20
187.6002036850379
 30
0.0
 11
20.64289714989529
 21
187.6002036850379
 31
0.0
  0
LINE
  5
1B0
330
3F
100
AcDbEntity
  8
AM_VIS
  6
Continuous
 62
     2
100
AcDbLine
 10
31.01155414989528
 20
188.527963685038
 30
0.0
 11
20.89304014989516
 21
188.527963685038
 31
0.0
  0
LINE
  5
1B1
330
3F
100
AcDbEntity
  8
AM_VIS
  6
Continuous
 62
     2
100
AcDbLine
 10
31.01155414989528
 20
189.8226396850381
 30
0.0
 11
21.05462614989522
 21
189.8226396850381
 31
0.0
  0
LINE
  5
1B2
330
3F
100
AcDbEntity
  8
AM_VIS
  6
Continuous
 62
     2
100
AcDbLine
 10
31.01155414989528
 20
190.829317685038
 30
0.0
 11
21.10287714989527
 21
190.829317685038
 31
0.0
  0
LINE
  5
1B3
330
3F
100
AcDbEntity
  8
AM_VIS
  6
Continuous
 62
     2
100
AcDbLine
 10
31.01155414989528
 20
192.203739685038
 30
0.0
 11
21.12082714989519
 21
192.203739685038
 31
0.0
  0
LINE
  5
1B4
330
3F
100
AcDbEntity
  8
AM_VIS
  6
Continuous
 62
     7
100
AcDbLine
 10
31.01155414989528
 20
192.735910685038
 30
0.0
 11
21.11977314989524
 21
192.735910685038
 31
0.0
  0
LINE
  5
1B5
330
3F
100
AcDbEntity
  8
AM_VIS
  6
Continuous
 62
     2
100
AcDbLine
 10
31.01155414989528
 20
185.6218366850381
 30
0.0
 11
18.58914014989527
 21
185.6218366850381
 31
0.0
  0
LINE
  5
1B6
330
3F
100
AcDbEntity
  8
AM_VIS
  6
Continuous
 62
     2
100
AcDbLine
 10
31.01155414989528
 20
184.6309346850381
 30
0.0
 11
16.98652114989516
 21
184.6309346850381
 31
0.0
  0
LINE
  5
1B7
330
3F
100
AcDbEntity
  8
AM_VIS
  6
Continuous
 62
     2
100
AcDbLine
 10
31.01155414989528
 20
203.270985685038
 30
0.0
 11
-1.61182085010483
 21
203.270985685038
 31
0.0
  0
LINE
  5
1B8
330
3F
100
AcDbEntity
  8
AM_VIS
  6
Continuous
 62
     2
100
AcDbLine
 10
31.01155414989528
 20
204.163409685038
 30
0.0
 11
-2.27762585010473
 21
204.163409685038
 31
0.0
  0
LINE
  5
1B9
330
3F
100
AcDbEntity
  8
AM_VIS
  6
Continuous
 62
     7
100
AcDbLine
 10
31.01155414989528
 20
206.951323685038
 30
0.0
 11
-4.48844585010472
 21
206.951323685038
 31
0.0
  0
LINE
  5
1BA
330
3F
100
AcDbEntity
  8
AM_VIS
  6
Continuous
 62
     7
100
AcDbLine
 10
31.81155414989523
 20
182.401323685038
 30
0.0
 11
31.81155414989523
 21
183.3763236850379
 31
0.0
  0
LINE
  5
1BB
330
3F
100
AcDbEntity
  8
AM_VIS
  6
Continuous
 62
     7
100
AcDbLine
 10
42.01155414989528
 20
193.951323685038
 30
0.0
 11
42.01155414989528
 21
204.7513236850379
 31
0.0
  0
LINE
  5
1BC
330
3F
100
AcDbEntity
  8
AM_VIS
  6
Continuous
 62
     7
100
AcDbLine
 10
41.31155414989523
 20
197.9022726850381
 30
0.0
 11
41.31155414989523
 21
205.451323685038
 31
0.0
  0
LINE
  5
1BD
330
3F
100
AcDbEntity
  8
AM_VIS
  6
Continuous
 62
     7
100
AcDbLine
 10
34.01155414989528
 20
198.045526685038
 30
0.0
 11
34.01155414989528
 21
205.451323685038
 31
0.0
  0
LINE
  5
1BE
330
3F
100
AcDbEntity
  8
AM_VIS
  6
Continuous
 62
     7
100
AcDbLine
 10
33.41155414989525
 20
198.045526685038
 30
0.0
 11
33.41155414989525
 21
204.526323685038
 31
0.0
  0
LINE
  5
1BF
330
3F
100
AcDbEntity
  8
AM_VIS
  6
Continuous
 62
     7
100
AcDbLine
 10
41.31155414989523
 20
182.451323685038
 30
0.0
 11
42.01155414989528
 21
183.151323685038
 31
0.0
  0
LINE
  5
1C0
330
3F
100
AcDbEntity
  8
AM_VIS
  6
Continuous
 62
     7
100
AcDbLine
 10
41.31155414989523
 20
197.9022726850381
 30
0.0
 11
41.83795014989521
 21
195.8955456850379
 31
0.0
  0
LINE
  5
1C1
330
3F
100
AcDbEntity
  8
AM_VIS
  6
Continuous
 62
     7
100
AcDbLine
 10
41.83795014989521
 20
195.8955456850379
 30
0.0
 11
42.01155414989528
 21
193.951323685038
 31
0.0
  0
LINE
  5
1C2
330
3F
100
AcDbEntity
  8
AM_VIS
  6
Continuous
 62
     7
100
AcDbLine
 10
42.01155414989528
 20
193.951323685038
 30
0.0
 11
41.83795014989521
 21
192.0071016850381
 31
0.0
  0
LINE
  5
1C3
330
3F
100
AcDbEntity
  8
AM_VIS
  6
Continuous
 62
     7
100
AcDbLine
 10
41.83795014989521
 20
192.0071016850381
 30
0.0
 11
41.31155414989523
 21
190.0003746850379
 31
0.0
  0
LINE
  5
1C4
330
3F
100
AcDbEntity
  8
AM_VIS
  6
Continuous
 62
     7
100
AcDbLine
 10
34.01155414989528
 20
182.451323685038
 30
0.0
 11
41.31155414989523
 21
182.451323685038
 31
0.0
  0
LINE
  5
1C5
330
3F
100
AcDbEntity
  8
AM_VIS
  6
Continuous
 62
     7
100
AcDbLine
 10
41.31155414989523
 20
190.0003746850379
 30
0.0
 11
34.01155414989528
 21
190.0003746850379
 31
0.0
  0
LINE
  5
1C6
330
3F
100
AcDbEntity
  8
AM_VIS
  6
Continuous
 62
     7
100
AcDbLine
 10
34.01155414989528
 20
197.9022726850381
 30
0.0
 11
41.31155414989523
 21
197.9022726850381
 31
0.0
  0
LINE
  5
1C7
330
3F
100
AcDbEntity
  8
AM_VIS
  6
Continuous
 62
     7
100
AcDbLine
 10
31.01155414989528
 20
182.401323685038
 30
0.0
 11
31.81155414989523
 21
182.401323685038
 31
0.0
  0
LINE
  5
1C8
330
3F
100
AcDbEntity
  8
AM_VIS
  6
Continuous
 62
     7
100
AcDbLine
 10
31.81155414989523
 20
183.3763236850379
 30
0.0
 11
33.41155414989525
 21
183.3763236850379
 31
0.0
  0
LINE
  5
1C9
330
3F
100
AcDbEntity
  8
AM_VIS
  6
Continuous
 62
     7
100
AcDbLine
 10
33.41155414989525
 20
182.401323685038
 30
0.0
 11
34.01155414989528
 21
182.401323685038
 31
0.0
  0
LINE
  5
1CA
330
3F
100
AcDbEntity
  8
AM_VIS
  6
Continuous
 62
     7
100
AcDbLine
 10
34.01155414989528
 20
182.401323685038
 30
0.0
 11
34.01155414989528
 21
182.451323685038
 31
0.0
  0
LINE
  5
1CB
330
3F
100
AcDbEntity
  8
AM_VIS
  6
Continuous
 62
     7
100
AcDbLine
 10
33.41155414989525
 20
182.401323685038
 30
0.0
 11
33.41155414989525
 21
183.3763236850379
 31
0.0
  0
LINE
  5
1CC
330
3F
100
AcDbEntity
  8
AM_VIS
  6
Continuous
 62
     7
100
AcDbLine
 10
34.01155414989528
 20
190.0003746850379
 30
0.0
 11
34.01155414989528
 21
189.857120685038
 31
0.0
  0
LINE
  5
1CD
330
3F
100
AcDbEntity
  8
AM_VIS
  6
Continuous
 62
     7
100
AcDbLine
 10
34.01155414989528
 20
189.857120685038
 30
0.0
 11
33.41155414989525
 21
189.857120685038
 31
0.0
  0
LINE
  5
1CE
330
3F
100
AcDbEntity
  8
AM_VIS
  6
Continuous
 62
     7
100
AcDbLine
 10
33.41155414989525
 20
189.857120685038
 30
0.0
 11
33.41155414989525
 21
198.045526685038
 31
0.0
  0
LINE
  5
1CF
330
3F
100
AcDbEntity
  8
AM_VIS
  6
Continuous
 62
     7
100
AcDbLine
 10
33.41155414989525
 20
198.045526685038
 30
0.0
 11
34.01155414989528
 21
198.045526685038
 31
0.0
  0
LINE
  5
1D0
330
3F
100
AcDbEntity
  8
AM_VIS
  6
Continuous
 62
     7
100
AcDbLine
 10
34.01155414989528
 20
198.045526685038
 30
0.0
 11
34.01155414989528
 21
197.9022726850381
 31
0.0
  0
LINE
  5
1D1
330
3F
100
AcDbEntity
  8
AM_VIS
  6
Continuous
 62
     7
100
AcDbLine
 10
41.31155414989523
 20
182.451323685038
 30
0.0
 11
41.31155414989523
 21
190.0003746850379
 31
0.0
  0
LINE
  5
1D2
330
3F
100
AcDbEntity
  8
AM_VIS
  6
Continuous
 62
     7
100
AcDbLine
 10
42.01155414989528
 20
183.151323685038
 30
0.0
 11
47.21155414989538
 21
183.151323685038
 31
0.0
  0
LINE
  5
1D3
330
3F
100
AcDbEntity
  8
AM_VIS
  6
Continuous
 62
     7
100
AcDbLine
 10
42.01155414989528
 20
183.151323685038
 30
0.0
 11
42.01155414989528
 21
193.951323685038
 31
0.0
  0
LINE
  5
1D4
330
3F
100
AcDbEntity
  8
AM_VIS
  6
Continuous
 62
     7
100
AcDbLine
 10
42.01155414989528
 20
204.7513236850379
 30
0.0
 11
41.31155414989523
 21
205.451323685038
 31
0.0
  0
LINE
  5
1D5
330
3F
100
AcDbEntity
  8
AM_VIS
  6
Continuous
 62
     7
100
AcDbLine
 10
41.31155414989523
 20
205.451323685038
 30
0.0
 11
34.01155414989528
 21
205.451323685038
 31
0.0
  0
LINE
  5
1D6
330
3F
100
AcDbEntity
  8
AM_VIS
  6
Continuous
 62
     7
100
AcDbLine
 10
31.81155414989523
 20
205.5013236850379
 30
0.0
 11
31.01155414989528
 21
205.5013236850379
 31
0.0
  0
LINE
  5
1D7
330
3F
100
AcDbEntity
  8
AM_VIS
  6
Continuous
 62
     7
100
AcDbLine
 10
33.41155414989525
 20
204.526323685038
 30
0.0
 11
31.81155414989523
 21
204.526323685038
 31
0.0
  0
LINE
  5
1D8
330
3F
100
AcDbEntity
  8
AM_VIS
  6
Continuous
 62
     7
100
AcDbLine
 10
34.01155414989528
 20
205.5013236850379
 30
0.0
 11
33.41155414989525
 21
205.5013236850379
 31
0.0
  0
LINE
  5
1D9
330
3F
100
AcDbEntity
  8
1
  6
DOT_CENTER
 62
     2
100
AcDbLine
 10
32.01155414989528
 20
193.951323685038
 30
0.0
 11
43.31155414989523
 21
193.951323685038
 31
0.0
  0
LINE
  5
1DA
330
3F
100
AcDbEntity
  8
AM_VIS
  6
Continuous
 62
     2
100
AcDbLine
 10
31.01155414989528
 20
194.651997685038
 30
0.0
 11
21.11741082278847
 21
194.651997685038
 31
0.0
  0
LINE
  5
1DB
330
3F
100
AcDbEntity
  8
AM_VIS
  6
Continuous
 62
     2
100
AcDbLine
 10
31.01155414989528
 20
193.250649685038
 30
0.0
 11
21.115096995928
 21
193.250649685038
 31
0.0
  0
LINE
  5
1DC
330
3F
100
AcDbEntity
  8
AM_VIS
  6
Continuous
 62
     2
100
AcDbLine
 10
31.01155414989528
 20
195.6989076850379
 30
0.0
 11
21.12082714989519
 21
195.6989076850381
 31
0.0
  0
LINE
  5
1DD
330
3F
100
AcDbEntity
  8
AM_VIS
  6
Continuous
 62
     2
100
AcDbLine
 10
31.01155414989528
 20
197.073329685038
 30
0.0
 11
21.10287714989527
 21
197.073329685038
 31
0.0
  0
LINE
  5
1DE
330
3F
100
AcDbEntity
  8
AM_VIS
  6
Continuous
 62
     2
100
AcDbLine
 10
31.01155414989528
 20
198.0800066850381
 30
0.0
 11
21.05462614569108
 21
198.0800066850381
 31
0.0
  0
LINE
  5
1DF
330
3F
100
AcDbEntity
  8
AM_VIS
  6
Continuous
 62
     2
100
AcDbLine
 10
31.01155414989528
 20
199.374683685038
 30
0.0
 11
20.89304014989516
 21
199.374683685038
 31
0.0
  0
LINE
  5
1E0
330
3F
100
AcDbEntity
  8
AM_VIS
  6
Continuous
 62
     2
100
AcDbLine
 10
31.01155414989528
 20
200.3024436850381
 30
0.0
 11
20.64289714989529
 21
200.3024436850381
 31
0.0
  0
LINE
  5
1E1
330
3F
100
AcDbEntity
  8
AM_VIS
  6
Continuous
 62
     2
100
AcDbLine
 10
31.01155414989528
 20
201.467621685038
 30
0.0
 11
19.96551114989534
 21
201.467621685038
 31
0.0
  0
LINE
  5
1E2
330
3F
100
AcDbEntity
  8
1
  6
Continuous
 62
     7
100
AcDbLine
 10
21.19825414989525
 20
177.4513245263842
 30
0.0
 11
21.19825414989525
 21
181.451323685038
 31
0.0
  0
LINE
  5
1E3
330
3F
100
AcDbEntity
  8
AM_VIS
  6
Continuous
 62
     7
100
AcDbLine
 10
20.34825414989523
 20
181.451323685038
 30
0.0
 11
21.19825414989525
 21
181.451323685038
 31
0.0
  0
LINE
  5
1E4
330
3F
100
AcDbEntity
  8
1
  6
Continuous
 62
     7
100
AcDbLine
 10
21.19825414989525
 20
177.4513245263842
 30
0.0
 11
20.34825414989523
 21
177.4513245263842
 31
0.0
  0
LINE
  5
1E5
330
3F
100
AcDbEntity
  8
1
  6
Continuous
 62
     7
100
AcDbLine
 10
21.19825414989525
 20
177.451323685038
 30
0.0
 11
21.19825414989525
 21
177.4513245263842
 31
0.0
  0
LINE
  5
1E6
330
3F
100
AcDbEntity
  8
1
  6
Continuous
 62
     7
100
AcDbLine
 10
188.6480700102991
 20
170.999874334957
 30
0.0
 11
188.6480700102991
 21
180.999874334957
 31
0.0
  0
LINE
  5
1E7
330
3F
100
AcDbEntity
  8
1
  6
Continuous
 62
     7
100
AcDbLine
 10
188.6480700102991
 20
180.999874334957
 30
0.0
 11
189.4980700102992
 21
180.999874334957
 31
0.0
  0
LINE
  5
1E8
330
3F
100
AcDbEntity
  8
AM_VIS
  6
Continuous
 62
     7
100
AcDbLine
 10
189.4980700102992
 20
180.999874334957
 30
0.0
 11
189.4980700102992
 21
177.499874334957
 31
0.0
  0
LINE
  5
1E9
330
3F
100
AcDbEntity
  8
AM_VIS
  6
Continuous
 62
     7
100
AcDbLine
 10
31.01155414989528
 20
206.951323685038
 30
0.0
 11
31.01155414989528
 21
205.5013236850379
 31
0.0
  0
LINE
  5
1EA
330
3F
100
AcDbEntity
  8
1
  6
Continuous
 62
     7
100
AcDbLine
 10
47.21155414989538
 20
204.7513236850379
 30
0.0
 11
47.21155414989538
 21
183.151323685038
 31
0.0
  0
ARC
  5
1EB
330
3F
100
AcDbEntity
  8
1
  6
Continuous
 62
     7
100
AcDbCircle
 10
201.4980700102992
 20
193.9998866158473
 30
0.0
 40
12.50000000000001
100
AcDbArc
 50
131.7916668414015
 51
180.0
  0
ARC
  5
1EC
330
3F
100
AcDbEntity
  8
1
  6
Continuous
 62
     7
100
AcDbCircle
 10
201.4980700102992
 20
193.9998866158473
 30
0.0
 40
12.5
100
AcDbArc
 50
180.0
 51
-163.7397952916889
  0
ARC
  5
1ED
330
3F
100
AcDbEntity
  8
1
  6
Continuous
 62
     3
100
AcDbCircle
 10
17.92165414989533
 20
199.5302181641947
 30
0.0
 40
2.828691520843275
100
AcDbArc
 50
15.84270966064572
 51
164.1572903393549
  0
ARC
  5
1EE
330
3F
100
AcDbEntity
  8
1
  6
Continuous
 62
     3
100
AcDbCircle
 10
17.92165414989533
 20
188.3700100708208
 30
0.0
 40
2.828032060751995
100
AcDbArc
 50
-164.2044401773438
 51
-15.79555982266067
  0
ARC
  5
1EF
330
3F
100
AcDbEntity
  8
1
  6
Continuous
 62
     3
100
AcDbCircle
 10
24.24106536484412
 20
197.3673072860579
 30
0.0
 40
9.505180393600694
100
AcDbArc
 50
162.0134734104099
 51
-178.2276651707511
  0
ARC
  5
1F0
330
3F
100
AcDbEntity
  8
1
  6
Continuous
 62
     3
100
AcDbCircle
 10
24.24106536484435
 20
190.5353400840183
 30
0.0
 40
9.505180393600883
100
AcDbArc
 50
178.2276651707521
 51
-162.0134734104105
  0
ARC
  5
1F1
330
3F
100
AcDbEntity
  8
1
  6
Continuous
 62
     3
100
AcDbCircle
 10
11.60229854474282
 20
197.3673122653682
 30
0.0
 40
9.505125963932203
100
AcDbArc
 50
-1.77237501055696
 51
17.98660155213726
  0
ARC
  5
1F2
330
3F
100
AcDbEntity
  8
1
  6
Continuous
 62
     3
100
AcDbCircle
 10
11.60229854474282
 20
190.535335104708
 30
0.0
 40
9.505125963932267
100
AcDbArc
 50
-17.9866015521384
 51
1.77237501055576
  0
ARC
  5
1F3
330
3F
100
AcDbEntity
  8
1
  6
Continuous
 62
     3
100
AcDbCircle
 10
-3.22683871909543
 20
193.9853017622529
 30
0.0
 40
6.999999999999972
100
AcDbArc
 50
-35.83290971213982
 51
35.80001208873817
  0
ARC
  5
1F4
330
3F
100
AcDbEntity
  8
1
  6
Continuous
 62
     3
100
AcDbCircle
 10
-28.82844078840513
 20
209.6551977407724
 30
0.0
 40
36.99999999999996
100
AcDbArc
 50
-43.97690659750728
 51
-32.29418010190268
  0
ARC
  5
1F5
330
3F
100
AcDbEntity
  8
1
  6
Continuous
 62
     3
100
AcDbCircle
 10
1.43040137355337
 20
207.6352757016913
 30
0.0
 40
5.000000000000013
100
AcDbArc
 50
-169.6736311270697
 51
-147.276024582783
  0
ARC
  5
1F6
330
3F
100
AcDbEntity
  8
1
  6
Continuous
 62
     3
100
AcDbCircle
 10
12.48801660296674
 20
214.4721842346396
 30
0.0
 40
17.99999999999997
100
AcDbArc
 50
-147.995031084346
 51
-137.3670960076018
  0
ARC
  5
1F7
330
3F
100
AcDbEntity
  8
1
  6
Continuous
 62
     3
100
AcDbCircle
 10
-27.68713012619712
 20
136.0416714242033
 30
0.0
 40
66.10169938058924
100
AcDbArc
 50
43.39045719333741
 51
51.25947665728778
  0
ARC
  5
1F8
330
3F
100
AcDbEntity
  8
1
  6
Continuous
 62
     3
100
AcDbCircle
 10
8.34825464989528
 20
187.7722806263052
 30
0.0
 40
3.000000000000009
100
AcDbArc
 50
43.11406702827605
 51
136.885932971725
  0
ARC
  5
1F9
330
3F
100
AcDbEntity
  8
1
  6
Continuous
 62
     3
100
AcDbCircle
 10
44.23382148850457
 20
136.0519755774768
 30
0.0
 40
66.0
100
AcDbArc
 50
127.3361739419134
 51
130.4244494423626
  0
ARC
  5
1FA
330
3F
100
AcDbEntity
  8
1
  6
Continuous
 62
     3
100
AcDbCircle
 10
44.23382148850457
 20
136.0519755774768
 30
0.0
 40
65.99999999999996
100
AcDbArc
 50
133.4534643289624
 51
136.5383494675059
  0
ARC
  5
1FB
330
3F
100
AcDbEntity
  8
1
  6
Continuous
 62
     3
100
AcDbCircle
 10
-27.53731318871412
 20
136.0519755774768
 30
0.0
 40
66.00000000000009
100
AcDbArc
 50
51.35532310571571
 51
52.66382605808666
  0
ARC
  5
1FC
330
3F
100
AcDbEntity
  8
1
  6
Continuous
 62
     3
100
AcDbCircle
 10
44.23382148850457
 20
136.0519755774768
 30
0.0
 40
65.99999999999996
100
AcDbArc
 50
130.4244494423626
 51
133.4534643289624
  0
ARC
  5
1FD
330
3F
100
AcDbEntity
  8
1
  6
Continuous
 62
     7
100
AcDbCircle
 10
206.4694476382767
 20
191.4859603496965
 30
0.0
 40
17.00000000000008
100
AcDbArc
 50
-176.6747298525215
 51
-150.3966691892986
  0
ARC
  5
1FE
330
3F
100
AcDbEntity
  8
1
  6
Continuous
 62
     7
100
AcDbCircle
 10
197.5131517385971
 20
191.1944280811361
 30
0.0
 40
16.0
100
AcDbArc
 50
-30.44068999899283
 51
-2.48792517799264
  0
ARC
  5
1FF
330
3F
100
AcDbEntity
  8
1
  6
Continuous
 62
     7
100
AcDbCircle
 10
201.4980699716373
 20
191.5318261202799
 30
0.0
 40
13.28165528532302
100
AcDbArc
 50
-121.3591701441288
 51
-58.64085472459599
  0
ARC
  5
200
330
3F
100
AcDbEntity
  8
1
  6
Continuous
 62
     7
100
AcDbCircle
 10
201.4980700102992
 20
193.9998866158473
 30
0.0
 40
12.49999999999994
100
AcDbArc
 50
-163.7397952916889
 51
-16.26020470831196
  0
ARC
  5
201
330
3F
100
AcDbEntity
  8
1
  6
Continuous
 62
     7
100
AcDbCircle
 10
213.3126653842753
 20
209.3907663820035
 30
0.0
 40
6.999999999999892
100
AcDbArc
 50
-153.0067442793673
 51
-119.8516759502467
  0
ARC
  5
202
330
3F
100
AcDbEntity
  8
1
  6
Continuous
 62
     7
100
AcDbCircle
 10
201.4980695102992
 20
136.9999154201995
 30
0.0
 40
69.99997119564782
100
AcDbArc
 50
86.36555075479049
 51
93.63444836870288
  0
ARC
  5
203
330
3F
100
AcDbEntity
  8
1
  6
Continuous
 62
     7
100
AcDbCircle
 10
201.4980700102992
 20
193.9998866158473
 30
0.0
 40
12.5
100
AcDbArc
 50
-16.26020470831196
 51
48.20833315859838
  0
ARC
  5
204
330
3F
100
AcDbEntity
  8
1
  6
Continuous
 62
     7
100
AcDbCircle
 10
189.6834746363231
 20
209.3907663820035
 30
0.0
 40
6.999999999999898
100
AcDbArc
 50
-60.14832404975326
 51
-29.66860429911042
  0
XLINE
  5
205
330
3F
100
AcDbEntity
  8
1
  6
DOT_CENTER
 62
     3
 60
     1
100
AcDbXline
 10
21.19825414989525
 20
177.4513245263842
 30
0.0
 11
0.0
 21
1.0
 31
0.0
  0
ARC
  5
206
330
3F
100
AcDbEntity
  8
1
  6
Continuous
 62
     7
100
AcDbCircle
 10
2.43646414989527
 20
179.9513236850379
 30
0.0
 40
1.0
100
AcDbArc
 50
90.0
 51
180.0
  0
ARC
  5
207
330
3F
100
AcDbEntity
  8
1
  6
Continuous
 62
     7
100
AcDbCircle
 10
2.43646414989527
 20
179.9513236850379
 30
0.0
 40
1.0
100
AcDbArc
 50
0.0
 51
90.0
  0
ARC
  5
208
330
3F
100
AcDbEntity
  8
1
  6
Continuous
 62
     7
100
AcDbCircle
 10
205.8403220350483
 20
205.3621191355266
 30
0.0
 40
1.499999999999978
100
AcDbArc
 50
34.58525929494302
 51
86.36555075479404
  0
ARC
  5
209
330
3F
100
AcDbEntity
  8
1
  6
Continuous
 62
     7
100
AcDbCircle
 10
197.1558180313502
 20
205.362119201954
 30
0.0
 40
1.500000000000082
100
AcDbArc
 50
93.63444836870487
 51
157.923396193208
  0
ENDBLK
  5
42
330
3F
100
AcDbEntity
  8
0
100
AcDbBlockEnd
  0
BLOCK
  5
44
330
43
100
AcDbEntity
  8
0
100
AcDbBlockBegin
  2
M3x10_DIN_84
 70
     0
 71
     0
 10
3.4819721498952
 20
166.4998822954443
 30
0.0
  3
M3x10_DIN_84
  1

  0
LINE
  5
20A
330
43
100
AcDbEntity
  8
1
  6
Continuous
 62
     7
100
AcDbLine
 10
185.500009
 20
170.299910334957
 30
0.0
 11
186.1014750000001
 21
170.299910334957
 31
0.0
  0
LINE
  5
20B
330
43
100
AcDbEntity
  8
1
  6
Continuous
 62
     7
100
AcDbLine
 10
183.0568930000001
 20
170.014124334957
 30
0.0
 11
183.3020330000001
 21
170.197882334957
 31
0.0
  0
LINE
  5
20C
330
43
100
AcDbEntity
  8
1
  6
Continuous
 62
     7
100
AcDbLine
 10
183.7267410000001
 20
170.299910334957
 30
0.0
 11
183.95897
 21
170.299910334957
 31
0.0
  0
LINE
  5
20D
330
43
100
AcDbEntity
  8
1
  6
Continuous
 62
     7
100
AcDbLine
 10
188.300008
 20
168.499899334957
 30
0.0
 11
188.2020566601934
 21
169.6194692466184
 31
0.0
  0
LINE
  5
20E
330
43
100
AcDbEntity
  8
1
  6
Continuous
 62
     7
100
AcDbLine
 10
187.397592
 20
170.291675334957
 30
0.0
 11
187.701692
 21
170.195944334957
 31
0.0
  0
LINE
  5
20F
330
43
100
AcDbEntity
  8
1
  6
Continuous
 62
     7
100
AcDbLine
 10
184.364807
 20
170.299910334957
 30
0.0
 11
184.89852
 21
170.299910334957
 31
0.0
  0
LINE
  5
210
330
43
100
AcDbEntity
  8
1
  6
Continuous
 62
     7
100
AcDbLine
 10
183.5939
 20
170.290512334957
 30
0.0
 11
183.7267410000001
 21
170.299910334957
 31
0.0
  0
LINE
  5
211
330
43
100
AcDbEntity
  8
1
  6
Continuous
 62
     7
100
AcDbLine
 10
182.9489050000001
 20
169.874912334957
 30
0.0
 11
183.0568930000001
 21
170.014124334957
 31
0.0
  0
LINE
  5
212
330
43
100
AcDbEntity
  8
1
  6
Continuous
 62
     7
100
AcDbLine
 10
182.7860554848379
 20
169.483375584278
 30
0.0
 11
182.9489050000001
 21
169.874912334957
 31
0.0
  0
LINE
  5
213
330
43
100
AcDbEntity
  8
1
  6
Continuous
 62
     7
100
AcDbLine
 10
182.785616
 20
169.478352334957
 30
0.0
 11
182.700011
 21
168.499899334957
 31
0.0
  0
LINE
  5
214
330
43
100
AcDbEntity
  8
1
  6
Continuous
 62
     7
100
AcDbLine
 10
187.701692
 20
170.195944334957
 30
0.0
 11
187.949157
 21
170.007704334957
 31
0.0
  0
LINE
  5
215
330
43
100
AcDbEntity
  8
1
  6
Continuous
 62
     7
100
AcDbLine
 10
184.89852
 20
170.299910334957
 30
0.0
 11
185.500009
 21
170.299910334957
 31
0.0
  0
LINE
  5
216
330
43
100
AcDbEntity
  8
1
  6
Continuous
 62
     7
100
AcDbLine
 10
183.95897
 20
170.299910334957
 30
0.0
 11
184.364807
 21
170.299910334957
 31
0.0
  0
LINE
  5
217
330
43
100
AcDbEntity
  8
1
  6
Continuous
 62
     7
100
AcDbLine
 10
183.3020330000001
 20
170.197882334957
 30
0.0
 11
183.5939
 21
170.290512334957
 31
0.0
  0
LINE
  5
218
330
43
100
AcDbEntity
  8
1
  6
Continuous
 62
     7
100
AcDbLine
 10
187.949157
 20
170.007704334957
 30
0.0
 11
188.2020566601934
 21
169.6194692466184
 31
0.0
  0
LINE
  5
219
330
43
100
AcDbEntity
  8
1
  6
Continuous
 62
     7
100
AcDbLine
 10
182.700011
 20
168.499899334957
 30
0.0
 11
188.300008
 21
168.499899334957
 31
0.0
  0
LINE
  5
21A
330
43
100
AcDbEntity
  8
1
  6
Continuous
 62
     7
100
AcDbLine
 10
243.0568880000001
 20
170.014124334957
 30
0.0
 11
243.302052
 21
170.197882334957
 31
0.0
  0
LINE
  5
21B
330
43
100
AcDbEntity
  8
1
  6
Continuous
 62
     7
100
AcDbLine
 10
248.115639
 20
169.752124334957
 30
0.0
 11
248.2177318676955
 21
169.4402357157801
 31
0.0
  0
LINE
  5
21C
330
43
100
AcDbEntity
  8
1
  6
Continuous
 62
     7
100
AcDbLine
 10
247.397587
 20
170.291675334957
 30
0.0
 11
247.701711
 21
170.195944334957
 31
0.0
  0
LINE
  5
21D
330
43
100
AcDbEntity
  8
1
  6
Continuous
 62
     7
100
AcDbLine
 10
246.1014690000001
 20
170.299910334957
 30
0.0
 11
246.635206
 21
170.299910334957
 31
0.0
  0
LINE
  5
21E
330
43
100
AcDbEntity
  8
1
  6
Continuous
 62
     7
100
AcDbLine
 10
244.3648020000001
 20
170.299910334957
 30
0.0
 11
244.898515
 21
170.299910334957
 31
0.0
  0
LINE
  5
21F
330
43
100
AcDbEntity
  8
1
  6
Continuous
 62
     7
100
AcDbLine
 10
242.7860413864819
 20
169.4832715338957
 30
0.0
 11
242.700005
 21
168.499899334957
 31
0.0
  0
LINE
  5
220
330
43
100
AcDbEntity
  8
1
  6
Continuous
 62
     7
100
AcDbLine
 10
243.302052
 20
170.197882334957
 30
0.0
 11
243.593919
 21
170.290512334957
 31
0.0
  0
LINE
  5
221
330
43
100
AcDbEntity
  8
1
  6
Continuous
 62
     7
100
AcDbLine
 10
242.7860413864819
 20
169.4832715338957
 30
0.0
 11
242.9489
 21
169.874912334957
 31
0.0
  0
LINE
  5
222
330
43
100
AcDbEntity
  8
1
  6
Continuous
 62
     7
100
AcDbLine
 10
247.701711
 20
170.195944334957
 30
0.0
 11
247.949152
 21
170.007704334957
 31
0.0
  0
LINE
  5
223
330
43
100
AcDbEntity
  8
1
  6
Continuous
 62
     7
100
AcDbLine
 10
246.635206
 20
170.299910334957
 30
0.0
 11
247.0410440000001
 21
170.299910334957
 31
0.0
  0
LINE
  5
224
330
43
100
AcDbEntity
  8
1
  6
Continuous
 62
     7
100
AcDbLine
 10
244.898515
 20
170.299910334957
 30
0.0
 11
245.500004
 21
170.299910334957
 31
0.0
  0
LINE
  5
225
330
43
100
AcDbEntity
  8
1
  6
Continuous
 62
     7
100
AcDbLine
 10
243.7267350000001
 20
170.299910334957
 30
0.0
 11
243.958964
 21
170.299910334957
 31
0.0
  0
LINE
  5
226
330
43
100
AcDbEntity
  8
1
  6
Continuous
 62
     7
100
AcDbLine
 10
248.3000030000001
 20
168.499899334957
 30
0.0
 11
248.2177318676955
 21
169.4402357157801
 31
0.0
  0
LINE
  5
227
330
43
100
AcDbEntity
  8
1
  6
Continuous
 62
     7
100
AcDbLine
 10
243.593919
 20
170.290512334957
 30
0.0
 11
243.7267350000001
 21
170.299910334957
 31
0.0
  0
LINE
  5
228
330
43
100
AcDbEntity
  8
1
  6
Continuous
 62
     7
100
AcDbLine
 10
242.9489
 20
169.874912334957
 30
0.0
 11
243.0568880000001
 21
170.014124334957
 31
0.0
  0
LINE
  5
229
330
43
100
AcDbEntity
  8
1
  6
Continuous
 62
     7
100
AcDbLine
 10
247.949152
 20
170.007704334957
 30
0.0
 11
248.115639
 21
169.752124334957
 31
0.0
  0
LINE
  5
22A
330
43
100
AcDbEntity
  8
1
  6
Continuous
 62
     7
100
AcDbLine
 10
247.273273
 20
170.299910334957
 30
0.0
 11
247.397587
 21
170.291675334957
 31
0.0
  0
LINE
  5
22B
330
43
100
AcDbEntity
  8
1
  6
Continuous
 62
     7
100
AcDbLine
 10
247.0410440000001
 20
170.299910334957
 30
0.0
 11
247.273273
 21
170.299910334957
 31
0.0
  0
LINE
  5
22C
330
43
100
AcDbEntity
  8
1
  6
Continuous
 62
     7
100
AcDbLine
 10
245.500004
 20
170.299910334957
 30
0.0
 11
246.1014690000001
 21
170.299910334957
 31
0.0
  0
LINE
  5
22D
330
43
100
AcDbEntity
  8
1
  6
Continuous
 62
     7
100
AcDbLine
 10
243.958964
 20
170.299910334957
 30
0.0
 11
244.3648020000001
 21
170.299910334957
 31
0.0
  0
LINE
  5
22E
330
43
100
AcDbEntity
  8
1
  6
Continuous
 62
     7
100
AcDbLine
 10
242.700005
 20
168.499899334957
 30
0.0
 11
248.3000030000001
 21
168.499899334957
 31
0.0
  0
LINE
  5
22F
330
43
100
AcDbEntity
  8
1
  6
Continuous
 62
     7
100
AcDbLine
 10
-4.31802885010482
 20
170.299910334957
 30
0.0
 11
-4.31802885010482
 21
169.599905334957
 31
0.0
  0
LINE
  5
230
330
43
100
AcDbEntity
  8
1
  6
Continuous
 62
     7
100
AcDbLine
 10
-5.73585685010482
 20
170.299910334957
 30
0.0
 11
-4.31802885010482
 21
170.299910334957
 31
0.0
  0
LINE
  5
231
330
43
100
AcDbEntity
  8
1
  6
Continuous
 62
     7
100
AcDbLine
 10
-3.5180298501048
 20
170.299910334957
 30
0.0
 11
-2.10021385010482
 21
170.299910334957
 31
0.0
  0
LINE
  5
232
330
43
100
AcDbEntity
  8
1
  6
Continuous
 62
     7
100
AcDbLine
 10
-4.31802885010482
 20
169.599905334957
 30
0.0
 11
-3.5180298501048
 21
169.599905334957
 31
0.0
  0
LINE
  5
233
330
43
100
AcDbEntity
  8
1
  6
Continuous
 62
     7
100
AcDbLine
 10
-3.5180298501048
 20
169.599905334957
 30
0.0
 11
-3.5180298501048
 21
170.299910334957
 31
0.0
  0
LINE
  5
234
330
43
100
AcDbEntity
  8
1
  6
Continuous
 62
     7
100
AcDbLine
 10
-1.11803085010481
 20
168.499899334957
 30
0.0
 11
-1.20363585010481
 21
169.478352334957
 31
0.0
  0
LINE
  5
235
330
43
100
AcDbEntity
  8
1
  6
Continuous
 62
     7
100
AcDbLine
 10
-6.63243485010481
 20
169.478352334957
 30
0.0
 11
-6.71802785010481
 21
168.499899334957
 31
0.0
  0
LINE
  5
236
330
43
100
AcDbEntity
  8
1
  6
Continuous
 62
     7
100
AcDbLine
 10
18.26414314989518
 20
170.299910334957
 30
0.0
 11
19.68195914989517
 21
170.299910334957
 31
0.0
  0
LINE
  5
237
330
43
100
AcDbEntity
  8
1
  6
Continuous
 62
     7
100
AcDbLine
 10
20.48195914989518
 20
170.299910334957
 30
0.0
 11
21.8997981498952
 21
170.299910334957
 31
0.0
  0
LINE
  5
238
330
43
100
AcDbEntity
  8
1
  6
Continuous
 62
     7
100
AcDbLine
 10
22.88195714989519
 20
168.499899334957
 30
0.0
 11
22.79637614989517
 21
169.478352334957
 31
0.0
  0
LINE
  5
239
330
43
100
AcDbEntity
  8
1
  6
Continuous
 62
     7
100
AcDbLine
 10
19.68195914989517
 20
170.299910334957
 30
0.0
 11
19.68195914989517
 21
169.599905334957
 31
0.0
  0
LINE
  5
23A
330
43
100
AcDbEntity
  8
1
  6
Continuous
 62
     7
100
AcDbLine
 10
19.68195914989517
 20
169.599905334957
 30
0.0
 11
20.48195914989518
 21
169.599905334957
 31
0.0
  0
LINE
  5
23B
330
43
100
AcDbEntity
  8
1
  6
Continuous
 62
     7
100
AcDbLine
 10
20.48195914989518
 20
169.599905334957
 30
0.0
 11
20.48195914989518
 21
170.299910334957
 31
0.0
  0
LINE
  5
23C
330
43
100
AcDbEntity
  8
1
  6
Continuous
 62
     7
100
AcDbLine
 10
17.36756514989518
 20
169.478352334957
 30
0.0
 11
17.28197214989519
 21
168.499899334957
 31
0.0
  0
LINE
  5
23D
330
43
100
AcDbEntity
  8
1
  6
DOT_CENTER
 62
     2
100
AcDbLine
 10
185.5000095
 20
171.478352334957
 30
0.0
 11
185.5000095
 21
166.499899334957
 31
0.0
  0
LINE
  5
23E
330
43
100
AcDbEntity
  8
1
  6
DOT_CENTER
 62
     2
100
AcDbLine
 10
245.5000040000001
 20
171.4832715338957
 30
0.0
 11
245.5000039999999
 21
166.499899334957
 31
0.0
  0
LINE
  5
23F
330
43
100
AcDbEntity
  8
1
  6
DOT_CENTER
 62
     2
100
AcDbLine
 10
-3.91804896642791
 20
171.4783688535346
 30
0.0
 11
-3.91801866958151
 21
166.4998822954443
 31
0.0
  0
ARC
  5
240
330
43
100
AcDbEntity
  8
1
  6
Continuous
 62
     7
100
AcDbCircle
 10
-2.10021385010482
 20
169.399917334957
 30
0.0
 40
0.8999999999999305
100
AcDbArc
 50
5.00000000000054
 51
90.0
  0
ARC
  5
241
330
43
100
AcDbEntity
  8
1
  6
Continuous
 62
     7
100
AcDbCircle
 10
-5.73585685010482
 20
169.399917334957
 30
0.0
 40
0.9000000000000057
100
AcDbArc
 50
90.0
 51
174.9999999999999
  0
ARC
  5
242
330
43
100
AcDbEntity
  8
1
  6
Continuous
 62
     7
100
AcDbCircle
 10
18.26414314989518
 20
169.399917334957
 30
0.0
 40
0.9000000000000057
100
AcDbArc
 50
90.0
 51
174.9999999999999
  0
ARC
  5
243
330
43
100
AcDbEntity
  8
1
  6
Continuous
 62
     7
100
AcDbCircle
 10
21.8997981498952
 20
169.399917334957
 30
0.0
 40
0.9000000000000081
100
AcDbArc
 50
5.00000000000011
 51
90.0
  0
ENDBLK
  5
45
330
43
100
AcDbEntity
  8
0
100
AcDbBlockEnd
  0
BLOCK
  5
47
330
46
100
AcDbEntity
  8
0
100
AcDbBlockBegin
  2
Lagerschild
 70
     0
 71
     0
 10
-141.2180293501048
 20
37.99999999999999
 30
0.0
  3
Lagerschild
  1

  0
POINT
  5
244
330
46
100
AcDbEntity
  8
1
 62
     3
 60
     1
100
AcDbPoint
 10
-123.7180293501048
 20
146.75
 30
0.0
  0
POINT
  5
245
330
46
100
AcDbEntity
  8
1
 62
     3
 60
     1
100
AcDbPoint
 10
-123.7180293501048
 20
148.0
 30
0.0
  0
LINE
  5
246
330
46
100
AcDbEntity
  8
1
  6
DOT_CENTER
 62
     2
100
AcDbLine
 10
256.865746699413
 20
68.13425330058698
 30
0.0
 11
261.4619407771256
 21
63.53805922287438
 31
0.0
  0
LINE
  5
247
330
46
100
AcDbEntity
  8
1
  6
DOT_CENTER
 62
     2
100
AcDbLine
 10
266.0581348548382
 20
58.94186514516178
 30
0.0
 11
261.4619407771256
 21
63.53805922287438
 31
0.0
  0
LINE
  5
248
330
46
100
AcDbEntity
  8
1
  6
DOT_CENTER
 62
     2
100
AcDbLine
 10
174.134253300587
 20
68.13425330058703
 30
0.0
 11
169.5380592228744
 21
63.53805922287442
 31
0.0
  0
LINE
  5
249
330
46
100
AcDbEntity
  8
1
  6
DOT_CENTER
 62
     2
100
AcDbLine
 10
174.134253300587
 20
150.865746699413
 30
0.0
 11
169.5380592228744
 21
155.4619407771256
 31
0.0
  0
LINE
  5
24A
330
46
100
AcDbEntity
  8
1
  6
DOT_CENTER
 62
     2
100
AcDbLine
 10
164.9418651451618
 20
160.0581348548382
 30
0.0
 11
169.5380592228744
 21
155.4619407771256
 31
0.0
  0
LINE
  5
24B
330
46
100
AcDbEntity
  8
1
  6
Continuous
 62
     7
100
AcDbLine
 10
-137.7180293501048
 20
167.0
 30
0.0
 11
-137.7180293501048
 21
164.5
 31
0.0
  0
LINE
  5
24C
330
46
100
AcDbEntity
  8
1
  6
Continuous
 62
     7
100
AcDbLine
 10
-137.7180293501048
 20
164.5
 30
0.0
 11
-141.2180293501048
 21
164.5
 31
0.0
  0
LINE
  5
24D
330
46
100
AcDbEntity
  8
1
  6
Continuous
 62
     7
100
AcDbLine
 10
-137.7180293501048
 20
164.5
 30
0.0
 11
-137.7180293501048
 21
158.0660171779821
 31
0.0
  0
LINE
  5
24E
330
46
100
AcDbEntity
  8
1
  6
Continuous
 62
     7
100
AcDbLine
 10
-137.7180293501048
 20
54.5
 30
0.0
 11
-141.2180293501048
 21
54.5
 31
0.0
  0
LINE
  5
24F
330
46
100
AcDbEntity
  8
1
  6
Continuous
 62
     7
100
AcDbLine
 10
-137.7180293501048
 20
54.5
 30
0.0
 11
-137.7180293501048
 21
52.0
 31
0.0
  0
LINE
  5
250
330
46
100
AcDbEntity
  8
1
  6
Continuous
 62
     7
100
AcDbLine
 10
-141.2180293501048
 20
164.5
 30
0.0
 11
-141.2180293501048
 21
121.5
 31
0.0
  0
LINE
  5
251
330
46
100
AcDbEntity
  8
1
  6
Continuous
 62
     7
100
AcDbLine
 10
-141.2180293501048
 20
97.5
 30
0.0
 11
-141.2180293501048
 21
54.5
 31
0.0
  0
LINE
  5
252
330
46
100
AcDbEntity
  8
1
  6
Continuous
 62
     7
100
AcDbLine
 10
-137.7180293501048
 20
60.9339828220179
 30
0.0
 11
-137.7180293501048
 21
54.5
 31
0.0
  0
LINE
  5
253
330
46
100
AcDbEntity
  8
1
  6
Continuous
 62
     7
100
AcDbLine
 10
-137.7180293501048
 20
158.0660171779821
 30
0.0
 11
-137.7180293501048
 21
126.323226205142
 31
0.0
  0
LINE
  5
254
330
46
100
AcDbEntity
  8
1
  6
DOT_CENTER
 62
     2
100
AcDbLine
 10
256.865746699413
 20
150.865746699413
 30
0.0
 11
261.4619407771256
 21
155.4619407771256
 31
0.0
  0
LINE
  5
255
330
46
100
AcDbEntity
  8
1
  6
DOT_CENTER
 62
     2
100
AcDbLine
 10
266.0581348548382
 20
160.0581348548382
 30
0.0
 11
261.4619407771256
 21
155.4619407771256
 31
0.0
  0
LINE
  5
256
330
46
100
AcDbEntity
  8
1
  6
Continuous
 62
     7
100
AcDbLine
 10
264.0660171779821
 20
167.0
 30
0.0
 11
273.0
 21
158.0660171779821
 31
0.0
  0
LINE
  5
257
330
46
100
AcDbEntity
  8
1
  6
Continuous
 62
     7
100
AcDbLine
 10
264.0660171779821
 20
167.0
 30
0.0
 11
166.9339828220179
 21
167.0
 31
0.0
  0
LINE
  5
258
330
46
100
AcDbEntity
  8
1
  6
Continuous
 62
     7
100
AcDbLine
 10
158.0
 20
158.0660171779821
 30
0.0
 11
166.9339828220179
 21
167.0
 31
0.0
  0
LINE
  5
259
330
46
100
AcDbEntity
  8
1
  6
Continuous
 62
     7
100
AcDbLine
 10
158.0
 20
158.0660171779821
 30
0.0
 11
158.0
 21
60.93398282201788
 31
0.0
  0
LINE
  5
25A
330
46
100
AcDbEntity
  8
1
  6
Continuous
 62
     7
100
AcDbLine
 10
158.0
 20
60.93398282201788
 30
0.0
 11
166.9339828220179
 21
52.0
 31
0.0
  0
LINE
  5
25B
330
46
100
AcDbEntity
  8
1
  6
Continuous
 62
     7
100
AcDbLine
 10
166.9339828220179
 20
52.0
 30
0.0
 11
264.0660171779821
 21
52.0
 31
0.0
  0
LINE
  5
25C
330
46
100
AcDbEntity
  8
1
  6
Continuous
 62
     7
100
AcDbLine
 10
264.0660171779821
 20
52.0
 30
0.0
 11
273.0
 21
60.9339828220179
 31
0.0
  0
LINE
  5
25D
330
46
100
AcDbEntity
  8
1
  6
Continuous
 62
     7
100
AcDbLine
 10
273.0
 20
60.9339828220179
 30
0.0
 11
273.0
 21
158.0660171779821
 31
0.0
  0
LINE
  5
25E
330
46
100
AcDbEntity
  8
1
  6
DOT_CENTER
 62
     2
100
AcDbLine
 10
287.0
 20
109.5
 30
0.0
 11
144.0
 21
109.5
 31
0.0
  0
LINE
  5
25F
330
46
100
AcDbEntity
  8
1
  6
DOT_CENTER
 62
     2
100
AcDbLine
 10
215.5
 20
181.0
 30
0.0
 11
215.5
 21
37.99999999999999
 31
0.0
  0
LINE
  5
260
330
46
100
AcDbEntity
  8
1
  6
Continuous
 62
     7
100
AcDbLine
 10
-137.7180293501048
 20
109.5
 30
0.0
 11
-137.7180293501048
 21
60.9339828220179
 31
0.0
  0
LINE
  5
261
330
46
100
AcDbEntity
  8
1
  6
Continuous
 62
     7
100
AcDbLine
 10
-141.2180293501048
 20
109.5
 30
0.0
 11
-141.2180293501048
 21
97.5
 31
0.0
  0
LINE
  5
262
330
46
100
AcDbEntity
  8
1
  6
DOT_CENTER
 62
     2
100
AcDbLine
 10
169.5380592228744
 20
63.53805922287442
 30
0.0
 11
165.5380592228744
 21
59.53805922287442
 31
0.0
  0
LINE
  5
263
330
46
100
AcDbEntity
  8
1
  6
Continuous
 62
     7
100
AcDbLine
 10
-137.7180293501048
 20
167.0
 30
0.0
 11
-123.7180293501048
 21
167.0
 31
0.0
  0
LINE
  5
264
330
46
100
AcDbEntity
  8
1
  6
Continuous
 62
     7
100
AcDbLine
 10
-137.7180293501048
 20
52.0
 30
0.0
 11
-123.7180293501048
 21
52.0
 31
0.0
  0
LINE
  5
265
330
46
100
AcDbEntity
  8
1
  6
Continuous
 62
     7
100
AcDbLine
 10
-137.7180293501048
 20
158.0660171779821
 30
0.0
 11
-123.7180293501048
 21
158.0660171779821
 31
0.0
  0
LINE
  5
266
330
46
100
AcDbEntity
  8
1
  6
Continuous
 62
     7
100
AcDbLine
 10
-137.7180293501048
 20
60.9339828220179
 30
0.0
 11
-123.7180293501048
 21
60.9339828220179
 31
0.0
  0
LINE
  5
267
330
46
100
AcDbEntity
  8
1
  6
Continuous
 62
     7
100
AcDbLine
 10
-123.7180293501048
 20
146.75
 30
0.0
 11
-104.2180293501048
 21
146.75
 31
0.0
  0
LINE
  5
268
330
46
100
AcDbEntity
  8
1
  6
Continuous
 62
     7
100
AcDbLine
 10
-123.7180293501048
 20
72.25
 30
0.0
 11
-104.2180293501048
 21
72.25
 31
0.0
  0
LINE
  5
269
330
46
100
AcDbEntity
  8
1
  6
Continuous
 62
     7
100
AcDbLine
 10
-123.7180293501048
 20
167.0
 30
0.0
 11
-123.7180293501048
 21
166.05
 31
0.0
  0
LINE
  5
26A
330
46
100
AcDbEntity
  8
1
  6
Continuous
 62
     7
100
AcDbLine
 10
-104.2180293501048
 20
146.75
 30
0.0
 11
-104.2180293501048
 21
72.25
 31
0.0
  0
LINE
  5
26B
330
46
100
AcDbEntity
  8
1
  6
Continuous
 62
     7
100
AcDbLine
 10
-104.2180293501048
 20
146.75
 30
0.0
 11
-101.2180293501048
 21
146.75
 31
0.0
  0
LINE
  5
26C
330
46
100
AcDbEntity
  8
1
  6
Continuous
 62
     7
100
AcDbLine
 10
-101.2180293501048
 20
166.05
 30
0.0
 11
-101.2180293501048
 21
167.0
 31
0.0
  0
LINE
  5
26D
330
46
100
AcDbEntity
  8
1
  6
Continuous
 62
     7
100
AcDbLine
 10
-101.2180293501048
 20
167.0
 30
0.0
 11
-123.7180293501048
 21
167.0
 31
0.0
  0
LINE
  5
26E
330
46
100
AcDbEntity
  8
1
  6
Continuous
 62
     7
100
AcDbLine
 10
-104.2180293501048
 20
72.25
 30
0.0
 11
-101.2180293501048
 21
72.25
 31
0.0
  0
LINE
  5
26F
330
46
100
AcDbEntity
  8
1
  6
Continuous
 62
     7
100
AcDbLine
 10
-101.2180293501048
 20
72.25
 30
0.0
 11
-101.2180293501048
 21
71.0
 31
0.0
  0
LINE
  5
270
330
46
100
AcDbEntity
  8
1
  6
Continuous
 62
     7
100
AcDbLine
 10
-101.2180293501048
 20
52.95
 30
0.0
 11
-101.2180293501048
 21
52.0
 31
0.0
  0
LINE
  5
271
330
46
100
AcDbEntity
  8
1
  6
Continuous
 62
     7
100
AcDbLine
 10
-101.2180293501048
 20
52.0
 30
0.0
 11
-123.7180293501048
 21
52.0
 31
0.0
  0
LINE
  5
272
330
46
100
AcDbEntity
  8
1
  6
Continuous
 62
     7
100
AcDbLine
 10
-101.2180293501048
 20
167.0
 30
0.0
 11
-101.2180293501048
 21
166.05
 31
0.0
  0
LINE
  5
273
330
46
100
AcDbEntity
  8
1
  6
Continuous
 62
     7
100
AcDbLine
 10
-101.2180293501048
 20
146.75
 30
0.0
 11
-104.2180293501048
 21
146.75
 31
0.0
  0
LINE
  5
274
330
46
100
AcDbEntity
  8
1
  6
Continuous
 62
     7
100
AcDbLine
 10
-104.2180293501048
 20
146.75
 30
0.0
 11
-104.2180293501048
 21
72.25
 31
0.0
  0
LINE
  5
275
330
46
100
AcDbEntity
  8
1
  6
Continuous
 62
     7
100
AcDbLine
 10
-104.2180293501048
 20
72.25
 30
0.0
 11
-101.2180293501048
 21
72.25
 31
0.0
  0
LINE
  5
276
330
46
100
AcDbEntity
  8
1
  6
Continuous
 62
     7
100
AcDbLine
 10
-101.2180293501048
 20
72.25
 30
0.0
 11
-101.2180293501048
 21
71.0
 31
0.0
  0
LINE
  5
277
330
46
100
AcDbEntity
  8
1
  6
Continuous
 62
     7
100
AcDbLine
 10
-101.2180293501048
 20
52.95
 30
0.0
 11
-101.2180293501048
 21
52.0
 31
0.0
  0
LINE
  5
278
330
46
100
AcDbEntity
  8
1
  6
Continuous
 62
     7
100
AcDbLine
 10
-101.2180293501048
 20
146.75
 30
0.0
 11
-101.2180293501048
 21
148.0
 31
0.0
  0
LINE
  5
279
330
46
100
AcDbEntity
  8
1
  6
Continuous
 62
     7
100
AcDbLine
 10
-101.2180293501048
 20
148.0
 30
0.0
 11
-101.2180293501048
 21
146.75
 31
0.0
  0
LINE
  5
27A
330
46
100
AcDbEntity
  8
1
  6
Continuous
 62
     7
100
AcDbLine
 10
-101.2180293501048
 20
166.05
 30
0.0
 11
-101.2180293501048
 21
148.0
 31
0.0
  0
LINE
  5
27B
330
46
100
AcDbEntity
  8
1
  6
Continuous
 62
     7
100
AcDbLine
 10
-101.2180293501048
 20
71.0
 30
0.0
 11
-101.2180293501048
 21
52.95
 31
0.0
  0
LINE
  5
27C
330
46
100
AcDbEntity
  8
1
  6
Continuous
 62
     7
100
AcDbLine
 10
-101.2180293501048
 20
148.0
 30
0.0
 11
-123.7180293501048
 21
148.0
 31
0.0
  0
LINE
  5
27D
330
46
100
AcDbEntity
  8
1
  6
Continuous
 62
     7
100
AcDbLine
 10
-123.7180293501048
 20
148.0
 30
0.0
 11
-123.7180293501048
 21
71.0
 31
0.0
  0
LINE
  5
27E
330
46
100
AcDbEntity
  8
1
  6
Continuous
 62
     7
100
AcDbLine
 10
-101.2180293501048
 20
166.05
 30
0.0
 11
-123.7180293501048
 21
166.05
 31
0.0
  0
LINE
  5
27F
330
46
100
AcDbEntity
  8
1
  6
Continuous
 62
     7
100
AcDbLine
 10
-123.7180293501048
 20
166.05
 30
0.0
 11
-123.7180293501048
 21
148.0
 31
0.0
  0
LINE
  5
280
330
46
100
AcDbEntity
  8
1
  6
Continuous
 62
     7
100
AcDbLine
 10
-102.960774908518
 20
71.0
 30
0.0
 11
-123.7180293501048
 21
71.0
 31
0.0
  0
LINE
  5
281
330
46
100
AcDbEntity
  8
1
  6
Continuous
 62
     7
100
AcDbLine
 10
-123.7180293501048
 20
71.0
 30
0.0
 11
-123.7180293501048
 21
52.95
 31
0.0
  0
LINE
  5
282
330
46
100
AcDbEntity
  8
1
  6
Continuous
 62
     7
100
AcDbLine
 10
-101.2180293501048
 20
52.95
 30
0.0
 11
-123.7180293501048
 21
52.95
 31
0.0
  0
LINE
  5
283
330
46
100
AcDbEntity
  8
1
  6
Continuous
 62
     7
100
AcDbLine
 10
-123.7180293501048
 20
52.95
 30
0.0
 11
-123.7180293501048
 21
52.0
 31
0.0
  0
LINE
  5
284
330
46
100
AcDbEntity
  8
1
  6
Continuous
 62
     7
100
AcDbLine
 10
-102.960774908518
 20
71.0
 30
0.0
 11
-101.2180293501048
 21
71.0
 31
0.0
  0
ARC
  5
285
330
46
100
AcDbEntity
  8
1
  6
DOT_CENTER
 62
     2
100
AcDbCircle
 10
215.5
 20
109.5
 30
0.0
 40
64.99999999999999
100
AcDbArc
 50
-135.0
 51
-124.4113085712249
  0
ARC
  5
286
330
46
100
AcDbEntity
  8
1
  6
DOT_CENTER
 62
     2
100
AcDbCircle
 10
215.5
 20
109.5
 30
0.0
 40
65.00000000000001
100
AcDbArc
 50
44.99999999999998
 51
55.51986192461063
  0
ARC
  5
287
330
46
100
AcDbEntity
  8
1
  6
DOT_CENTER
 62
     2
100
AcDbCircle
 10
215.5
 20
109.5
 30
0.0
 40
65.00000000000001
100
AcDbArc
 50
-54.11981002072555
 51
-35.07537936046261
  0
ARC
  5
288
330
46
100
AcDbEntity
  8
1
  6
DOT_CENTER
 62
     2
100
AcDbCircle
 10
215.5
 20
109.5
 30
0.0
 40
65.00000000000013
100
AcDbArc
 50
32.82581730959343
 51
44.99999999999998
  0
ARC
  5
289
330
46
100
AcDbEntity
  8
1
  6
DOT_CENTER
 62
     2
100
AcDbCircle
 10
215.5
 20
109.5
 30
0.0
 40
65.00000000000001
100
AcDbArc
 50
127.3877069271369
 51
144.597656009556
  0
ARC
  5
28A
330
46
100
AcDbEntity
  8
1
  6
Continuous
 62
     7
100
AcDbCircle
 10
169.5380592228744
 20
63.53805922287442
 30
0.0
 40
4.5
100
AcDbArc
 50
0.0
 51
135.0000000000005
  0
ARC
  5
28B
330
46
100
AcDbEntity
  8
1
  6
Continuous
 62
     7
100
AcDbCircle
 10
169.5380592228744
 20
63.53805922287442
 30
0.0
 40
4.500000000000016
100
AcDbArc
 50
-44.99999999999974
 51
0.0
  0
ARC
  5
28C
330
46
100
AcDbEntity
  8
1
  6
DOT_CENTER
 62
     2
100
AcDbCircle
 10
215.5
 20
109.5
 30
0.0
 40
65.00000000000003
100
AcDbArc
 50
-147.2406796990726
 51
-135.0
  0
CIRCLE
  5
28D
330
46
100
AcDbEntity
  8
1
  6
Continuous
 62
     7
100
AcDbCircle
 10
215.5
 20
109.5
 30
0.0
 40
55.0
  0
CIRCLE
  5
28E
330
46
100
AcDbEntity
  8
1
  6
Continuous
 62
     7
100
AcDbCircle
 10
215.5
 20
109.5
 30
0.0
 40
50.0
  0
CIRCLE
  5
28F
330
46
100
AcDbEntity
  8
1
  6
Continuous
 62
     7
100
AcDbCircle
 10
215.5
 20
109.5
 30
0.0
 40
20.0
  0
CIRCLE
  5
290
330
46
100
AcDbEntity
  8
1
  6
Continuous
 62
     7
100
AcDbCircle
 10
261.4619407771256
 20
63.53805922287438
 30
0.0
 40
4.5
  0
CIRCLE
  5
291
330
46
100
AcDbEntity
  8
1
  6
Continuous
 62
     7
100
AcDbCircle
 10
261.4619407771256
 20
155.4619407771256
 30
0.0
 40
4.5
  0
CIRCLE
  5
292
330
46
100
AcDbEntity
  8
1
  6
Continuous
 62
     7
100
AcDbCircle
 10
169.5380592228744
 20
155.4619407771256
 30
0.0
 40
4.5
  0
CIRCLE
  5
293
330
46
100
AcDbEntity
  8
1
  6
Continuous
 62
     7
100
AcDbCircle
 10
169.5380592228744
 20
63.53805922287442
 30
0.0
 40
4.5
  0
XLINE
  5
294
330
46
100
AcDbEntity
  8
1
  6
DOT_CENTER
 62
     3
 60
     1
100
AcDbXline
 10
-123.7180293501048
 20
148.0
 30
0.0
 11
0.0
 21
1.0
 31
0.0
  0
ENDBLK
  5
48
330
46
100
AcDbEntity
  8
0
100
AcDbBlockEnd
  0
BLOCK
  5
4A
330
49
100
AcDbEntity
  8
0
100
AcDbBlockBegin
  2
Deckel
 70
     0
 71
     0
 10
-385.25
 20
29.75
 30
0.0
  3
Deckel
  1

  0
LINE
  5
295
330
49
100
AcDbEntity
  8
1
  6
Continuous
 62
     7
100
AcDbLine
 10
40.7819706498952
 20
153.6588043316392
 30
0.0
 11
44.28197064989519
 21
153.6588043316392
 31
0.0
  0
LINE
  5
296
330
49
100
AcDbEntity
  8
1
  6
Continuous
 62
     7
100
AcDbLine
 10
40.7819706498952
 20
167.0
 30
0.0
 11
40.7819706498952
 21
153.6588043316392
 31
0.0
  0
LINE
  5
297
330
49
100
AcDbEntity
  8
1
  6
Continuous
 62
     7
100
AcDbLine
 10
40.7819706498952
 20
52.0
 30
0.0
 11
44.28197064989519
 21
52.0
 31
0.0
  0
LINE
  5
298
330
49
100
AcDbEntity
  8
1
  6
Continuous
 62
     7
100
AcDbLine
 10
44.28197064989519
 20
167.0
 30
0.0
 11
44.28197064989519
 21
153.6588043316392
 31
0.0
  0
LINE
  5
299
330
49
100
AcDbEntity
  8
1
  6
Continuous
 62
     7
100
AcDbLine
 10
44.28197064989519
 20
167.0
 30
0.0
 11
40.7819706498952
 21
167.0
 31
0.0
  0
LINE
  5
29A
330
49
100
AcDbEntity
  8
1
  6
Continuous
 62
     7
100
AcDbLine
 10
40.7819706498952
 20
65.34119566836077
 30
0.0
 11
44.28197064989519
 21
65.34119566836077
 31
0.0
  0
LINE
  5
29B
330
49
100
AcDbEntity
  8
1
  6
Continuous
 62
     7
100
AcDbLine
 10
44.28197064989519
 20
153.6588043316392
 30
0.0
 11
44.28197064989519
 21
65.34119566836077
 31
0.0
  0
LINE
  5
29C
330
49
100
AcDbEntity
  8
1
  6
Continuous
 62
     7
100
AcDbLine
 10
40.7819706498952
 20
153.6588043316392
 30
0.0
 11
40.7819706498952
 21
65.34119566836077
 31
0.0
  0
LINE
  5
29D
330
49
100
AcDbEntity
  8
1
  6
Continuous
 62
     7
100
AcDbLine
 10
44.28197064989519
 20
65.34119566836077
 30
0.0
 11
44.28197064989519
 21
52.0
 31
0.0
  0
LINE
  5
29E
330
49
100
AcDbEntity
  8
1
  6
Continuous
 62
     7
100
AcDbLine
 10
40.7819706498952
 20
65.34119566836077
 30
0.0
 11
40.7819706498952
 21
52.0
 31
0.0
  0
ENDBLK
  5
4B
330
49
100
AcDbEntity
  8
0
100
AcDbBlockEnd
  0
BLOCK
  5
4D
330
4C
100
AcDbEntity
  8
0
100
AcDbBlockBegin
  2
Rotor
 70
     0
 71
     0
 10
-189.7180293501048
 20
97.5
 30
0.0
  3
Rotor
  1

  0
POINT
  5
29F
330
4C
100
AcDbEntity
  8
1
 62
     3
 60
     1
100
AcDbPoint
 10
-137.7180293501048
 20
109.5
 30
0.0
  0
POINT
  5
2A0
330
4C
100
AcDbEntity
  8
1
 62
     3
 60
     1
100
AcDbPoint
 10
-137.7180293501048
 20
122.0
 30
0.0
  0
POINT
  5
2A1
330
4C
100
AcDbEntity
  8
1
 62
     3
 60
     1
100
AcDbPoint
 10
-135.6841415890211
 20
122.0
 30
0.0
  0
POINT
  5
2A2
330
4C
100
AcDbEntity
  8
1
 62
     3
 60
     1
100
AcDbPoint
 10
-137.7180293501048
 20
19.0
 30
0.0
  0
LINE
  5
2A3
330
4C
100
AcDbEntity
  8
1
  6
Continuous
 62
     7
100
AcDbLine
 10
-137.7180293501048
 20
121.5
 30
0.0
 11
-187.7180293501048
 21
121.5
 31
0.0
  0
LINE
  5
2A4
330
4C
100
AcDbEntity
  8
1
  6
Continuous
 62
     7
100
AcDbLine
 10
-141.2180293501048
 20
97.5
 30
0.0
 11
-187.7180293501048
 21
97.5
 31
0.0
  0
LINE
  5
2A5
330
4C
100
AcDbEntity
  8
1
  6
Continuous
 62
     7
100
AcDbLine
 10
-187.7180293501048
 20
121.5
 30
0.0
 11
-187.7180293501048
 21
97.5
 31
0.0
  0
LINE
  5
2A6
330
4C
100
AcDbEntity
  8
1
  6
DOT_CENTER
 62
     2
100
AcDbLine
 10
69.4049800858181
 20
109.5
 30
0.0
 11
-189.7180293501048
 21
109.5
 31
0.0
  0
LINE
  5
2A7
330
4C
100
AcDbEntity
  8
1
  6
Continuous
 62
     7
100
AcDbLine
 10
-137.7180293501048
 20
109.5
 30
0.0
 11
-137.7180293501048
 21
121.5
 31
0.0
  0
LINE
  5
2A8
330
4C
100
AcDbEntity
  8
1
  6
Continuous
 62
     7
100
AcDbLine
 10
-137.7180293501048
 20
121.5
 30
0.0
 11
-137.7180293501048
 21
122.0
 31
0.0
  0
LINE
  5
2A9
330
4C
100
AcDbEntity
  8
1
  6
Continuous
 62
     7
100
AcDbLine
 10
-137.7180293501048
 20
122.0
 30
0.0
 11
-135.6841415890211
 21
122.0
 31
0.0
  0
LINE
  5
2AA
330
4C
100
AcDbEntity
  8
1
  6
Continuous
 62
     7
100
AcDbLine
 10
-137.7180293501048
 20
18.5
 30
0.0
 11
-187.7180293501048
 21
18.5
 31
0.0
  0
LINE
  5
2AB
330
4C
100
AcDbEntity
  8
1
  6
Continuous
 62
     7
100
AcDbLine
 10
-137.7180293501048
 20
-5.5
 30
0.0
 11
-187.7180293501048
 21
-5.5
 31
0.0
  0
LINE
  5
2AC
330
4C
100
AcDbEntity
  8
1
  6
Continuous
 62
     7
100
AcDbLine
 10
-187.7180293501048
 20
18.5
 30
0.0
 11
-187.7180293501048
 21
-5.5
 31
0.0
  0
LINE
  5
2AD
330
4C
100
AcDbEntity
  8
1
  6
Continuous
 62
     7
100
AcDbLine
 10
-137.7180293501048
 20
6.5
 30
0.0
 11
-137.7180293501048
 21
18.5
 31
0.0
  0
LINE
  5
2AE
330
4C
100
AcDbEntity
  8
1
  6
Continuous
 62
     7
100
AcDbLine
 10
-137.7180293501048
 20
18.5
 30
0.0
 11
-137.7180293501048
 21
19.0
 31
0.0
  0
LINE
  5
2AF
330
4C
100
AcDbEntity
  8
1
  6
Continuous
 62
     7
100
AcDbLine
 10
-137.7180293501048
 20
19.0
 30
0.0
 11
-129.400560180991
 21
19.0
 31
0.0
  0
LINE
  5
2B0
330
4C
100
AcDbEntity
  8
1
  6
Continuous
 62
     7
100
AcDbLine
 10
-178.7180293501048
 20
10.5
 30
0.0
 11
-146.7180293501048
 21
10.5
 31
0.0
  0
LINE
  5
2B1
330
4C
100
AcDbEntity
  8
1
  6
Continuous
 62
     7
100
AcDbLine
 10
-178.7180293501048
 20
2.5
 30
0.0
 11
-146.7180293501048
 21
2.5
 31
0.0
  0
LINE
  5
2B2
330
4C
100
AcDbEntity
  8
1
  6
DOT_CENTER
 62
     2
100
AcDbLine
 10
-124.10909474447
 20
6.5
 30
0.0
 11
-197.3628193813001
 21
6.5
 31
0.0
  0
LINE
  5
2B3
330
4C
100
AcDbEntity
  8
1
  6
Continuous
 62
     7
100
AcDbLine
 10
-80.5
 20
10.5
 30
0.0
 11
-80.5
 21
2.5
 31
0.0
  0
LINE
  5
2B4
330
4C
100
AcDbEntity
  8
1
  6
Continuous
 62
     7
100
AcDbLine
 10
-84.1862915010152
 20
2.5
 30
0.0
 11
-80.5
 21
2.5
 31
0.0
  0
LINE
  5
2B5
330
4C
100
AcDbEntity
  8
1
  6
Continuous
 62
     7
100
AcDbLine
 10
-84.1862915010152
 20
10.5
 30
0.0
 11
-80.5
 21
10.5
 31
0.0
  0
LINE
  5
2B6
330
4C
100
AcDbEntity
  8
1
  6
Continuous
 62
     7
100
AcDbLine
 10
-137.7180293501048
 20
-5.5
 30
0.0
 11
-137.7180293501048
 21
6.5
 31
0.0
  0
LINE
  5
2B7
330
4C
100
AcDbEntity
  8
1
  6
Continuous
 62
     7
100
AcDbLine
 10
-137.7180293501048
 20
-6.0
 30
0.0
 11
-137.7180293501048
 21
-5.5
 31
0.0
  0
LINE
  5
2B8
330
4C
100
AcDbEntity
  8
1
  6
Continuous
 62
     7
100
AcDbLine
 10
-129.400560180991
 20
-6.0
 30
0.0
 11
-137.7180293501048
 21
-6.0
 31
0.0
  0
LINE
  5
2B9
330
4C
100
AcDbEntity
  8
1
  6
DOT_CENTER
 62
     2
100
AcDbLine
 10
-82.30000000000001
 20
6.5
 30
0.0
 11
-108.7
 21
6.5
 31
0.0
  0
LINE
  5
2BA
330
4C
100
AcDbEntity
  8
1
  6
DOT_CENTER
 62
     2
100
AcDbLine
 10
-95.5
 20
19.7
 30
0.0
 11
-95.5
 21
-6.7
 31
0.0
  0
ARC
  5
2BB
330
4C
100
AcDbEntity
  8
1
  6
Continuous
 62
     7
100
AcDbCircle
 10
215.5
 20
109.5
 30
0.0
 40
12.0
100
AcDbArc
 50
180.0
 51
0.0
  0
ARC
  5
2BC
330
4C
100
AcDbEntity
  8
1
  6
Continuous
 62
     7
100
AcDbCircle
 10
215.5
 20
109.5
 30
0.0
 40
12.0
100
AcDbArc
 50
0.0
 51
180.0
  0
ARC
  5
2BD
330
4C
100
AcDbEntity
  8
1
  6
Continuous
 62
     7
100
AcDbCircle
 10
-146.7180293501048
 20
6.5
 30
0.0
 40
4.0
100
AcDbArc
 50
-90.0
 51
0.0
  0
ARC
  5
2BE
330
4C
100
AcDbEntity
  8
1
  6
Continuous
 62
     7
100
AcDbCircle
 10
-178.7180293501048
 20
6.5
 30
0.0
 40
4.0
100
AcDbArc
 50
90.0
 51
180.0
  0
ARC
  5
2BF
330
4C
100
AcDbEntity
  8
1
  6
Continuous
 62
     7
100
AcDbCircle
 10
-146.7180293501048
 20
6.5
 30
0.0
 40
4.0
100
AcDbArc
 50
0.0
 51
90.0
  0
ARC
  5
2C0
330
4C
100
AcDbEntity
  8
1
  6
Continuous
 62
     7
100
AcDbCircle
 10
-178.7180293501048
 20
6.5
 30
0.0
 40
4.0
100
AcDbArc
 50
180.0
 51
-90.0
  0
ARC
  5
2C1
330
4C
100
AcDbEntity
  8
1
  6
Continuous
 62
     7
100
AcDbCircle
 10
-95.5
 20
6.5
 30
0.0
 40
12.0
100
AcDbArc
 50
180.0
 51
0.0
  0
ARC
  5
2C2
330
4C
100
AcDbEntity
  8
1
  6
Continuous
 62
     7
100
AcDbCircle
 10
-95.5
 20
6.5
 30
0.0
 40
12.0
100
AcDbArc
 50
0.0
 51
180.0
  0
ARC
  5
2C3
330
4C
100
AcDbEntity
  8
1
  6
Continuous
 62
     2
100
AcDbCircle
 10
-134.088060180991
 20
0.25
 30
0.0
 40
7.8125
100
AcDbArc
 50
-53.13010235415598
 51
53.13010235415598
  0
ARC
  5
2C4
102
{ACAD_REACTORS
330
2F7
330
2F7
102
}
330
4C
100
AcDbEntity
  8
1
  6
Continuous
 62
     2
100
AcDbCircle
 10
-124.713060180991
 20
12.75
 30
0.0
 40
7.8125
100
AcDbArc
 50
126.869897645844
 51
-126.869897645844
  0
ARC
  5
2C5
102
{ACAD_REACTORS
330
2F7
330
2F7
102
}
330
4C
100
AcDbEntity
  8
1
  6
Continuous
 62
     2
100
AcDbCircle
 10
-134.088060180991
 20
12.75
 30
0.0
 40
7.8125
100
AcDbArc
 50
-53.13010235415598
 51
53.13010235415598
  0
DIMENSION
  5
2D1
330
4C
100
AcDbEntity
  8
1
100
AcDbDimension
  2
*D12
 10
-182.7180293501048
 20
-28.8466562743663
 30
0.0
 11
-162.486313053143
 21
-21.3466562743663
 31
0.0
 70
    32
  1
<>
 71
     5
 42
-1.0
 53
0.00013888888889
  3
ME10_DIM_10
100
AcDbAlignedDimension
 13
-142.7180293501048
 23
6.5
 33
0.0
 14
-182.7180293501048
 24
6.5
 34
0.0
100
AcDbRotatedDimension
  0
DIMENSION
  5
2DE
330
4C
100
AcDbEntity
  8
1
100
AcDbDimension
  2
*D13
 10
-51.731263404488
 20
10.5
 30
0.0
 11
-60.981263404488
 21
20.14119215187721
 31
0.0
 70
    32
  1
<>
 71
     5
 42
-1.0
 53
90.0
  3
ME10_DIM_11
100
AcDbAlignedDimension
 13
-80.5
 23
2.5
 33
0.0
 14
-80.5
 24
10.5
 34
0.0
 50
90.0
100
AcDbRotatedDimension
  0
DIMENSION
  5
2EB
330
4C
100
AcDbEntity
  8
1
100
AcDbDimension
  2
*D14
 10
-182.7180293501048
 20
-28.8466562743663
 30
0.0
 11
-196.866744496626
 21
-21.3466562743663
 31
0.0
 70
    32
  1
<>
 71
     5
 42
-1.0
 53
0.00013888888889
  3
ME10_DIM_12
100
AcDbAlignedDimension
 13
-187.7180293501048
 23
-5.5
 33
0.0
 14
-182.7180293501048
 24
6.5
 34
0.0
100
AcDbRotatedDimension
  0
DIMENSION
  5
2F6
330
4C
100
AcDbEntity
  8
1
100
AcDbDimension
  2
*D15
 10
-80.5
 20
-28.8466562743663
 30
0.0
 11
-93.848526779369
 21
-19.07165627436629
 31
0.0
 70
    32
  1
<>
 71
     5
 42
-1.0
 53
0.00013888888889
  3
ME10_DIM_13
100
AcDbAlignedDimension
 13
-107.5
 23
6.5
 33
0.0
 14
-80.5
 24
2.5
 34
0.0
100
AcDbRotatedDimension
  0
HATCH
  5
2F7
330
4C
100
AcDbEntity
  8
1
  6
Continuous
 62
     2
100
AcDbHatch
 10
0.0
 20
0.0
 30
0.0
210
0.0
220
0.0
230
1.0
  2
_USER
 70
     0
 71
     1
 91
        1
 92
        1
 93
        2
 72
     2
 10
-134.088060180991
 20
12.75
 40
7.8125
 50
306.869897645844
 51
413.130102354156
 73
     1
 72
     2
 10
-124.713060180991
 20
12.75
 40
7.8125
 50
126.869897645844
 51
233.130102354156
 73
     1
 97
        2
330
2C5
330
2C4
 75
     1
 76
     0
 52
45.0
 41
1.5625
 77
     0
 78
     1
 53
45.0
 43
0.0
 44
0.0
 45
-1.10485434560398
 46
1.104854345603981
 79
     0
 98
        1
 10
0.0
 20
0.0
  0
ENDBLK
  5
4E
330
4C
100
AcDbEntity
  8
0
100
AcDbBlockEnd
  0
BLOCK
  5
50
330
4F
100
AcDbEntity
  8
0
100
AcDbBlockBegin
  2
Lagerschild_B-S
 70
     0
 71
     0
 10
22.28197064989519
 20
52.0
 30
0.0
  3
Lagerschild_B-S
  1

  0
POINT
  5
2F8
330
4F
100
AcDbEntity
  8
1
 62
     3
 60
     1
100
AcDbPoint
 10
-22.71802935010481
 20
72.25
 30
0.0
  0
POINT
  5
2F9
330
4F
100
AcDbEntity
  8
1
 62
     3
 60
     1
100
AcDbPoint
 10
-22.71802935010481
 20
146.75
 30
0.0
  0
POINT
  5
2FA
330
4F
100
AcDbEntity
  8
1
 62
     3
 60
     1
100
AcDbPoint
 10
-22.71802935010481
 20
52.0
 30
0.0
  0
POINT
  5
2FB
330
4F
100
AcDbEntity
  8
1
 62
     3
 60
     1
100
AcDbPoint
 10
-22.71802935010481
 20
167.0
 30
0.0
  0
LINE
  5
2FC
330
4F
100
AcDbEntity
  8
1
  6
Continuous
 62
     7
100
AcDbLine
 10
-17.71802935010481
 20
153.6588043316392
 30
0.0
 11
-17.71802935010481
 21
167.0
 31
0.0
  0
LINE
  5
2FD
330
4F
100
AcDbEntity
  8
1
  6
Continuous
 62
     7
100
AcDbLine
 10
-17.71802935010481
 20
65.34119566836077
 30
0.0
 11
-17.71802935010481
 21
52.0
 31
0.0
  0
LINE
  5
2FE
330
4F
100
AcDbEntity
  8
1
  6
Continuous
 62
     7
100
AcDbLine
 10
-17.71802935010481
 20
65.34119566836077
 30
0.0
 11
-22.71802935010481
 21
72.25
 31
0.0
  0
LINE
  5
2FF
330
4F
100
AcDbEntity
  8
1
  6
Continuous
 62
     7
100
AcDbLine
 10
-22.71802935010481
 20
146.75
 30
0.0
 11
-17.71802935010481
 21
153.6588043316392
 31
0.0
  0
LINE
  5
300
330
4F
100
AcDbEntity
  8
1
  6
Continuous
 62
     7
100
AcDbLine
 10
-22.71802935010481
 20
52.0
 30
0.0
 11
-22.71802935010481
 21
72.25
 31
0.0
  0
LINE
  5
301
330
4F
100
AcDbEntity
  8
1
  6
Continuous
 62
     7
100
AcDbLine
 10
-22.71802935010481
 20
167.0
 30
0.0
 11
-22.71802935010481
 21
146.75
 31
0.0
  0
LINE
  5
302
330
4F
100
AcDbEntity
  8
1
  6
Continuous
 62
     7
100
AcDbLine
 10
-17.71802935010481
 20
52.0
 30
0.0
 11
-22.71802935010481
 21
52.0
 31
0.0
  0
LINE
  5
303
330
4F
100
AcDbEntity
  8
1
  6
Continuous
 62
     7
100
AcDbLine
 10
-17.71802935010481
 20
167.0
 30
0.0
 11
-22.71802935010481
 21
167.0
 31
0.0
  0
LINE
  5
304
330
4F
100
AcDbEntity
  8
1
  6
Continuous
 62
     7
100
AcDbLine
 10
40.7819706498952
 20
167.0
 30
0.0
 11
-17.71802935010481
 21
167.0
 31
0.0
  0
LINE
  5
305
330
4F
100
AcDbEntity
  8
1
  6
Continuous
 62
     7
100
AcDbLine
 10
40.7819706498952
 20
167.0
 30
0.0
 11
40.7819706498952
 21
153.6588043316392
 31
0.0
  0
LINE
  5
306
330
4F
100
AcDbEntity
  8
1
  6
Continuous
 62
     7
100
AcDbLine
 10
-17.71802935010481
 20
52.0
 30
0.0
 11
40.7819706498952
 21
52.0
 31
0.0
  0
LINE
  5
307
330
4F
100
AcDbEntity
  8
1
  6
Continuous
 62
     7
100
AcDbLine
 10
40.7819706498952
 20
153.6588043316392
 30
0.0
 11
-17.71802935010481
 21
153.6588043316392
 31
0.0
  0
LINE
  5
308
330
4F
100
AcDbEntity
  8
1
  6
Continuous
 62
     7
100
AcDbLine
 10
40.7819706498952
 20
153.6588043316392
 30
0.0
 11
40.7819706498952
 21
65.34119566836077
 31
0.0
  0
LINE
  5
309
330
4F
100
AcDbEntity
  8
1
  6
Continuous
 62
     7
100
AcDbLine
 10
40.7819706498952
 20
65.34119566836077
 30
0.0
 11
-17.71802935010481
 21
65.34119566836077
 31
0.0
  0
LINE
  5
30A
330
4F
100
AcDbEntity
  8
1
  6
Continuous
 62
     7
100
AcDbLine
 10
40.7819706498952
 20
65.34119566836077
 30
0.0
 11
40.7819706498952
 21
52.0
 31
0.0
  0
ENDBLK
  5
51
330
4F
100
AcDbEntity
  8
0
100
AcDbBlockEnd
  0
BLOCK
  5
53
330
52
100
AcDbEntity
  8
0
100
AcDbBlockBegin
  2
tb_frame_A3
 70
     0
 71
     0
 10
0.0
 20
0.0
 30
0.0
  3
tb_frame_A3
  1

  0
POINT
  5
30B
330
52
100
AcDbEntity
  8
1
 62
   250
100
AcDbPoint
 10
205.0
 20
-142.5
 30
0.0
  0
LINE
  5
30C
102
{ACAD_REACTORS
330
40E
330
40E
102
}
330
52
100
AcDbEntity
  8
1
  6
Continuous
 62
     2
100
AcDbLine
 10
145.8516542509982
 20
-115.0199999999999
 30
0.0
 11
145.8516542509982
 21
-118.30758746051
 31
0.0
  0
LINE
  5
30D
102
{ACAD_REACTORS
330
40E
330
40E
102
}
330
52
100
AcDbEntity
  8
1
  6
Continuous
 62
     2
100
AcDbLine
 10
145.8516542509982
 20
-115.0199999999999
 30
0.0
 11
147.1516542509982
 21
-115.0199999999999
 31
0.0
  0
LINE
  5
30E
102
{ACAD_REACTORS
330
40E
330
40E
102
}
330
52
100
AcDbEntity
  8
1
  6
Continuous
 62
     2
100
AcDbLine
 10
147.1516542509982
 20
-113.9199999999999
 30
0.0
 11
147.1516542509982
 21
-115.0199999999999
 31
0.0
  0
LINE
  5
30F
102
{ACAD_REACTORS
330
40E
330
40E
102
}
330
52
100
AcDbEntity
  8
1
  6
Continuous
 62
     2
100
AcDbLine
 10
145.8516542509982
 20
-113.9199999999999
 30
0.0
 11
147.1516542509982
 21
-113.9199999999999
 31
0.0
  0
LINE
  5
310
102
{ACAD_REACTORS
330
40E
330
40E
102
}
330
52
100
AcDbEntity
  8
1
  6
Continuous
 62
     2
100
AcDbLine
 10
145.8516542509982
 20
-118.30758746051
 30
0.0
 11
147.1516542509982
 21
-118.30758746051
 31
0.0
  0
LINE
  5
311
102
{ACAD_REACTORS
330
40E
330
40E
102
}
330
52
100
AcDbEntity
  8
1
  6
Continuous
 62
     2
100
AcDbLine
 10
145.8516542509982
 20
-111.3199999999999
 30
0.0
 11
145.8516542509982
 21
-113.9199999999999
 31
0.0
  0
LINE
  5
312
102
{ACAD_REACTORS
330
418
330
418
102
}
330
52
100
AcDbEntity
  8
1
  6
Continuous
 62
     2
100
AcDbLine
 10
141.9927287849846
 20
-115.9199999999999
 30
0.0
 11
142.5516542509982
 21
-115.9199999999999
 31
0.0
  0
LINE
  5
313
330
52
100
AcDbEntity
  8
1
  6
Continuous
 62
     2
100
AcDbLine
 10
141.9927287849846
 20
-115.9199999999999
 30
0.0
 11
142.2516542509982
 21
-115.9199999999999
 31
0.0
  0
LINE
  5
314
102
{ACAD_REACTORS
330
418
330
418
102
}
330
52
100
AcDbEntity
  8
1
  6
Continuous
 62
     2
100
AcDbLine
 10
141.9927287849846
 20
-114.7199999999999
 30
0.0
 11
143.7516542509982
 21
-114.7199999999999
 31
0.0
  0
LINE
  5
315
102
{ACAD_REACTORS
330
418
330
418
102
}
330
52
100
AcDbEntity
  8
1
  6
Continuous
 62
     2
100
AcDbLine
 10
141.9927287849846
 20
-114.7199999999999
 30
0.0
 11
141.9927287849846
 21
-115.9199999999999
 31
0.0
  0
LINE
  5
316
102
{ACAD_REACTORS
330
418
330
418
102
}
330
52
100
AcDbEntity
  8
1
  6
Continuous
 62
     2
100
AcDbLine
 10
143.7516542509982
 20
-119.4199999999999
 30
0.0
 11
143.2516542509982
 21
-119.4199999999999
 31
0.0
  0
LINE
  5
317
102
{ACAD_REACTORS
330
418
330
418
102
}
330
52
100
AcDbEntity
  8
1
  6
Continuous
 62
     2
100
AcDbLine
 10
143.7516542509982
 20
-111.2199999999999
 30
0.0
 11
143.7516542509982
 21
-113.3199999999999
 31
0.0
  0
LINE
  5
318
102
{ACAD_REACTORS
330
40E
330
40E
102
}
330
52
100
AcDbEntity
  8
1
  6
Continuous
 62
     2
100
AcDbLine
 10
147.1516542509982
 20
-110.2199999999999
 30
0.0
 11
144.5516542509982
 21
-110.2199999999999
 31
0.0
  0
LINE
  5
319
102
{ACAD_REACTORS
330
40E
330
40E
102
}
330
52
100
AcDbEntity
  8
1
  6
Continuous
 62
     2
100
AcDbLine
 10
144.5516542509982
 20
-110.2199999999999
 30
0.0
 11
144.5516542509982
 21
-119.4199999999999
 31
0.0
  0
LINE
  5
31A
102
{ACAD_REACTORS
330
40E
330
40E
102
}
330
52
100
AcDbEntity
  8
1
  6
Continuous
 62
     2
100
AcDbLine
 10
144.5516542509982
 20
-119.4199999999999
 30
0.0
 11
147.1516542509982
 21
-119.4199999999999
 31
0.0
  0
LINE
  5
31B
102
{ACAD_REACTORS
330
40E
330
40E
102
}
330
52
100
AcDbEntity
  8
1
  6
Continuous
 62
     2
100
AcDbLine
 10
147.1516542509982
 20
-119.4199999999999
 30
0.0
 11
147.1516542509982
 21
-118.30758746051
 31
0.0
  0
LINE
  5
31C
102
{ACAD_REACTORS
330
418
330
418
102
}
330
52
100
AcDbEntity
  8
1
  6
Continuous
 62
     2
100
AcDbLine
 10
143.7516542509982
 20
-114.7199999999999
 30
0.0
 11
143.7516542509982
 21
-119.4199999999999
 31
0.0
  0
LINE
  5
31D
102
{ACAD_REACTORS
330
418
330
418
102
}
330
52
100
AcDbEntity
  8
1
  6
Continuous
 62
     2
100
AcDbLine
 10
143.2516542509982
 20
-119.4199999999999
 30
0.0
 11
142.9048783308657
 21
-118.8199999999999
 31
0.0
  0
LINE
  5
31E
102
{ACAD_REACTORS
330
418
330
418
102
}
330
52
100
AcDbEntity
  8
1
  6
Continuous
 62
     2
100
AcDbLine
 10
141.0516542509982
 20
-119.4199999999999
 30
0.0
 11
141.9016542509982
 21
-119.4199999999999
 31
0.0
  0
LINE
  5
31F
102
{ACAD_REACTORS
330
411
330
411
102
}
330
52
100
AcDbEntity
  8
1
  6
Continuous
 62
     2
100
AcDbLine
 10
148.9516542509982
 20
-110.2199999999999
 30
0.0
 11
150.6516542509982
 21
-110.2199999999999
 31
0.0
  0
LINE
  5
320
102
{ACAD_REACTORS
330
411
330
411
102
}
330
52
100
AcDbEntity
  8
1
  6
Continuous
 62
     2
100
AcDbLine
 10
150.6516542509982
 20
-119.4199999999999
 30
0.0
 11
148.9516542509982
 21
-119.4199999999999
 31
0.0
  0
LINE
  5
321
102
{ACAD_REACTORS
330
411
330
411
102
}
330
52
100
AcDbEntity
  8
1
  6
Continuous
 62
     2
100
AcDbLine
 10
147.9516542509982
 20
-111.2199999999999
 30
0.0
 11
147.9516542509982
 21
-118.4199999999999
 31
0.0
  0
LINE
  5
322
102
{ACAD_REACTORS
330
411
330
411
102
}
330
52
100
AcDbEntity
  8
1
  6
Continuous
 62
     2
100
AcDbLine
 10
151.6516542509982
 20
-111.2199999999999
 30
0.0
 11
151.6516542509982
 21
-118.4199999999999
 31
0.0
  0
LINE
  5
323
102
{ACAD_REACTORS
330
416
330
416
102
}
330
52
100
AcDbEntity
  8
1
  6
Continuous
 62
     2
100
AcDbLine
 10
152.4516542509982
 20
-110.2199999999999
 30
0.0
 11
152.4516542509982
 21
-119.4199999999999
 31
0.0
  0
LINE
  5
324
102
{ACAD_REACTORS
330
416
330
416
102
}
330
52
100
AcDbEntity
  8
1
  6
Continuous
 62
     2
100
AcDbLine
 10
152.4516542509982
 20
-110.2199999999999
 30
0.0
 11
155.1516542509982
 21
-110.2199999999999
 31
0.0
  0
LINE
  5
325
102
{ACAD_REACTORS
330
416
330
416
102
}
330
52
100
AcDbEntity
  8
1
  6
Continuous
 62
     2
100
AcDbLine
 10
156.1516542509982
 20
-114.0043621302671
 30
0.0
 11
156.1516542509982
 21
-111.2199999999999
 31
0.0
  0
LINE
  5
326
102
{ACAD_REACTORS
330
416
330
416
102
}
330
52
100
AcDbEntity
  8
1
  6
Continuous
 62
     2
100
AcDbLine
 10
156.1516542509982
 20
-115.6603414185126
 30
0.0
 11
156.1516542509982
 21
-119.4199999999999
 31
0.0
  0
LINE
  5
327
102
{ACAD_REACTORS
330
417
330
417
102
}
330
52
100
AcDbEntity
  8
1
  6
Continuous
 62
     2
100
AcDbLine
 10
157.9516542509982
 20
-110.2199999999999
 30
0.0
 11
159.6516542509982
 21
-110.2199999999999
 31
0.0
  0
LINE
  5
328
102
{ACAD_REACTORS
330
417
330
417
102
}
330
52
100
AcDbEntity
  8
1
  6
Continuous
 62
     2
100
AcDbLine
 10
160.6516542509982
 20
-119.4199999999999
 30
0.0
 11
160.6516542509982
 21
-114.7199999999999
 31
0.0
  0
LINE
  5
329
102
{ACAD_REACTORS
330
417
330
417
102
}
330
52
100
AcDbEntity
  8
1
  6
Continuous
 62
     2
100
AcDbLine
 10
160.6516542509982
 20
-113.3199999999999
 30
0.0
 11
159.4516542509982
 21
-113.3199999999999
 31
0.0
  0
LINE
  5
32A
102
{ACAD_REACTORS
330
417
330
417
102
}
330
52
100
AcDbEntity
  8
1
  6
Continuous
 62
     2
100
AcDbLine
 10
160.6516542509982
 20
-113.3199999999999
 30
0.0
 11
160.6516542509983
 21
-111.2199999999999
 31
0.0
  0
LINE
  5
32B
102
{ACAD_REACTORS
330
410
330
410
102
}
330
52
100
AcDbEntity
  8
1
  6
Continuous
 62
     2
100
AcDbLine
 10
168.6516542509982
 20
-110.2199999999999
 30
0.0
 11
169.8516542509982
 21
-110.2199999999999
 31
0.0
  0
LINE
  5
32C
102
{ACAD_REACTORS
330
410
330
410
102
}
330
52
100
AcDbEntity
  8
1
  6
Continuous
 62
     2
100
AcDbLine
 10
168.6516542509982
 20
-119.4199999999999
 30
0.0
 11
169.8516542509982
 21
-119.4199999999999
 31
0.0
  0
LINE
  5
32D
102
{ACAD_REACTORS
330
410
330
410
102
}
330
52
100
AcDbEntity
  8
1
  6
Continuous
 62
     2
100
AcDbLine
 10
168.6516542509982
 20
-119.4199999999999
 30
0.0
 11
168.6516542509982
 21
-110.2199999999999
 31
0.0
  0
LINE
  5
32E
330
52
100
AcDbEntity
  8
1
  6
Continuous
 62
     2
100
AcDbLine
 10
168.6516542509982
 20
-119.4199999999999
 30
0.0
 11
169.8516542509982
 21
-119.4199999999999
 31
0.0
  0
LINE
  5
32F
102
{ACAD_REACTORS
330
414
330
414
102
}
330
52
100
AcDbEntity
  8
1
  6
Continuous
 62
     2
100
AcDbLine
 10
174.1516542509982
 20
-110.2199999999999
 30
0.0
 11
175.8516542509982
 21
-110.2199999999999
 31
0.0
  0
LINE
  5
330
102
{ACAD_REACTORS
330
414
330
414
102
}
330
52
100
AcDbEntity
  8
1
  6
Continuous
 62
     2
100
AcDbLine
 10
174.1516542509982
 20
-119.4199999999999
 30
0.0
 11
175.8516542509982
 21
-119.4199999999999
 31
0.0
  0
LINE
  5
331
102
{ACAD_REACTORS
330
413
330
413
102
}
330
52
100
AcDbEntity
  8
1
  6
Continuous
 62
     2
100
AcDbLine
 10
177.6516542509982
 20
-110.2199999999999
 30
0.0
 11
177.6516542509982
 21
-119.4199999999999
 31
0.0
  0
LINE
  5
332
102
{ACAD_REACTORS
330
413
330
413
102
}
330
52
100
AcDbEntity
  8
1
  6
Continuous
 62
     2
100
AcDbLine
 10
180.3516542509982
 20
-110.2199999999999
 30
0.0
 11
177.6516542509982
 21
-110.2199999999999
 31
0.0
  0
LINE
  5
333
102
{ACAD_REACTORS
330
413
330
413
102
}
330
52
100
AcDbEntity
  8
1
  6
Continuous
 62
     2
100
AcDbLine
 10
177.6516542509982
 20
-119.4199999999999
 30
0.0
 11
180.3516542509982
 21
-119.4199999999999
 31
0.0
  0
LINE
  5
334
102
{ACAD_REACTORS
330
412
330
412
102
}
330
52
100
AcDbEntity
  8
1
  6
Continuous
 62
     2
100
AcDbLine
 10
182.1516542509982
 20
-111.2199999999999
 30
0.0
 11
182.1516542509982
 21
-118.4199999999999
 31
0.0
  0
LINE
  5
335
102
{ACAD_REACTORS
330
412
330
412
102
}
330
52
100
AcDbEntity
  8
1
  6
Continuous
 62
     2
100
AcDbLine
 10
183.1516542509982
 20
-119.4199999999999
 30
0.0
 11
184.8516542509982
 21
-119.4199999999999
 31
0.0
  0
LINE
  5
336
102
{ACAD_REACTORS
330
412
330
412
102
}
330
52
100
AcDbEntity
  8
1
  6
Continuous
 62
     2
100
AcDbLine
 10
185.8516542509982
 20
-111.2199999999999
 30
0.0
 11
185.8516542509982
 21
-118.4199999999999
 31
0.0
  0
LINE
  5
337
102
{ACAD_REACTORS
330
412
330
412
102
}
330
52
100
AcDbEntity
  8
1
  6
Continuous
 62
     2
100
AcDbLine
 10
183.1516542509982
 20
-110.2199999999999
 30
0.0
 11
184.8516542509982
 21
-110.2199999999999
 31
0.0
  0
LINE
  5
338
102
{ACAD_REACTORS
330
40F
330
40F
102
}
330
52
100
AcDbEntity
  8
1
  6
Continuous
 62
     2
100
AcDbLine
 10
186.6516542509982
 20
-110.2199999999999
 30
0.0
 11
186.6516542509982
 21
-119.4199999999999
 31
0.0
  0
LINE
  5
339
102
{ACAD_REACTORS
330
40F
330
40F
102
}
330
52
100
AcDbEntity
  8
1
  6
Continuous
 62
     2
100
AcDbLine
 10
186.6516542509982
 20
-119.4199999999999
 30
0.0
 11
189.2516542509982
 21
-119.4199999999999
 31
0.0
  0
LINE
  5
33A
102
{ACAD_REACTORS
330
40F
330
40F
102
}
330
52
100
AcDbEntity
  8
1
  6
Continuous
 62
     2
100
AcDbLine
 10
189.2516542509982
 20
-119.4199999999999
 30
0.0
 11
189.2516542509982
 21
-118.30758746051
 31
0.0
  0
LINE
  5
33B
102
{ACAD_REACTORS
330
40F
330
40F
102
}
330
52
100
AcDbEntity
  8
1
  6
Continuous
 62
     2
100
AcDbLine
 10
186.6516542509982
 20
-110.2199999999999
 30
0.0
 11
187.8516542509982
 21
-110.2199999999999
 31
0.0
  0
LINE
  5
33C
102
{ACAD_REACTORS
330
415
330
415
102
}
330
52
100
AcDbEntity
  8
1
  6
Continuous
 62
     2
100
AcDbLine
 10
190.0516542509982
 20
-119.4199999999999
 30
0.0
 11
190.0516542509982
 21
-110.2199999999999
 31
0.0
  0
LINE
  5
33D
102
{ACAD_REACTORS
330
415
330
415
102
}
330
52
100
AcDbEntity
  8
1
  6
Continuous
 62
     2
100
AcDbLine
 10
190.0516542509982
 20
-110.2199999999999
 30
0.0
 11
192.7516542509982
 21
-110.2199999999999
 31
0.0
  0
LINE
  5
33E
102
{ACAD_REACTORS
330
414
330
414
102
}
330
52
100
AcDbEntity
  8
1
  6
Continuous
 62
     2
100
AcDbLine
 10
176.8516542509982
 20
-111.2199999999999
 30
0.0
 11
176.8516542509982
 21
-118.4199999999999
 31
0.0
  0
LINE
  5
33F
102
{ACAD_REACTORS
330
415
330
415
102
}
330
52
100
AcDbEntity
  8
1
  6
Continuous
 62
     2
100
AcDbLine
 10
192.7516542509982
 20
-119.4199999999999
 30
0.0
 11
190.0516542509982
 21
-119.4199999999999
 31
0.0
  0
LINE
  5
340
102
{ACAD_REACTORS
330
415
330
415
102
}
330
52
100
AcDbEntity
  8
1
  6
Continuous
 62
     2
100
AcDbLine
 10
193.7516542509982
 20
-111.2199999999999
 30
0.0
 11
193.7516542509982
 21
-118.4199999999999
 31
0.0
  0
LINE
  5
341
102
{ACAD_REACTORS
330
417
330
417
102
}
330
52
100
AcDbEntity
  8
1
  6
Continuous
 62
     2
100
AcDbLine
 10
157.9516542509982
 20
-119.4199999999999
 30
0.0
 11
158.8173222162131
 21
-119.4199999999999
 31
0.0
  0
LINE
  5
342
102
{ACAD_REACTORS
330
417
330
417
102
}
330
52
100
AcDbEntity
  8
1
  6
Continuous
 62
     2
100
AcDbLine
 10
156.9516542509982
 20
-118.4199999999999
 30
0.0
 11
156.9516542509982
 21
-111.2199999999999
 31
0.0
  0
LINE
  5
343
102
{ACAD_REACTORS
330
418
330
418
102
}
330
52
100
AcDbEntity
  8
1
  6
Continuous
 62
     2
100
AcDbLine
 10
140.0516542509982
 20
-111.2199999999999
 30
0.0
 11
140.0516542509982
 21
-118.4199999999999
 31
0.0
  0
LINE
  5
344
102
{ACAD_REACTORS
330
418
330
418
102
}
330
52
100
AcDbEntity
  8
1
  6
Continuous
 62
     2
100
AcDbLine
 10
141.0516542509982
 20
-110.2199999999999
 30
0.0
 11
142.7516542509982
 21
-110.2199999999999
 31
0.0
  0
LINE
  5
345
102
{ACAD_REACTORS
330
417
330
417
102
}
330
52
100
AcDbEntity
  8
1
  6
Continuous
 62
     2
100
AcDbLine
 10
160.6516542509982
 20
-119.4199999999999
 30
0.0
 11
160.1516542509982
 21
-119.4199999999999
 31
0.0
  0
LINE
  5
346
102
{ACAD_REACTORS
330
417
330
417
102
}
330
52
100
AcDbEntity
  8
1
  6
Continuous
 62
     2
100
AcDbLine
 10
160.1516542509982
 20
-119.4199999999999
 30
0.0
 11
159.8046153744343
 21
-118.8199999999999
 31
0.0
  0
LINE
  5
347
102
{ACAD_REACTORS
330
417
330
417
102
}
330
52
100
AcDbEntity
  8
1
  6
Continuous
 62
     2
100
AcDbLine
 10
159.4516542509982
 20
-113.3199999999999
 30
0.0
 11
159.4516542509982
 21
-111.9699999999999
 31
0.0
  0
LINE
  5
348
102
{ACAD_REACTORS
330
417
330
417
102
}
330
52
100
AcDbEntity
  8
1
  6
Continuous
 62
     2
100
AcDbLine
 10
158.1516542509982
 20
-111.9699999999999
 30
0.0
 11
158.1516542509982
 21
-117.65758746051
 31
0.0
  0
LINE
  5
349
102
{ACAD_REACTORS
330
417
330
417
102
}
330
52
100
AcDbEntity
  8
1
  6
Continuous
 62
     2
100
AcDbLine
 10
159.4516542509982
 20
-117.65758746051
 30
0.0
 11
159.4516542509982
 21
-115.9199999999999
 31
0.0
  0
LINE
  5
34A
102
{ACAD_REACTORS
330
416
330
416
102
}
330
52
100
AcDbEntity
  8
1
  6
Continuous
 62
     2
100
AcDbLine
 10
154.9516542509982
 20
-113.5699999999999
 30
0.0
 11
154.9516542509982
 21
-111.9699999999999
 31
0.0
  0
LINE
  5
34B
102
{ACAD_REACTORS
330
416
330
416
102
}
330
52
100
AcDbEntity
  8
1
  6
Continuous
 62
     2
100
AcDbLine
 10
154.9516542509982
 20
-116.0699999999999
 30
0.0
 11
154.9516542509982
 21
-119.4199999999999
 31
0.0
  0
LINE
  5
34C
102
{ACAD_REACTORS
330
416
330
416
102
}
330
52
100
AcDbEntity
  8
1
  6
Continuous
 62
     2
100
AcDbLine
 10
154.9516542509982
 20
-119.4199999999999
 30
0.0
 11
156.1516542509982
 21
-119.4199999999999
 31
0.0
  0
LINE
  5
34D
102
{ACAD_REACTORS
330
416
330
416
102
}
330
52
100
AcDbEntity
  8
1
  6
Continuous
 62
     2
100
AcDbLine
 10
153.6516542509982
 20
-119.4199999999999
 30
0.0
 11
152.4516542509982
 21
-119.4199999999999
 31
0.0
  0
LINE
  5
34E
102
{ACAD_REACTORS
330
40C
330
40C
102
}
330
52
100
AcDbEntity
  8
1
  6
Continuous
 62
     2
100
AcDbLine
 10
161.4516542509982
 20
-110.2199999999999
 30
0.0
 11
162.6516542509982
 21
-110.2199999999999
 31
0.0
  0
LINE
  5
34F
102
{ACAD_REACTORS
330
40D
330
40D
102
}
330
52
100
AcDbEntity
  8
1
  6
Continuous
 62
     2
100
AcDbLine
 10
163.4516542509982
 20
-110.2199999999999
 30
0.0
 11
164.6516542509982
 21
-110.2199999999999
 31
0.0
  0
LINE
  5
350
102
{ACAD_REACTORS
330
40C
330
40C
102
}
330
52
100
AcDbEntity
  8
1
  6
Continuous
 62
     2
100
AcDbLine
 10
161.4516542509982
 20
-119.4199999999999
 30
0.0
 11
162.6516542509982
 21
-119.4199999999999
 31
0.0
  0
LINE
  5
351
102
{ACAD_REACTORS
330
40D
330
40D
102
}
330
52
100
AcDbEntity
  8
1
  6
Continuous
 62
     2
100
AcDbLine
 10
164.6516542509982
 20
-119.4199999999999
 30
0.0
 11
164.6516542509982
 21
-110.2199999999999
 31
0.0
  0
LINE
  5
352
102
{ACAD_REACTORS
330
40D
330
40D
102
}
330
52
100
AcDbEntity
  8
1
  6
Continuous
 62
     2
100
AcDbLine
 10
163.4516542509982
 20
-110.2199999999999
 30
0.0
 11
163.4516542509982
 21
-119.4199999999999
 31
0.0
  0
LINE
  5
353
102
{ACAD_REACTORS
330
40C
330
40C
102
}
330
52
100
AcDbEntity
  8
1
  6
Continuous
 62
     2
100
AcDbLine
 10
162.6516542509982
 20
-119.4199999999999
 30
0.0
 11
162.6516542509982
 21
-110.2199999999999
 31
0.0
  0
LINE
  5
354
102
{ACAD_REACTORS
330
40C
330
40C
102
}
330
52
100
AcDbEntity
  8
1
  6
Continuous
 62
     2
100
AcDbLine
 10
161.4516542509982
 20
-110.2199999999999
 30
0.0
 11
161.4516542509982
 21
-119.4199999999999
 31
0.0
  0
LINE
  5
355
102
{ACAD_REACTORS
330
417
330
417
102
}
330
52
100
AcDbEntity
  8
1
  6
Continuous
 62
     2
100
AcDbLine
 10
158.9016542509982
 20
-114.7199999999999
 30
0.0
 11
159.7415058473918
 21
-114.7199999999999
 31
0.0
  0
LINE
  5
356
102
{ACAD_REACTORS
330
417
330
417
102
}
330
52
100
AcDbEntity
  8
1
  6
Continuous
 62
     2
100
AcDbLine
 10
158.9016542509982
 20
-114.7199999999999
 30
0.0
 11
158.9016542509982
 21
-115.9199999999999
 31
0.0
  0
LINE
  5
357
102
{ACAD_REACTORS
330
417
330
417
102
}
330
52
100
AcDbEntity
  8
1
  6
Continuous
 62
     2
100
AcDbLine
 10
158.9016542509982
 20
-115.9199999999999
 30
0.0
 11
159.4516542509982
 21
-115.9199999999999
 31
0.0
  0
LINE
  5
358
102
{ACAD_REACTORS
330
40D
330
40D
102
}
330
52
100
AcDbEntity
  8
1
  6
Continuous
 62
     2
100
AcDbLine
 10
163.4516542509982
 20
-119.4199999999999
 30
0.0
 11
164.6516542509982
 21
-119.4199999999999
 31
0.0
  0
LINE
  5
359
102
{ACAD_REACTORS
330
40E
330
40E
102
}
330
52
100
AcDbEntity
  8
1
  6
Continuous
 62
     2
100
AcDbLine
 10
145.8516542509982
 20
-111.3199999999999
 30
0.0
 11
147.1516542509982
 21
-111.3199999999999
 31
0.0
  0
LINE
  5
35A
102
{ACAD_REACTORS
330
40E
330
40E
102
}
330
52
100
AcDbEntity
  8
1
  6
Continuous
 62
     2
100
AcDbLine
 10
147.1516542509982
 20
-111.3199999999999
 30
0.0
 11
147.1516542509982
 21
-110.2199999999999
 31
0.0
  0
LINE
  5
35B
102
{ACAD_REACTORS
330
411
330
411
102
}
330
52
100
AcDbEntity
  8
1
  6
Continuous
 62
     2
100
AcDbLine
 10
150.4516542509982
 20
-111.9699999999999
 30
0.0
 11
150.4516542509982
 21
-117.65758746051
 31
0.0
  0
LINE
  5
35C
102
{ACAD_REACTORS
330
411
330
411
102
}
330
52
100
AcDbEntity
  8
1
  6
Continuous
 62
     2
100
AcDbLine
 10
149.1516542509982
 20
-111.9699999999999
 30
0.0
 11
149.1516542509982
 21
-117.65758746051
 31
0.0
  0
LINE
  5
35D
102
{ACAD_REACTORS
330
418
330
418
102
}
330
52
100
AcDbEntity
  8
1
  6
Continuous
 62
     2
100
AcDbLine
 10
142.5516542509982
 20
-117.65758746051
 30
0.0
 11
142.5516542509982
 21
-115.9199999999999
 31
0.0
  0
LINE
  5
35E
102
{ACAD_REACTORS
330
418
330
418
102
}
330
52
100
AcDbEntity
  8
1
  6
Continuous
 62
     2
100
AcDbLine
 10
141.2516542509982
 20
-117.65758746051
 30
0.0
 11
141.2516542509982
 21
-111.9699999999999
 31
0.0
  0
LINE
  5
35F
102
{ACAD_REACTORS
330
418
330
418
102
}
330
52
100
AcDbEntity
  8
1
  6
Continuous
 62
     2
100
AcDbLine
 10
142.5516542509982
 20
-111.9699999999999
 30
0.0
 11
142.5516542509982
 21
-113.3199999999999
 31
0.0
  0
LINE
  5
360
102
{ACAD_REACTORS
330
418
330
418
102
}
330
52
100
AcDbEntity
  8
1
  6
Continuous
 62
     2
100
AcDbLine
 10
142.5516542509982
 20
-113.3199999999999
 30
0.0
 11
143.7516542509982
 21
-113.3199999999999
 31
0.0
  0
LINE
  5
361
102
{ACAD_REACTORS
330
416
330
416
102
}
330
52
100
AcDbEntity
  8
1
  6
Continuous
 62
     2
100
AcDbLine
 10
153.6516542509982
 20
-111.3199999999999
 30
0.0
 11
154.3016542509982
 21
-111.3199999999999
 31
0.0
  0
LINE
  5
362
102
{ACAD_REACTORS
330
416
330
416
102
}
330
52
100
AcDbEntity
  8
1
  6
Continuous
 62
     2
100
AcDbLine
 10
153.6516542509982
 20
-111.3199999999999
 30
0.0
 11
153.6516542509982
 21
-114.2199999999999
 31
0.0
  0
LINE
  5
363
102
{ACAD_REACTORS
330
416
330
416
102
}
330
52
100
AcDbEntity
  8
1
  6
Continuous
 62
     2
100
AcDbLine
 10
153.6516542509982
 20
-114.2199999999999
 30
0.0
 11
154.3016542509982
 21
-114.2199999999999
 31
0.0
  0
LINE
  5
364
102
{ACAD_REACTORS
330
416
330
416
102
}
330
52
100
AcDbEntity
  8
1
  6
Continuous
 62
     2
100
AcDbLine
 10
154.3016542509982
 20
-115.4199999999999
 30
0.0
 11
153.6516542509982
 21
-115.4199999999999
 31
0.0
  0
LINE
  5
365
102
{ACAD_REACTORS
330
416
330
416
102
}
330
52
100
AcDbEntity
  8
1
  6
Continuous
 62
     2
100
AcDbLine
 10
153.6516542509982
 20
-115.4199999999999
 30
0.0
 11
153.6516542509982
 21
-119.4199999999999
 31
0.0
  0
LINE
  5
366
330
52
100
AcDbEntity
  8
1
  6
Continuous
 62
     2
100
AcDbLine
 10
158.9016542509982
 20
-114.7199999999999
 30
0.0
 11
159.7415058473918
 21
-114.7199999999999
 31
0.0
  0
LINE
  5
367
102
{ACAD_REACTORS
330
417
330
417
102
}
330
52
100
AcDbEntity
  8
1
  6
Continuous
 62
     2
100
AcDbLine
 10
159.7415058473918
 20
-114.7199999999999
 30
0.0
 11
160.6516542509982
 21
-114.7199999999999
 31
0.0
  0
LINE
  5
368
102
{ACAD_REACTORS
330
414
330
414
102
}
330
52
100
AcDbEntity
  8
1
  6
Continuous
 62
     2
100
AcDbLine
 10
175.6516542509982
 20
-111.9699999999999
 30
0.0
 11
175.6516542509982
 21
-117.65758746051
 31
0.0
  0
LINE
  5
369
102
{ACAD_REACTORS
330
414
330
414
102
}
330
52
100
AcDbEntity
  8
1
  6
Continuous
 62
     2
100
AcDbLine
 10
174.3516542509982
 20
-117.65758746051
 30
0.0
 11
174.3516542509982
 21
-111.9699999999999
 31
0.0
  0
LINE
  5
36A
102
{ACAD_REACTORS
330
413
330
413
102
}
330
52
100
AcDbEntity
  8
1
  6
Continuous
 62
     2
100
AcDbLine
 10
178.8516542509982
 20
-111.3199999999999
 30
0.0
 11
179.5016542509982
 21
-111.3199999999999
 31
0.0
  0
LINE
  5
36B
102
{ACAD_REACTORS
330
413
330
413
102
}
330
52
100
AcDbEntity
  8
1
  6
Continuous
 62
     2
100
AcDbLine
 10
180.1516542509982
 20
-111.9699999999999
 30
0.0
 11
180.1516542509982
 21
-113.2699999999999
 31
0.0
  0
LINE
  5
36C
102
{ACAD_REACTORS
330
413
330
413
102
}
330
52
100
AcDbEntity
  8
1
  6
Continuous
 62
     2
100
AcDbLine
 10
179.5016542509982
 20
-113.9199999999999
 30
0.0
 11
178.8516542509982
 21
-113.9199999999999
 31
0.0
  0
LINE
  5
36D
102
{ACAD_REACTORS
330
413
330
413
102
}
330
52
100
AcDbEntity
  8
1
  6
Continuous
 62
     2
100
AcDbLine
 10
178.8516542509982
 20
-115.0199999999999
 30
0.0
 11
178.8516542509982
 21
-118.30758746051
 31
0.0
  0
LINE
  5
36E
102
{ACAD_REACTORS
330
413
330
413
102
}
330
52
100
AcDbEntity
  8
1
  6
Continuous
 62
     2
100
AcDbLine
 10
178.8516542509982
 20
-118.30758746051
 30
0.0
 11
179.5016542509982
 21
-118.30758746051
 31
0.0
  0
LINE
  5
36F
102
{ACAD_REACTORS
330
413
330
413
102
}
330
52
100
AcDbEntity
  8
1
  6
Continuous
 62
     2
100
AcDbLine
 10
180.1516542509982
 20
-117.65758746051
 30
0.0
 11
180.1516542509982
 21
-115.6699999999999
 31
0.0
  0
LINE
  5
370
102
{ACAD_REACTORS
330
413
330
413
102
}
330
52
100
AcDbEntity
  8
1
  6
Continuous
 62
     2
100
AcDbLine
 10
178.8516542509982
 20
-111.3199999999999
 30
0.0
 11
178.8516542509982
 21
-113.9199999999999
 31
0.0
  0
LINE
  5
371
102
{ACAD_REACTORS
330
413
330
413
102
}
330
52
100
AcDbEntity
  8
1
  6
Continuous
 62
     2
100
AcDbLine
 10
178.8516542509982
 20
-115.0199999999999
 30
0.0
 11
179.5016542509982
 21
-115.0199999999999
 31
0.0
  0
LINE
  5
372
102
{ACAD_REACTORS
330
412
330
412
102
}
330
52
100
AcDbEntity
  8
1
  6
Continuous
 62
     2
100
AcDbLine
 10
184.6516542509982
 20
-111.9699999999999
 30
0.0
 11
184.6516542509982
 21
-117.65758746051
 31
0.0
  0
LINE
  5
373
102
{ACAD_REACTORS
330
412
330
412
102
}
330
52
100
AcDbEntity
  8
1
  6
Continuous
 62
     2
100
AcDbLine
 10
183.3516542509982
 20
-117.65758746051
 30
0.0
 11
183.3516542509982
 21
-111.9699999999999
 31
0.0
  0
LINE
  5
374
102
{ACAD_REACTORS
330
415
330
415
102
}
330
52
100
AcDbEntity
  8
1
  6
Continuous
 62
     2
100
AcDbLine
 10
192.5516542509982
 20
-111.9699999999999
 30
0.0
 11
192.5516542509982
 21
-117.65758746051
 31
0.0
  0
LINE
  5
375
102
{ACAD_REACTORS
330
415
330
415
102
}
330
52
100
AcDbEntity
  8
1
  6
Continuous
 62
     2
100
AcDbLine
 10
191.9016542509982
 20
-118.30758746051
 30
0.0
 11
191.2516542509982
 21
-118.30758746051
 31
0.0
  0
LINE
  5
376
102
{ACAD_REACTORS
330
415
330
415
102
}
330
52
100
AcDbEntity
  8
1
  6
Continuous
 62
     2
100
AcDbLine
 10
191.2516542509982
 20
-118.30758746051
 30
0.0
 11
191.2516542509982
 21
-111.9699999999999
 31
0.0
  0
LINE
  5
377
102
{ACAD_REACTORS
330
40F
330
40F
102
}
330
52
100
AcDbEntity
  8
1
  6
Continuous
 62
     2
100
AcDbLine
 10
187.8516542509982
 20
-110.2199999999999
 30
0.0
 11
187.8516542509982
 21
-118.30758746051
 31
0.0
  0
LINE
  5
378
102
{ACAD_REACTORS
330
40F
330
40F
102
}
330
52
100
AcDbEntity
  8
1
  6
Continuous
 62
     2
100
AcDbLine
 10
187.8516542509982
 20
-118.30758746051
 30
0.0
 11
189.2516542509982
 21
-118.30758746051
 31
0.0
  0
LINE
  5
379
102
{ACAD_REACTORS
330
415
330
415
102
}
330
52
100
AcDbEntity
  8
1
  6
Continuous
 62
     2
100
AcDbLine
 10
191.2516542509982
 20
-111.3199999999999
 30
0.0
 11
191.9016542509982
 21
-111.3199999999999
 31
0.0
  0
LINE
  5
37A
102
{ACAD_REACTORS
330
415
330
415
102
}
330
52
100
AcDbEntity
  8
1
  6
Continuous
 62
     2
100
AcDbLine
 10
191.2516542509982
 20
-111.3199999999999
 30
0.0
 11
191.2516542509982
 21
-111.9699999999999
 31
0.0
  0
LINE
  5
37B
102
{ACAD_REACTORS
330
413
330
413
102
}
330
52
100
AcDbEntity
  8
1
  6
Continuous
 62
     2
100
AcDbLine
 10
181.3516542509982
 20
-113.8199999999999
 30
0.0
 11
181.3516542509982
 21
-111.2199999999999
 31
0.0
  0
LINE
  5
37C
102
{ACAD_REACTORS
330
413
330
413
102
}
330
52
100
AcDbEntity
  8
1
  6
Continuous
 62
     2
100
AcDbLine
 10
181.3516542509982
 20
-115.1199999999999
 30
0.0
 11
181.3516542509982
 21
-118.4199999999999
 31
0.0
  0
LINE
  5
37D
102
{ACAD_REACTORS
330
410
330
410
102
}
330
52
100
AcDbEntity
  8
1
  6
Continuous
 62
     2
100
AcDbLine
 10
172.3516542509982
 20
-110.2199999999999
 30
0.0
 11
170.9200628688759
 21
-114.4699999999999
 31
0.0
  0
LINE
  5
37E
102
{ACAD_REACTORS
330
410
330
410
102
}
330
52
100
AcDbEntity
  8
1
  6
Continuous
 62
     2
100
AcDbLine
 10
170.9200628688759
 20
-114.4699999999999
 30
0.0
 11
172.3516542509982
 21
-119.4199999999999
 31
0.0
  0
LINE
  5
37F
102
{ACAD_REACTORS
330
410
330
410
102
}
330
52
100
AcDbEntity
  8
1
  6
Continuous
 62
     2
100
AcDbLine
 10
171.0854042804337
 20
-110.2199999999999
 30
0.0
 11
172.3516542509982
 21
-110.2199999999999
 31
0.0
  0
LINE
  5
380
102
{ACAD_REACTORS
330
410
330
410
102
}
330
52
100
AcDbEntity
  8
1
  6
Continuous
 62
     2
100
AcDbLine
 10
171.1024763583806
 20
-119.4199999999999
 30
0.0
 11
172.3516542509982
 21
-119.4199999999999
 31
0.0
  0
LINE
  5
381
102
{ACAD_REACTORS
330
410
330
410
102
}
330
52
100
AcDbEntity
  8
1
  6
Continuous
 62
     2
100
AcDbLine
 10
171.0854042804337
 20
-110.2199999999999
 30
0.0
 11
169.8516542509982
 21
-113.8826635858394
 31
0.0
  0
LINE
  5
382
102
{ACAD_REACTORS
330
410
330
410
102
}
330
52
100
AcDbEntity
  8
1
  6
Continuous
 62
     2
100
AcDbLine
 10
169.8516542509982
 20
-115.0950442138285
 30
0.0
 11
171.1024763583806
 21
-119.4199999999999
 31
0.0
  0
LINE
  5
383
102
{ACAD_REACTORS
330
410
330
410
102
}
330
52
100
AcDbEntity
  8
1
  6
Continuous
 62
     2
100
AcDbLine
 10
169.8516542509982
 20
-110.2199999999999
 30
0.0
 11
169.8516542509982
 21
-113.8826635858394
 31
0.0
  0
LINE
  5
384
102
{ACAD_REACTORS
330
410
330
410
102
}
330
52
100
AcDbEntity
  8
1
  6
Continuous
 62
     2
100
AcDbLine
 10
169.8516542509982
 20
-115.0950442138285
 30
0.0
 11
169.8516542509982
 21
-119.4199999999999
 31
0.0
  0
LINE
  5
385
102
{ACAD_REACTORS
330
414
330
414
102
}
330
52
100
AcDbEntity
  8
1
  6
Continuous
 62
     2
100
AcDbLine
 10
173.1516542509982
 20
-118.4199999999999
 30
0.0
 11
173.1516542509982
 21
-111.2199999999999
 31
0.0
  0
LINE
  5
386
330
52
100
AcDbEntity
  8
1
  6
Continuous
 62
     2
100
AcDbLine
 10
55.13999999999851
 20
-108.6599999999999
 30
0.0
 11
55.13999999999851
 21
-125.5799999999999
 31
0.0
  0
LINE
  5
387
330
52
100
AcDbEntity
  8
1
  6
Continuous
 62
     7
100
AcDbLine
 10
102.1300000000001
 20
-87.51000000000022
 30
0.0
 11
102.1300000000001
 21
-108.6599999999999
 31
0.0
  0
LINE
  5
388
330
52
100
AcDbEntity
  8
1
  6
Continuous
 62
     2
100
AcDbLine
 10
67.83999999999912
 20
-87.51000000000022
 30
0.0
 11
67.83999999999912
 21
-108.6599999999999
 31
0.0
  0
LINE
  5
389
330
52
100
AcDbEntity
  8
1
  6
Continuous
 62
     2
100
AcDbLine
 10
60.21999999999832
 20
-87.51000000000022
 30
0.0
 11
60.21999999999832
 21
-108.6599999999999
 31
0.0
  0
LINE
  5
38A
330
52
100
AcDbEntity
  8
1
  6
Continuous
 62
     7
100
AcDbLine
 10
22.11999999999898
 20
-108.6599999999999
 30
0.0
 11
205.0
 21
-108.6599999999999
 31
0.0
  0
LINE
  5
38B
330
52
100
AcDbEntity
  8
1
  6
Continuous
 62
     2
100
AcDbLine
 10
42.43999999999869
 20
-87.51000000000022
 30
0.0
 11
42.43999999999869
 21
-108.6599999999999
 31
0.0
  0
LINE
  5
38C
330
52
100
AcDbEntity
  8
1
  6
Continuous
 62
     2
100
AcDbLine
 10
27.19999999999891
 20
-87.51000000000022
 30
0.0
 11
27.19999999999891
 21
-108.6599999999999
 31
0.0
  0
LINE
  5
38D
330
52
100
AcDbEntity
  8
1
  6
Continuous
 62
     2
100
AcDbLine
 10
75.45999999999992
 20
-117.1200000000008
 30
0.0
 11
22.11999999999898
 21
-117.1200000000008
 31
0.0
  0
LINE
  5
38E
330
52
100
AcDbEntity
  8
1
  6
Continuous
 62
     7
100
AcDbLine
 10
75.45999999999992
 20
-108.6599999999999
 30
0.0
 11
75.45999999999992
 21
-125.5799999999999
 31
0.0
  0
LINE
  5
38F
330
52
100
AcDbEntity
  8
1
  6
Continuous
 62
     7
100
AcDbLine
 10
75.45999999999992
 20
-87.51000000000022
 30
0.0
 11
75.45999999999992
 21
-108.6599999999999
 31
0.0
  0
LINE
  5
390
330
52
100
AcDbEntity
  8
1
  6
Continuous
 62
     7
100
AcDbLine
 10
22.11999999999898
 20
-87.51000000000022
 30
0.0
 11
205.0
 21
-87.51000000000022
 31
0.0
  0
LINE
  5
391
330
52
100
AcDbEntity
  8
1
  6
Continuous
 62
     2
100
AcDbLine
 10
22.11999999999898
 20
-121.3500000000004
 30
0.0
 11
75.45999999999992
 21
-121.3500000000004
 31
0.0
  0
LINE
  5
392
330
52
100
AcDbEntity
  8
1
  6
Continuous
 62
     2
100
AcDbLine
 10
22.11999999999898
 20
-112.8899999999994
 30
0.0
 11
75.45999999999992
 21
-112.8899999999994
 31
0.0
  0
LINE
  5
393
330
52
100
AcDbEntity
  8
1
  6
Continuous
 62
     2
100
AcDbLine
 10
37.35999999999888
 20
-108.6599999999999
 30
0.0
 11
37.35999999999888
 21
-125.5799999999999
 31
0.0
  0
LINE
  5
394
330
52
100
AcDbEntity
  8
1
  6
Continuous
 62
     2
100
AcDbLine
 10
22.11999999999898
 20
-104.4300000000003
 30
0.0
 11
75.45999999999992
 21
-104.4300000000003
 31
0.0
  0
LINE
  5
395
330
52
100
AcDbEntity
  8
1
  6
Continuous
 62
     2
100
AcDbLine
 10
22.11999999999898
 20
-95.97000000000116
 30
0.0
 11
75.45999999999992
 21
-95.97000000000116
 31
0.0
  0
LINE
  5
396
330
52
100
AcDbEntity
  8
1
  6
Continuous
 62
     2
100
AcDbLine
 10
22.11999999999898
 20
-91.73999999999978
 30
0.0
 11
75.45999999999992
 21
-91.73999999999978
 31
0.0
  0
LINE
  5
397
330
52
100
AcDbEntity
  8
1
  6
Continuous
 62
     7
100
AcDbLine
 10
192.3000000000002
 20
-125.5799999999999
 30
0.0
 11
192.3000000000002
 21
-138.2700000000004
 31
0.0
  0
LINE
  5
398
330
52
100
AcDbEntity
  8
1
  6
Continuous
 62
     7
100
AcDbLine
 10
192.3000000000002
 20
-134.0400000000009
 30
0.0
 11
205.0
 21
-134.0400000000009
 31
0.0
  0
LINE
  5
399
330
52
100
AcDbEntity
  8
1
  6
Continuous
 62
     7
100
AcDbLine
 10
128.8000000000002
 20
-138.2700000000004
 30
0.0
 11
205.0
 21
-138.2700000000004
 31
0.0
  0
LINE
  5
39A
330
52
100
AcDbEntity
  8
1
  6
Continuous
 62
     7
100
AcDbLine
 10
166.8999999999996
 20
-87.51000000000022
 30
0.0
 11
166.8999999999996
 21
-91.73999999999978
 31
0.0
  0
LINE
  5
39B
330
52
100
AcDbEntity
  8
1
  6
Continuous
 62
     7
100
AcDbLine
 10
128.8000000000002
 20
-91.73999999999978
 30
0.0
 11
205.0
 21
-91.73999999999978
 31
0.0
  0
LINE
  5
39C
330
52
100
AcDbEntity
  8
1
  6
Continuous
 62
     7
100
AcDbLine
 10
128.8000000000002
 20
-87.51000000000022
 30
0.0
 11
128.8000000000002
 21
-142.5
 31
0.0
  0
LINE
  5
39D
330
52
100
AcDbEntity
  8
1
  6
Continuous
 62
     7
100
AcDbLine
 10
37.35999999999888
 20
-125.5799999999999
 30
0.0
 11
37.35999999999888
 21
-142.5
 31
0.0
  0
LINE
  5
39E
330
52
100
AcDbEntity
  8
1
  6
Continuous
 62
     7
100
AcDbLine
 10
205.0
 20
-125.5799999999999
 30
0.0
 11
22.11999999999898
 21
-125.5799999999999
 31
0.0
  0
LINE
  5
39F
330
52
100
AcDbEntity
  8
1
  6
Continuous
 62
     2
100
AcDbLine
 10
75.45999999999992
 20
-100.2000000000007
 30
0.0
 11
22.11999999999898
 21
-100.2000000000007
 31
0.0
  0
LINE
  5
3A0
330
52
100
AcDbEntity
  8
1
  6
Continuous
 62
     7
100
AcDbLine
 10
22.11999999999898
 20
-142.5
 30
0.0
 11
22.11999999999898
 21
-87.51000000000022
 31
0.0
  0
LINE
  5
3A1
330
52
100
AcDbEntity
  8
1
  6
Continuous
 62
     7
100
AcDbLine
 10
-187.880000000001
 20
-142.5
 30
0.0
 11
205.0
 21
-142.5
 31
0.0
  0
LINE
  5
3A2
330
52
100
AcDbEntity
  8
1
  6
Continuous
 62
     7
100
AcDbLine
 10
205.0
 20
-142.5
 30
0.0
 11
205.0
 21
142.0
 31
0.0
  0
LINE
  5
3A3
330
52
100
AcDbEntity
  8
1
  6
Continuous
 62
     7
100
AcDbLine
 10
205.0
 20
142.0
 30
0.0
 11
-187.880000000001
 21
142.0
 31
0.0
  0
LINE
  5
3A4
330
52
100
AcDbEntity
  8
1
  6
Continuous
 62
     7
100
AcDbLine
 10
-187.880000000001
 20
142.0
 30
0.0
 11
-187.880000000001
 21
-142.5
 31
0.0
  0
LINE
  5
3A5
330
52
100
AcDbEntity
  8
0
  6
Continuous
 62
     2
100
AcDbLine
 10
-198.880000000001
 20
0.00000000000001
 30
0.0
 11
-187.880000000001
 21
0.00000000000001
 31
0.0
  0
ARC
  5
3A6
102
{ACAD_REACTORS
330
418
330
418
102
}
330
52
100
AcDbEntity
  8
1
  6
Continuous
 62
     2
100
AcDbCircle
 10
141.9264261003899
 20
-118.3227040643326
 30
0.0
 40
1.097575516743276
100
AcDbArc
 50
-91.2932531058712
 51
-26.94184191294435
  0
ARC
  5
3A7
102
{ACAD_REACTORS
330
416
330
416
102
}
330
52
100
AcDbEntity
  8
1
  6
Continuous
 62
     2
100
AcDbCircle
 10
155.3000342667233
 20
-113.9710002560295
 30
0.0
 40
0.8522732028340286
100
AcDbArc
 50
-84.9766809757147
 51
-2.24339224114474
  0
ARC
  5
3A8
102
{ACAD_REACTORS
330
416
330
416
102
}
330
52
100
AcDbEntity
  8
1
  6
Continuous
 62
     2
100
AcDbCircle
 10
155.3161055621215
 20
-115.6535223168009
 30
0.0
 40
0.8355765145285912
100
AcDbArc
 50
-0.46759342609272
 51
85.98158622994607
  0
ARC
  5
3A9
102
{ACAD_REACTORS
330
417
330
417
102
}
330
52
100
AcDbEntity
  8
1
  6
Continuous
 62
     2
100
AcDbCircle
 10
158.8327793484388
 20
-118.3331447179281
 30
0.0
 40
1.086965191302833
100
AcDbArc
 50
-90.8147991292736
 51
-26.60924039545096
  0
ARC
  5
3AA
102
{ACAD_REACTORS
330
413
330
413
102
}
330
52
100
AcDbEntity
  8
1
  6
Continuous
 62
     2
100
AcDbCircle
 10
180.7016542509982
 20
-113.8199999999999
 30
0.0
 40
0.6500000000000057
100
AcDbArc
 50
-90.0
 51
0.0
  0
ARC
  5
3AB
102
{ACAD_REACTORS
330
413
330
413
102
}
330
52
100
AcDbEntity
  8
1
  6
Continuous
 62
     2
100
AcDbCircle
 10
180.7016542509982
 20
-115.1199999999999
 30
0.0
 40
0.6500000000000057
100
AcDbArc
 50
0.0
 51
90.0
  0
ARC
  5
3AC
102
{ACAD_REACTORS
330
418
330
418
102
}
330
52
100
AcDbEntity
  8
1
  6
Continuous
 62
     2
100
AcDbCircle
 10
142.7516542509982
 20
-111.2199999999999
 30
0.0
 40
1.0
100
AcDbArc
 50
0.0
 51
90.0
  0
ARC
  5
3AD
102
{ACAD_REACTORS
330
418
330
418
102
}
330
52
100
AcDbEntity
  8
1
  6
Continuous
 62
     2
100
AcDbCircle
 10
141.0516542509982
 20
-118.4199999999999
 30
0.0
 40
1.0
100
AcDbArc
 50
180.0
 51
-90.0
  0
ARC
  5
3AE
102
{ACAD_REACTORS
330
411
330
411
102
}
330
52
100
AcDbEntity
  8
1
  6
Continuous
 62
     2
100
AcDbCircle
 10
148.9516542509982
 20
-111.2199999999999
 30
0.0
 40
1.0
100
AcDbArc
 50
90.0
 51
180.0
  0
ARC
  5
3AF
102
{ACAD_REACTORS
330
411
330
411
102
}
330
52
100
AcDbEntity
  8
1
  6
Continuous
 62
     2
100
AcDbCircle
 10
150.6516542509982
 20
-111.2199999999999
 30
0.0
 40
1.0
100
AcDbArc
 50
0.0
 51
90.0
  0
ARC
  5
3B0
102
{ACAD_REACTORS
330
411
330
411
102
}
330
52
100
AcDbEntity
  8
1
  6
Continuous
 62
     2
100
AcDbCircle
 10
148.9516542509982
 20
-118.4199999999999
 30
0.0
 40
1.0
100
AcDbArc
 50
180.0
 51
-90.0
  0
ARC
  5
3B1
102
{ACAD_REACTORS
330
411
330
411
102
}
330
52
100
AcDbEntity
  8
1
  6
Continuous
 62
     2
100
AcDbCircle
 10
150.6516542509982
 20
-118.4199999999999
 30
0.0
 40
1.0
100
AcDbArc
 50
-90.0
 51
0.0
  0
ARC
  5
3B2
102
{ACAD_REACTORS
330
416
330
416
102
}
330
52
100
AcDbEntity
  8
1
  6
Continuous
 62
     2
100
AcDbCircle
 10
155.1516542509982
 20
-111.2199999999999
 30
0.0
 40
1.0
100
AcDbArc
 50
0.0
 51
90.0
  0
ARC
  5
3B3
102
{ACAD_REACTORS
330
417
330
417
102
}
330
52
100
AcDbEntity
  8
1
  6
Continuous
 62
     2
100
AcDbCircle
 10
157.9516542509982
 20
-111.2199999999999
 30
0.0
 40
1.0
100
AcDbArc
 50
90.0
 51
180.0
  0
ARC
  5
3B4
102
{ACAD_REACTORS
330
417
330
417
102
}
330
52
100
AcDbEntity
  8
1
  6
Continuous
 62
     2
100
AcDbCircle
 10
159.6516542509982
 20
-111.2199999999999
 30
0.0
 40
1.000000000000085
100
AcDbArc
 50
0.0
 51
90.0
  0
ARC
  5
3B5
102
{ACAD_REACTORS
330
414
330
414
102
}
330
52
100
AcDbEntity
  8
1
  6
Continuous
 62
     2
100
AcDbCircle
 10
174.1516542509982
 20
-111.2199999999999
 30
0.0
 40
1.0
100
AcDbArc
 50
90.0
 51
180.0
  0
ARC
  5
3B6
102
{ACAD_REACTORS
330
414
330
414
102
}
330
52
100
AcDbEntity
  8
1
  6
Continuous
 62
     2
100
AcDbCircle
 10
175.8516542509982
 20
-111.2199999999999
 30
0.0
 40
1.0
100
AcDbArc
 50
0.0
 51
90.0
  0
ARC
  5
3B7
102
{ACAD_REACTORS
330
413
330
413
102
}
330
52
100
AcDbEntity
  8
1
  6
Continuous
 62
     2
100
AcDbCircle
 10
180.3516542509982
 20
-111.2199999999999
 30
0.0
 40
1.0
100
AcDbArc
 50
0.0
 51
90.0
  0
ARC
  5
3B8
102
{ACAD_REACTORS
330
412
330
412
102
}
330
52
100
AcDbEntity
  8
1
  6
Continuous
 62
     2
100
AcDbCircle
 10
184.8516542509982
 20
-111.2199999999999
 30
0.0
 40
1.0
100
AcDbArc
 50
0.0
 51
90.0
  0
ARC
  5
3B9
102
{ACAD_REACTORS
330
412
330
412
102
}
330
52
100
AcDbEntity
  8
1
  6
Continuous
 62
     2
100
AcDbCircle
 10
183.1516542509982
 20
-111.2199999999999
 30
0.0
 40
1.0
100
AcDbArc
 50
90.0
 51
180.0
  0
ARC
  5
3BA
102
{ACAD_REACTORS
330
415
330
415
102
}
330
52
100
AcDbEntity
  8
1
  6
Continuous
 62
     2
100
AcDbCircle
 10
192.7516542509982
 20
-111.2199999999999
 30
0.0
 40
1.0
100
AcDbArc
 50
0.0
 51
90.0
  0
ARC
  5
3BB
102
{ACAD_REACTORS
330
412
330
412
102
}
330
52
100
AcDbEntity
  8
1
  6
Continuous
 62
     2
100
AcDbCircle
 10
184.8516542509982
 20
-118.4199999999999
 30
0.0
 40
1.0
100
AcDbArc
 50
-90.0
 51
0.0
  0
ARC
  5
3BC
102
{ACAD_REACTORS
330
412
330
412
102
}
330
52
100
AcDbEntity
  8
1
  6
Continuous
 62
     2
100
AcDbCircle
 10
183.1516542509982
 20
-118.4199999999999
 30
0.0
 40
1.0
100
AcDbArc
 50
180.0
 51
-90.0
  0
ARC
  5
3BD
102
{ACAD_REACTORS
330
413
330
413
102
}
330
52
100
AcDbEntity
  8
1
  6
Continuous
 62
     2
100
AcDbCircle
 10
180.3516542509982
 20
-118.4199999999999
 30
0.0
 40
1.0
100
AcDbArc
 50
-90.0
 51
0.0
  0
ARC
  5
3BE
102
{ACAD_REACTORS
330
414
330
414
102
}
330
52
100
AcDbEntity
  8
1
  6
Continuous
 62
     2
100
AcDbCircle
 10
175.8516542509982
 20
-118.4199999999999
 30
0.0
 40
1.0
100
AcDbArc
 50
-90.0
 51
0.0
  0
ARC
  5
3BF
102
{ACAD_REACTORS
330
414
330
414
102
}
330
52
100
AcDbEntity
  8
1
  6
Continuous
 62
     2
100
AcDbCircle
 10
174.1516542509982
 20
-118.4199999999999
 30
0.0
 40
1.0
100
AcDbArc
 50
180.0
 51
-90.0
  0
ARC
  5
3C0
102
{ACAD_REACTORS
330
415
330
415
102
}
330
52
100
AcDbEntity
  8
1
  6
Continuous
 62
     2
100
AcDbCircle
 10
192.7516542509982
 20
-118.4199999999999
 30
0.0
 40
1.0
100
AcDbArc
 50
-90.0
 51
0.0
  0
ARC
  5
3C1
102
{ACAD_REACTORS
330
417
330
417
102
}
330
52
100
AcDbEntity
  8
1
  6
Continuous
 62
     2
100
AcDbCircle
 10
157.9516542509982
 20
-118.4199999999999
 30
0.0
 40
1.0
100
AcDbArc
 50
180.0
 51
-90.0
  0
ARC
  5
3C2
102
{ACAD_REACTORS
330
418
330
418
102
}
330
52
100
AcDbEntity
  8
1
  6
Continuous
 62
     2
100
AcDbCircle
 10
141.0516542509982
 20
-111.2199999999999
 30
0.0
 40
1.0
100
AcDbArc
 50
90.0
 51
180.0
  0
ARC
  5
3C3
102
{ACAD_REACTORS
330
411
330
411
102
}
330
52
100
AcDbEntity
  8
1
  6
Continuous
 62
     2
100
AcDbCircle
 10
149.8016542509982
 20
-111.9699999999999
 30
0.0
 40
0.6500000000000057
100
AcDbArc
 50
90.0
 51
180.0
  0
ARC
  5
3C4
102
{ACAD_REACTORS
330
411
330
411
102
}
330
52
100
AcDbEntity
  8
1
  6
Continuous
 62
     2
100
AcDbCircle
 10
149.8016542509982
 20
-111.9699999999999
 30
0.0
 40
0.6499999999999773
100
AcDbArc
 50
0.0
 51
90.0
  0
ARC
  5
3C5
102
{ACAD_REACTORS
330
411
330
411
102
}
330
52
100
AcDbEntity
  8
1
  6
Continuous
 62
     2
100
AcDbCircle
 10
149.8016542509982
 20
-117.65758746051
 30
0.0
 40
0.6500000000000057
100
AcDbArc
 50
180.0
 51
-90.0
  0
ARC
  5
3C6
102
{ACAD_REACTORS
330
411
330
411
102
}
330
52
100
AcDbEntity
  8
1
  6
Continuous
 62
     2
100
AcDbCircle
 10
149.8016542509982
 20
-117.65758746051
 30
0.0
 40
0.6500000000000057
100
AcDbArc
 50
-90.0
 51
0.0
  0
ARC
  5
3C7
102
{ACAD_REACTORS
330
416
330
416
102
}
330
52
100
AcDbEntity
  8
1
  6
Continuous
 62
     2
100
AcDbCircle
 10
154.3016542509982
 20
-111.9699999999999
 30
0.0
 40
0.6499999999999773
100
AcDbArc
 50
0.0
 51
90.0
  0
ARC
  5
3C8
102
{ACAD_REACTORS
330
416
330
416
102
}
330
52
100
AcDbEntity
  8
1
  6
Continuous
 62
     2
100
AcDbCircle
 10
154.3016542509982
 20
-116.0699999999999
 30
0.0
 40
0.6499999999999773
100
AcDbArc
 50
0.0
 51
90.0
  0
ARC
  5
3C9
102
{ACAD_REACTORS
330
416
330
416
102
}
330
52
100
AcDbEntity
  8
1
  6
Continuous
 62
     2
100
AcDbCircle
 10
154.3016542509982
 20
-113.5699999999999
 30
0.0
 40
0.6500000000000057
100
AcDbArc
 50
-90.0
 51
0.0
  0
ARC
  5
3CA
102
{ACAD_REACTORS
330
417
330
417
102
}
330
52
100
AcDbEntity
  8
1
  6
Continuous
 62
     2
100
AcDbCircle
 10
158.8016542509982
 20
-111.9699999999999
 30
0.0
 40
0.6500000000000057
100
AcDbArc
 50
90.0
 51
180.0
  0
ARC
  5
3CB
102
{ACAD_REACTORS
330
417
330
417
102
}
330
52
100
AcDbEntity
  8
1
  6
Continuous
 62
     2
100
AcDbCircle
 10
158.8016542509982
 20
-111.9699999999999
 30
0.0
 40
0.6499999999999773
100
AcDbArc
 50
0.0
 51
90.0
  0
ARC
  5
3CC
102
{ACAD_REACTORS
330
417
330
417
102
}
330
52
100
AcDbEntity
  8
1
  6
Continuous
 62
     2
100
AcDbCircle
 10
158.8016542509982
 20
-117.65758746051
 30
0.0
 40
0.6500000000000057
100
AcDbArc
 50
180.0
 51
-90.0
  0
ARC
  5
3CD
102
{ACAD_REACTORS
330
417
330
417
102
}
330
52
100
AcDbEntity
  8
1
  6
Continuous
 62
     2
100
AcDbCircle
 10
158.8016542509982
 20
-117.65758746051
 30
0.0
 40
0.6500000000000057
100
AcDbArc
 50
-90.0
 51
0.0
  0
ARC
  5
3CE
102
{ACAD_REACTORS
330
418
330
418
102
}
330
52
100
AcDbEntity
  8
1
  6
Continuous
 62
     2
100
AcDbCircle
 10
141.9016542509982
 20
-111.9699999999999
 30
0.0
 40
0.6500000000000057
100
AcDbArc
 50
90.0
 51
180.0
  0
ARC
  5
3CF
102
{ACAD_REACTORS
330
418
330
418
102
}
330
52
100
AcDbEntity
  8
1
  6
Continuous
 62
     2
100
AcDbCircle
 10
141.9016542509982
 20
-111.9699999999999
 30
0.0
 40
0.6500000000000057
100
AcDbArc
 50
0.0
 51
90.0
  0
ARC
  5
3D0
102
{ACAD_REACTORS
330
418
330
418
102
}
330
52
100
AcDbEntity
  8
1
  6
Continuous
 62
     2
100
AcDbCircle
 10
141.9016542509982
 20
-117.65758746051
 30
0.0
 40
0.6500000000000057
100
AcDbArc
 50
180.0
 51
-90.0
  0
ARC
  5
3D1
102
{ACAD_REACTORS
330
418
330
418
102
}
330
52
100
AcDbEntity
  8
1
  6
Continuous
 62
     2
100
AcDbCircle
 10
141.9016542509982
 20
-117.65758746051
 30
0.0
 40
0.6500000000000057
100
AcDbArc
 50
-90.0
 51
0.0
  0
ARC
  5
3D2
102
{ACAD_REACTORS
330
415
330
415
102
}
330
52
100
AcDbEntity
  8
1
  6
Continuous
 62
     2
100
AcDbCircle
 10
191.9016542509982
 20
-111.9699999999999
 30
0.0
 40
0.6500000000000057
100
AcDbArc
 50
0.0
 51
90.0
  0
ARC
  5
3D3
102
{ACAD_REACTORS
330
415
330
415
102
}
330
52
100
AcDbEntity
  8
1
  6
Continuous
 62
     2
100
AcDbCircle
 10
191.9016542509982
 20
-117.65758746051
 30
0.0
 40
0.6500000000000057
100
AcDbArc
 50
-90.0
 51
0.0
  0
ARC
  5
3D4
102
{ACAD_REACTORS
330
412
330
412
102
}
330
52
100
AcDbEntity
  8
1
  6
Continuous
 62
     2
100
AcDbCircle
 10
184.0016542509982
 20
-111.9699999999999
 30
0.0
 40
0.6500000000000057
100
AcDbArc
 50
0.0
 51
90.0
  0
ARC
  5
3D5
102
{ACAD_REACTORS
330
412
330
412
102
}
330
52
100
AcDbEntity
  8
1
  6
Continuous
 62
     2
100
AcDbCircle
 10
184.0016542509982
 20
-111.9699999999999
 30
0.0
 40
0.6500000000000057
100
AcDbArc
 50
90.0
 51
180.0
  0
ARC
  5
3D6
102
{ACAD_REACTORS
330
412
330
412
102
}
330
52
100
AcDbEntity
  8
1
  6
Continuous
 62
     2
100
AcDbCircle
 10
184.0016542509982
 20
-117.65758746051
 30
0.0
 40
0.6500000000000057
100
AcDbArc
 50
180.0
 51
-90.0
  0
ARC
  5
3D7
102
{ACAD_REACTORS
330
412
330
412
102
}
330
52
100
AcDbEntity
  8
1
  6
Continuous
 62
     2
100
AcDbCircle
 10
184.0016542509982
 20
-117.65758746051
 30
0.0
 40
0.6500000000000057
100
AcDbArc
 50
-90.0
 51
0.0
  0
ARC
  5
3D8
102
{ACAD_REACTORS
330
414
330
414
102
}
330
52
100
AcDbEntity
  8
1
  6
Continuous
 62
     2
100
AcDbCircle
 10
175.0016542509982
 20
-111.9699999999999
 30
0.0
 40
0.6500000000000057
100
AcDbArc
 50
90.0
 51
180.0
  0
ARC
  5
3D9
102
{ACAD_REACTORS
330
414
330
414
102
}
330
52
100
AcDbEntity
  8
1
  6
Continuous
 62
     2
100
AcDbCircle
 10
175.0016542509982
 20
-111.9699999999999
 30
0.0
 40
0.6500000000000057
100
AcDbArc
 50
0.0
 51
90.0
  0
ARC
  5
3DA
102
{ACAD_REACTORS
330
414
330
414
102
}
330
52
100
AcDbEntity
  8
1
  6
Continuous
 62
     2
100
AcDbCircle
 10
175.0016542509982
 20
-117.65758746051
 30
0.0
 40
0.6500000000000057
100
AcDbArc
 50
180.0
 51
-90.0
  0
ARC
  5
3DB
102
{ACAD_REACTORS
330
414
330
414
102
}
330
52
100
AcDbEntity
  8
1
  6
Continuous
 62
     2
100
AcDbCircle
 10
175.0016542509982
 20
-117.65758746051
 30
0.0
 40
0.6500000000000057
100
AcDbArc
 50
-90.0
 51
0.0
  0
ARC
  5
3DC
102
{ACAD_REACTORS
330
413
330
413
102
}
330
52
100
AcDbEntity
  8
1
  6
Continuous
 62
     2
100
AcDbCircle
 10
179.5016542509982
 20
-111.9699999999999
 30
0.0
 40
0.6500000000000057
100
AcDbArc
 50
0.0
 51
90.0
  0
ARC
  5
3DD
102
{ACAD_REACTORS
330
413
330
413
102
}
330
52
100
AcDbEntity
  8
1
  6
Continuous
 62
     2
100
AcDbCircle
 10
179.5016542509982
 20
-113.2699999999999
 30
0.0
 40
0.6500000000000057
100
AcDbArc
 50
-90.0
 51
0.0
  0
ARC
  5
3DE
102
{ACAD_REACTORS
330
413
330
413
102
}
330
52
100
AcDbEntity
  8
1
  6
Continuous
 62
     2
100
AcDbCircle
 10
179.5016542509982
 20
-115.6699999999999
 30
0.0
 40
0.6500000000000057
100
AcDbArc
 50
0.0
 51
90.0
  0
ARC
  5
3DF
102
{ACAD_REACTORS
330
413
330
413
102
}
330
52
100
AcDbEntity
  8
1
  6
Continuous
 62
     2
100
AcDbCircle
 10
179.5016542509982
 20
-117.65758746051
 30
0.0
 40
0.6500000000000057
100
AcDbArc
 50
-90.0
 51
0.0
  0
MTEXT
  5
3E1
330
52
100
AcDbEntity
  8
1
 62
     2
100
AcDbMText
 10
166.6516542509982
 20
-123.0199999999999
 30
0.0
 40
2.8
 41
0.0
 71
     5
 72
     1
  1
GmbH & Co. KG
  7
CONVERTER_12
 73
     1
 44
1.32052821128451
  0
MTEXT
  5
3E3
330
52
100
AcDbEntity
  8
1
 62
     2
100
AcDbMText
 10
171.146150406868
 20
-140.3850000000002
 30
0.0
 40
1.8
 41
0.0
 71
     4
 72
     1
  1
 
  7
CONVERTER_13
 73
     1
 44
1.32052821128451
  0
MTEXT
  5
3E4
330
52
100
AcDbEntity
  8
1
 62
     2
100
AcDbMText
 10
138.090984385273
 20
-140.3850000000002
 30
0.0
 40
1.8
 41
0.0
 71
     4
 72
     1
  1
 
  7
CONVERTER_13
 73
     1
 44
1.32052821128451
  0
MTEXT
  5
3E5
330
52
100
AcDbEntity
  8
1
 62
     2
100
AcDbMText
 10
65.29999999999995
 20
-119.2350000000014
 30
0.0
 40
1.8
 41
0.0
 71
     5
 72
     1
  1
 
  7
CONVERTER_13
 73
     1
 44
1.32052821128451
  0
MTEXT
  5
3E6
330
52
100
AcDbEntity
  8
1
 62
     2
100
AcDbMText
 10
46.25
 20
-119.2350000000014
 30
0.0
 40
1.8
 41
0.0
 71
     5
 72
     1
  1
27.01.09
  7
CONVERTER_13
 73
     1
 44
1.32052821128451
  0
MTEXT
  5
3E7
330
52
100
AcDbEntity
  8
1
 62
     3
100
AcDbMText
 10
168.9000000000001
 20
-105.1999999999998
 30
0.0
 40
2.5
 41
0.0
 71
     5
 72
     1
  1
 
  7
CONVERTER_13
 73
     1
 44
1.32052821128451
  0
MTEXT
  5
3E8
330
52
100
AcDbEntity
  8
1
 62
     3
100
AcDbMText
 10
168.9000000000001
 20
-100.6999999999998
 30
0.0
 40
2.5
 41
0.0
 71
     5
 72
     1
  1
 
  7
CONVERTER_13
 73
     1
 44
1.32052821128451
  0
MTEXT
  5
3E9
330
52
100
AcDbEntity
  8
1
 62
     3
100
AcDbMText
 10
168.9000000000001
 20
-96.19999999999983
 30
0.0
 40
2.5
 41
0.0
 71
     5
 72
     1
  1
 
  7
CONVERTER_13
 73
     1
 44
1.32052821128451
  0
MTEXT
  5
3EB
330
52
100
AcDbEntity
  8
1
 62
     3
100
AcDbMText
 10
102.13
 20
-122.625
 30
0.0
 40
2.5
 41
0.0
 71
     5
 72
     1
  1
 
  7
CONVERTER_14
 73
     1
 44
1.32052821128451
  0
MTEXT
  5
3EC
330
52
100
AcDbEntity
  8
1
 62
     3
100
AcDbMText
 10
102.13
 20
-118.125
 30
0.0
 40
2.5
 41
0.0
 71
     5
 72
     1
  1
 
  7
CONVERTER_14
 73
     1
 44
1.32052821128451
  0
MTEXT
  5
3ED
330
52
100
AcDbEntity
  8
1
 62
     3
100
AcDbMText
 10
102.13
 20
-113.625
 30
0.0
 40
2.5
 41
0.0
 71
     5
 72
     1
  1
KSY 410... Q (/S23)
  7
CONVERTER_14
 73
     1
 44
1.32052821128451
  0
MTEXT
  5
3EF
330
52
100
AcDbEntity
  8
1
 62
     7
100
AcDbMText
 10
29.74000000000001
 20
-136.535
 30
0.0
 40
5.0
 41
0.0
 71
     5
 72
     1
  1
1:2
  7
CONVERTER_15
 73
     1
 44
1.32052821128451
  0
MTEXT
  5
3F0
330
52
100
AcDbEntity
  8
1
 62
     2
100
AcDbMText
 10
46.25
 20
-115.005
 30
0.0
 40
1.8
 41
0.0
 71
     5
 72
     1
  1
27.01.09
  7
CONVERTER_13
 73
     1
 44
1.32052821128451
  0
MTEXT
  5
3F1
330
52
100
AcDbEntity
  8
1
 62
     2
100
AcDbMText
 10
65.29999999999995
 20
-115.005
 30
0.0
 40
1.8
 41
0.0
 71
     5
 72
     1
  1
HI
  7
CONVERTER_13
 73
     1
 44
1.32052821128451
  0
MTEXT
  5
3F2
330
52
100
AcDbEntity
  8
1
 62
     7
100
AcDbMText
 10
83.60500000000002
 20
-136.33
 30
0.0
 40
5.0
 41
0.0
 71
     5
 72
     1
  1
Maßblatt
  7
CONVERTER_11
 73
     1
 44
1.32052821128451
  0
MTEXT
  5
3F3
330
52
100
AcDbEntity
  8
1
 62
     2
100
AcDbMText
 10
196.85
 20
-136.25
 30
0.0
 40
1.8
 41
0.0
 71
     5
 72
     1
  1
1
  7
CONVERTER_13
 73
     1
 44
1.32052821128451
  0
MTEXT
  5
3F4
330
52
100
AcDbEntity
  8
1
 62
     3
100
AcDbMText
 10
200.375
 20
-129.81
 30
0.0
 40
3.0
 41
0.0
 71
     5
 72
     1
  1
1
  7
CONVERTER_11
 73
     1
 44
1.32052821128451
  0
MTEXT
  5
3F5
330
52
100
AcDbEntity
  8
1
 62
     7
100
AcDbMText
 10
160.55
 20
-133.28
 30
0.0
 40
5.0
 41
0.0
 71
     5
 72
     1
  1
K3003
  7
CONVERTER_15
 73
     1
 44
1.32052821128451
  0
TEXT
  5
3F6
330
52
100
AcDbEntity
  8
1
 62
     2
100
AcDbText
 10
193.3000000000002
 20
-129.5799999999999
 30
0.0
 40
1.8
  1
Bl.
 41
0.9
  7
CONVERTER_13
100
AcDbText
  0
MTEXT
  5
3F7
330
52
100
AcDbEntity
  8
1
 62
     2
100
AcDbMText
 10
129.868213777145
 20
-140.3850000000002
 30
0.0
 40
1.8
 41
0.0
 71
     4
 72
     1
  1
Ers.
  7
CONVERTER_13
 73
     1
 44
1.32052821128451
  0
TEXT
  5
3F8
330
52
100
AcDbEntity
  8
1
 62
     2
100
AcDbText
 10
129.8000000000002
 20
-94.97000000000116
 30
0.0
 40
1.8
  1
Werkstoff
 41
0.9
  7
CONVERTER_13
100
AcDbText
  0
MTEXT
  5
3F9
330
52
100
AcDbEntity
  8
1
 62
     2
100
AcDbMText
 10
167.8999999999996
 20
-89.625
 30
0.0
 40
1.8
 41
0.0
 71
     4
 72
     1
  1
Gewicht
  7
CONVERTER_13
 73
     1
 44
1.32052821128451
  0
MTEXT
  5
3FA
330
52
100
AcDbEntity
  8
1
 62
     2
100
AcDbMText
 10
129.8000000000002
 20
-89.625
 30
0.0
 40
1.8
 41
0.0
 71
     4
 72
     1
  1
Urheberschutz  DIN 34
  7
CONVERTER_13
 73
     1
 44
1.32052821128451
  0
TEXT
  5
3FB
330
52
100
AcDbEntity
  8
1
 62
     2
100
AcDbText
 10
130.8962833787473
 20
-129.2145722070854
 30
0.0
 40
1.8
  1
Z.-Nr.
 41
0.9
  7
CONVERTER_13
100
AcDbText
  0
TEXT
  5
3FC
330
52
100
AcDbEntity
  8
1
 62
     2
100
AcDbText
 10
38.35999999999888
 20
-129.5799999999999
 30
0.0
 40
1.8
  1
Benennung
 41
0.9
  7
CONVERTER_13
100
AcDbText
  0
TEXT
  5
3FD
330
52
100
AcDbEntity
  8
1
 62
     2
100
AcDbText
 10
23.11999999999898
 20
-129.5799999999999
 30
0.0
 40
1.8
  1
Maßstab
 41
0.9
  7
CONVERTER_13
100
AcDbText
  0
TEXT
  5
3FE
330
52
100
AcDbEntity
  8
1
 62
     2
100
AcDbText
 10
75.95999999999992
 20
-111.2899999999994
 30
0.0
 40
1.8
  1
Typ
 41
0.9
  7
CONVERTER_13
100
AcDbText
  0
TEXT
  5
3FF
330
52
100
AcDbEntity
  8
1
 62
     2
100
AcDbText
 10
23.11999999999898
 20
-124.5799999999999
 30
0.0
 40
1.8
  1
Norm.
 41
0.9
  7
CONVERTER_13
100
AcDbText
  0
TEXT
  5
400
330
52
100
AcDbEntity
  8
1
 62
     2
100
AcDbText
 10
23.11999999999898
 20
-120.3500000000004
 30
0.0
 40
1.8
  1
Gepr.
 41
0.9
  7
CONVERTER_13
100
AcDbText
  0
TEXT
  5
401
330
52
100
AcDbEntity
  8
1
 62
     2
100
AcDbText
 10
23.11999999999898
 20
-116.1200000000008
 30
0.0
 40
1.8
  1
Bearb.
 41
0.9
  7
CONVERTER_13
100
AcDbText
  0
TEXT
  5
402
330
52
100
AcDbEntity
  8
1
 62
     2
100
AcDbText
 10
59.73202796696876
 20
-111.8899999999994
 30
0.0
 40
1.8
  1
Name
 41
0.9
  7
CONVERTER_13
100
AcDbText
  0
TEXT
  5
403
330
52
100
AcDbEntity
  8
1
 62
     2
100
AcDbText
 10
41.95202796696901
 20
-111.8899999999994
 30
0.0
 40
1.8
  1
Datum
 41
0.9
  7
CONVERTER_13
100
AcDbText
  0
TEXT
  5
404
330
52
100
AcDbEntity
  8
1
 62
     2
100
AcDbText
 10
68.83999999999912
 20
-107.6599999999999
 30
0.0
 40
1.8
  1
Gepr.
 41
0.72
  7
CONVERTER_11
100
AcDbText
  0
TEXT
  5
405
330
52
100
AcDbEntity
  8
1
 62
     2
100
AcDbText
 10
61.21999999999832
 20
-107.6599999999999
 30
0.0
 40
1.8
  1
Name
 41
0.72
  7
CONVERTER_11
100
AcDbText
  0
TEXT
  5
406
330
52
100
AcDbEntity
  8
1
 62
     2
100
AcDbText
 10
43.43999999999869
 20
-107.6599999999999
 30
0.0
 40
1.8
  1
Datum
 41
0.9
  7
CONVERTER_13
100
AcDbText
  0
TEXT
  5
407
330
52
100
AcDbEntity
  8
1
 62
     2
100
AcDbText
 10
28.19999999999891
 20
-107.6599999999999
 30
0.0
 40
1.8
  1
Änderung
 41
0.9
  7
CONVERTER_13
100
AcDbText
  0
TEXT
  5
408
330
52
100
AcDbEntity
  8
1
 62
     2
100
AcDbText
 10
23.11999999999898
 20
-107.6599999999999
 30
0.0
 40
1.8
  1
Nr.
 41
0.9
  7
CONVERTER_13
100
AcDbText
  0
TEXT
  5
409
330
52
100
AcDbEntity
  8
0
 62
     2
100
AcDbText
 10
201.4516239034123
 20
-137.153912141408
 30
0.0
 40
1.8
  1
Bl.
 41
0.9
  7
CONVERTER_13
100
AcDbText
  0
MTEXT
  5
40A
330
52
100
AcDbEntity
  8
1
 62
     3
100
AcDbMText
 10
103.5850000000001
 20
-98.08500000000004
 30
0.0
 40
2.2
 41
0.0
 71
     4
 72
     1
  1
Oberflächen\PDIN ISO 1302\PReihe 2
  7
CONVERTER_13
 73
     1
 44
1.32052821128451
  0
MTEXT
  5
40B
330
52
100
AcDbEntity
  8
1
 62
     3
100
AcDbMText
 10
76.91500000000008
 20
-98.08500000000004
 30
0.0
 40
2.2
 41
0.0
 71
     4
 72
     1
  1
Allgemein-\Ptoleranzen\PDIN ISO 2768-mK
  7
CONVERTER_11
 73
     1
 44
1.32052821128451
  0
HATCH
  5
40C
330
52
100
AcDbEntity
  8
1
  6
Continuous
 62
     2
100
AcDbHatch
 10
0.0
 20
0.0
 30
0.0
210
0.0
220
0.0
230
1.0
  2
_USER
 70
     0
 71
     1
 91
        1
 92
        1
 93
        4
 72
     1
 10
162.6516542509982
 20
-119.4199999999999
 11
161.4516542509982
 21
-119.4199999999999
 72
     1
 10
161.4516542509982
 20
-119.4199999999999
 11
161.4516542509982
 21
-110.2199999999999
 72
     1
 10
161.4516542509982
 20
-110.2199999999999
 11
162.6516542509982
 21
-110.2199999999999
 72
     1
 10
162.6516542509982
 20
-110.2199999999999
 11
162.6516542509982
 21
-119.4199999999999
 97
        4
330
34E
330
354
330
350
330
353
 75
     1
 76
     0
 52
90.00000000000003
 41
0.15
 77
     0
 78
     1
 53
90.00000000000003
 43
0.0
 44
0.0
 45
-0.15
 46
-0.0000000000000001
 79
     0
 98
        1
 10
0.0
 20
0.0
  0
HATCH
  5
40D
330
52
100
AcDbEntity
  8
1
  6
Continuous
 62
     2
100
AcDbHatch
 10
0.0
 20
0.0
 30
0.0
210
0.0
220
0.0
230
1.0
  2
_USER
 70
     0
 71
     1
 91
        1
 92
        1
 93
        4
 72
     1
 10
164.6516542509982
 20
-119.4199999999999
 11
163.4516542509982
 21
-119.4199999999999
 72
     1
 10
163.4516542509982
 20
-119.4199999999999
 11
163.4516542509982
 21
-110.2199999999999
 72
     1
 10
163.4516542509982
 20
-110.2199999999999
 11
164.6516542509982
 21
-110.2199999999999
 72
     1
 10
164.6516542509982
 20
-110.2199999999999
 11
164.6516542509982
 21
-119.4199999999999
 97
        4
330
34F
330
352
330
358
330
351
 75
     1
 76
     0
 52
90.00000000000003
 41
0.15
 77
     0
 78
     1
 53
90.00000000000003
 43
0.0
 44
0.0
 45
-0.15
 46
-0.0000000000000001
 79
     0
 98
        1
 10
0.0
 20
0.0
  0
HATCH
  5
40E
330
52
100
AcDbEntity
  8
1
  6
Continuous
 62
     2
100
AcDbHatch
 10
0.0
 20
0.0
 30
0.0
210
0.0
220
0.0
230
1.0
  2
_USER
 70
     0
 71
     1
 91
        1
 92
        1
 93
       12
 72
     1
 10
147.1516542509982
 20
-110.2199999999999
 11
144.5516542509982
 21
-110.2199999999999
 72
     1
 10
144.5516542509982
 20
-110.2199999999999
 11
144.5516542509982
 21
-119.4199999999999
 72
     1
 10
144.5516542509982
 20
-119.4199999999999
 11
147.1516542509982
 21
-119.4199999999999
 72
     1
 10
147.1516542509982
 20
-119.4199999999999
 11
147.1516542509982
 21
-118.30758746051
 72
     1
 10
147.1516542509982
 20
-118.30758746051
 11
145.8516542509982
 21
-118.30758746051
 72
     1
 10
145.8516542509982
 20
-118.30758746051
 11
145.8516542509982
 21
-115.0199999999999
 72
     1
 10
145.8516542509982
 20
-115.0199999999999
 11
147.1516542509982
 21
-115.0199999999999
 72
     1
 10
147.1516542509982
 20
-115.0199999999999
 11
147.1516542509982
 21
-113.9199999999999
 72
     1
 10
147.1516542509982
 20
-113.9199999999999
 11
145.8516542509982
 21
-113.9199999999999
 72
     1
 10
145.8516542509982
 20
-113.9199999999999
 11
145.8516542509982
 21
-111.3199999999999
 72
     1
 10
145.8516542509982
 20
-111.3199999999999
 11
147.1516542509982
 21
-111.3199999999999
 72
     1
 10
147.1516542509982
 20
-111.3199999999999
 11
147.1516542509982
 21
-110.2199999999999
 97
       12
330
318
330
319
330
31A
330
31B
330
310
330
30C
330
30D
330
30E
330
30F
330
311
330
359
330
35A
 75
     1
 76
     0
 52
90.00000000000003
 41
0.15
 77
     0
 78
     1
 53
90.00000000000003
 43
0.0
 44
0.0
 45
-0.15
 46
-0.0000000000000001
 79
     0
 98
        1
 10
0.0
 20
0.0
  0
HATCH
  5
40F
330
52
100
AcDbEntity
  8
1
  6
Continuous
 62
     2
100
AcDbHatch
 10
0.0
 20
0.0
 30
0.0
210
0.0
220
0.0
230
1.0
  2
_USER
 70
     0
 71
     1
 91
        1
 92
        1
 93
        6
 72
     1
 10
189.2516542509982
 20
-119.4199999999999
 11
186.6516542509982
 21
-119.4199999999999
 72
     1
 10
186.6516542509982
 20
-119.4199999999999
 11
186.6516542509982
 21
-110.2199999999999
 72
     1
 10
186.6516542509982
 20
-110.2199999999999
 11
187.8516542509982
 21
-110.2199999999999
 72
     1
 10
187.8516542509982
 20
-110.2199999999999
 11
187.8516542509982
 21
-118.30758746051
 72
     1
 10
187.8516542509982
 20
-118.30758746051
 11
189.2516542509982
 21
-118.30758746051
 72
     1
 10
189.2516542509982
 20
-118.30758746051
 11
189.2516542509982
 21
-119.4199999999999
 97
        6
330
378
330
377
330
33B
330
338
330
339
330
33A
 75
     1
 76
     0
 52
90.00000000000003
 41
0.15
 77
     0
 78
     1
 53
90.00000000000003
 43
0.0
 44
0.0
 45
-0.15
 46
-0.0000000000000001
 79
     0
 98
        1
 10
0.0
 20
0.0
  0
HATCH
  5
410
330
52
100
AcDbEntity
  8
1
  6
Continuous
 62
     2
100
AcDbHatch
 10
0.0
 20
0.0
 30
0.0
210
0.0
220
0.0
230
1.0
  2
_USER
 70
     0
 71
     1
 91
        1
 92
        1
 93
       11
 72
     1
 10
169.8516542509982
 20
-113.8826635858394
 11
171.0854042804337
 21
-110.2199999999999
 72
     1
 10
171.0854042804337
 20
-110.2199999999999
 11
172.3516542509982
 21
-110.2199999999999
 72
     1
 10
172.3516542509982
 20
-110.2199999999999
 11
170.9200628688759
 21
-114.4699999999999
 72
     1
 10
170.9200628688759
 20
-114.4699999999999
 11
172.3516542509982
 21
-119.4199999999999
 72
     1
 10
172.3516542509982
 20
-119.4199999999999
 11
171.1024763583806
 21
-119.4199999999999
 72
     1
 10
171.1024763583806
 20
-119.4199999999999
 11
169.8516542509982
 21
-115.0950442138285
 72
     1
 10
169.8516542509982
 20
-115.0950442138285
 11
169.8516542509982
 21
-119.4199999999999
 72
     1
 10
169.8516542509982
 20
-119.4199999999999
 11
168.6516542509982
 21
-119.4199999999999
 72
     1
 10
168.6516542509982
 20
-119.4199999999999
 11
168.6516542509982
 21
-110.2199999999999
 72
     1
 10
168.6516542509982
 20
-110.2199999999999
 11
169.8516542509982
 21
-110.2199999999999
 72
     1
 10
169.8516542509982
 20
-110.2199999999999
 11
169.8516542509982
 21
-113.8826635858394
 97
       11
330
32B
330
32D
330
32C
330
384
330
382
330
380
330
37E
330
37D
330
37F
330
381
330
383
 75
     1
 76
     0
 52
90.00000000000003
 41
0.15
 77
     0
 78
     1
 53
90.00000000000003
 43
0.0
 44
0.0
 45
-0.15
 46
-0.0000000000000001
 79
     0
 98
        1
 10
0.0
 20
0.0
  0
HATCH
  5
411
330
52
100
AcDbEntity
  8
1
  6
Continuous
 62
     2
100
AcDbHatch
 10
0.0
 20
0.0
 30
0.0
210
0.0
220
0.0
230
1.0
  2
_USER
 70
     0
 71
     1
 91
        2
 92
        1
 93
        8
 72
     1
 10
151.6516542509982
 20
-111.2199999999999
 11
151.6516542509982
 21
-118.4199999999999
 72
     2
 10
150.6516542509982
 20
-118.4199999999999
 40
1.0
 50
0.0
 51
90.0
 73
     0
 72
     1
 10
150.6516542509982
 20
-119.4199999999999
 11
148.9516542509982
 21
-119.4199999999999
 72
     2
 10
148.9516542509982
 20
-118.4199999999999
 40
1.0
 50
90.0
 51
180.0
 73
     0
 72
     1
 10
147.9516542509982
 20
-118.4199999999999
 11
147.9516542509982
 21
-111.2199999999999
 72
     2
 10
148.9516542509982
 20
-111.2199999999999
 40
1.0
 50
180.0
 51
270.0
 73
     0
 72
     1
 10
148.9516542509982
 20
-110.2199999999999
 11
150.6516542509982
 21
-110.2199999999999
 72
     2
 10
150.6516542509982
 20
-111.2199999999999
 40
1.0
 50
270.0
 51
360.0
 73
     0
 97
        8
330
31F
330
3AE
330
321
330
3B0
330
320
330
3B1
330
322
330
3AF
 92
       16
 93
        6
 72
     2
 10
149.8016542509982
 20
-111.9699999999999
 40
0.6500000000000057
 50
90.0
 51
180.0
 73
     1
 72
     1
 10
149.1516542509982
 20
-111.9699999999999
 11
149.1516542509982
 21
-117.65758746051
 72
     2
 10
149.8016542509982
 20
-117.65758746051
 40
0.6500000000000057
 50
180.0
 51
270.0
 73
     1
 72
     2
 10
149.8016542509982
 20
-117.65758746051
 40
0.6500000000000057
 50
270.0
 51
360.0
 73
     1
 72
     1
 10
150.4516542509982
 20
-117.65758746051
 11
150.4516542509982
 21
-111.9699999999999
 72
     2
 10
149.8016542509982
 20
-111.9699999999999
 40
0.6499999999999773
 50
0.0
 51
90.0
 73
     1
 97
        6
330
3C3
330
35C
330
3C5
330
3C6
330
35B
330
3C4
 75
     1
 76
     0
 52
90.00000000000003
 41
0.15
 77
     0
 78
     1
 53
90.00000000000003
 43
0.0
 44
0.0
 45
-0.15
 46
-0.0000000000000001
 79
     0
 98
        1
 10
0.0
 20
0.0
  0
HATCH
  5
412
330
52
100
AcDbEntity
  8
1
  6
Continuous
 62
     2
100
AcDbHatch
 10
0.0
 20
0.0
 30
0.0
210
0.0
220
0.0
230
1.0
  2
_USER
 70
     0
 71
     1
 91
        2
 92
        1
 93
        8
 72
     2
 10
183.1516542509982
 20
-111.2199999999999
 40
1.0
 50
90.0
 51
180.0
 73
     1
 72
     1
 10
182.1516542509982
 20
-111.2199999999999
 11
182.1516542509982
 21
-118.4199999999999
 72
     2
 10
183.1516542509982
 20
-118.4199999999999
 40
1.0
 50
180.0
 51
270.0
 73
     1
 72
     1
 10
183.1516542509982
 20
-119.4199999999999
 11
184.8516542509982
 21
-119.4199999999999
 72
     2
 10
184.8516542509982
 20
-118.4199999999999
 40
1.0
 50
270.0
 51
360.0
 73
     1
 72
     1
 10
185.8516542509982
 20
-118.4199999999999
 11
185.8516542509982
 21
-111.2199999999999
 72
     2
 10
184.8516542509982
 20
-111.2199999999999
 40
1.0
 50
0.0
 51
90.0
 73
     1
 72
     1
 10
184.8516542509982
 20
-110.2199999999999
 11
183.1516542509982
 21
-110.2199999999999
 97
        8
330
3B9
330
334
330
3BC
330
335
330
3BB
330
336
330
3B8
330
337
 92
       16
 93
        6
 72
     2
 10
184.0016542509982
 20
-111.9699999999999
 40
0.6500000000000057
 50
0.0
 51
90.0
 73
     1
 72
     2
 10
184.0016542509982
 20
-111.9699999999999
 40
0.6500000000000057
 50
90.0
 51
180.0
 73
     1
 72
     1
 10
183.3516542509982
 20
-111.9699999999999
 11
183.3516542509982
 21
-117.65758746051
 72
     2
 10
184.0016542509982
 20
-117.65758746051
 40
0.6500000000000057
 50
180.0
 51
270.0
 73
     1
 72
     2
 10
184.0016542509982
 20
-117.65758746051
 40
0.6500000000000057
 50
270.0
 51
360.0
 73
     1
 72
     1
 10
184.6516542509982
 20
-117.65758746051
 11
184.6516542509982
 21
-111.9699999999999
 97
        6
330
3D4
330
3D5
330
373
330
3D6
330
3D7
330
372
 75
     1
 76
     0
 52
90.00000000000003
 41
0.15
 77
     0
 78
     1
 53
90.00000000000003
 43
0.0
 44
0.0
 45
-0.15
 46
-0.0000000000000001
 79
     0
 98
        1
 10
0.0
 20
0.0
  0
HATCH
  5
413
330
52
100
AcDbEntity
  8
1
  6
Continuous
 62
     2
100
AcDbHatch
 10
0.0
 20
0.0
 30
0.0
210
0.0
220
0.0
230
1.0
  2
_USER
 70
     0
 71
     1
 91
        3
 92
        1
 93
        9
 72
     1
 10
180.3516542509982
 20
-110.2199999999999
 11
177.6516542509982
 21
-110.2199999999999
 72
     1
 10
177.6516542509982
 20
-110.2199999999999
 11
177.6516542509982
 21
-119.4199999999999
 72
     1
 10
177.6516542509982
 20
-119.4199999999999
 11
180.3516542509982
 21
-119.4199999999999
 72
     2
 10
180.3516542509982
 20
-118.4199999999999
 40
1.0
 50
270.0
 51
360.0
 73
     1
 72
     1
 10
181.3516542509982
 20
-118.4199999999999
 11
181.3516542509982
 21
-115.1199999999999
 72
     2
 10
180.7016542509982
 20
-115.1199999999999
 40
0.6500000000000057
 50
0.0
 51
90.0
 73
     1
 72
     2
 10
180.7016542509982
 20
-113.8199999999999
 40
0.6500000000000057
 50
270.0
 51
360.0
 73
     1
 72
     1
 10
181.3516542509982
 20
-113.8199999999999
 11
181.3516542509982
 21
-111.2199999999999
 72
     2
 10
180.3516542509982
 20
-111.2199999999999
 40
1.0
 50
0.0
 51
90.0
 73
     1
 97
        9
330
332
330
331
330
333
330
3BD
330
37C
330
3AB
330
3AA
330
37B
330
3B7
 92
       16
 93
        6
 72
     2
 10
179.5016542509982
 20
-111.9699999999999
 40
0.6500000000000057
 50
0.0
 51
90.0
 73
     1
 72
     1
 10
179.5016542509982
 20
-111.3199999999999
 11
178.8516542509982
 21
-111.3199999999999
 72
     1
 10
178.8516542509982
 20
-111.3199999999999
 11
178.8516542509982
 21
-113.9199999999999
 72
     1
 10
178.8516542509982
 20
-113.9199999999999
 11
179.5016542509982
 21
-113.9199999999999
 72
     2
 10
179.5016542509982
 20
-113.2699999999999
 40
0.6500000000000057
 50
270.0
 51
360.0
 73
     1
 72
     1
 10
180.1516542509982
 20
-113.2699999999999
 11
180.1516542509982
 21
-111.9699999999999
 97
        6
330
3DC
330
36A
330
370
330
36C
330
3DD
330
36B
 92
       16
 93
        6
 72
     2
 10
179.5016542509982
 20
-115.6699999999999
 40
0.6500000000000057
 50
0.0
 51
90.0
 73
     1
 72
     1
 10
179.5016542509982
 20
-115.0199999999999
 11
178.8516542509982
 21
-115.0199999999999
 72
     1
 10
178.8516542509982
 20
-115.0199999999999
 11
178.8516542509982
 21
-118.30758746051
 72
     1
 10
178.8516542509982
 20
-118.30758746051
 11
179.5016542509982
 21
-118.30758746051
 72
     2
 10
179.5016542509982
 20
-117.65758746051
 40
0.6500000000000057
 50
270.0
 51
360.0
 73
     1
 72
     1
 10
180.1516542509982
 20
-117.65758746051
 11
180.1516542509982
 21
-115.6699999999999
 97
        6
330
3DE
330
371
330
36D
330
36E
330
3DF
330
36F
 75
     1
 76
     0
 52
90.00000000000003
 41
0.15
 77
     0
 78
     1
 53
90.00000000000003
 43
0.0
 44
0.0
 45
-0.15
 46
-0.0000000000000001
 79
     0
 98
        1
 10
0.0
 20
0.0
  0
HATCH
  5
414
330
52
100
AcDbEntity
  8
1
  6
Continuous
 62
     2
100
AcDbHatch
 10
0.0
 20
0.0
 30
0.0
210
0.0
220
0.0
230
1.0
  2
_USER
 70
     0
 71
     1
 91
        2
 92
        1
 93
        8
 72
     2
 10
174.1516542509982
 20
-111.2199999999999
 40
1.0
 50
90.0
 51
180.0
 73
     1
 72
     1
 10
173.1516542509982
 20
-111.2199999999999
 11
173.1516542509982
 21
-118.4199999999999
 72
     2
 10
174.1516542509982
 20
-118.4199999999999
 40
1.0
 50
180.0
 51
270.0
 73
     1
 72
     1
 10
174.1516542509982
 20
-119.4199999999999
 11
175.8516542509982
 21
-119.4199999999999
 72
     2
 10
175.8516542509982
 20
-118.4199999999999
 40
1.0
 50
270.0
 51
360.0
 73
     1
 72
     1
 10
176.8516542509982
 20
-118.4199999999999
 11
176.8516542509982
 21
-111.2199999999999
 72
     2
 10
175.8516542509982
 20
-111.2199999999999
 40
1.0
 50
0.0
 51
90.0
 73
     1
 72
     1
 10
175.8516542509982
 20
-110.2199999999999
 11
174.1516542509982
 21
-110.2199999999999
 97
        8
330
3B5
330
385
330
3BF
330
330
330
3BE
330
33E
330
3B6
330
32F
 92
       16
 93
        6
 72
     2
 10
175.0016542509982
 20
-111.9699999999999
 40
0.6500000000000057
 50
90.0
 51
180.0
 73
     1
 72
     1
 10
174.3516542509982
 20
-111.9699999999999
 11
174.3516542509982
 21
-117.65758746051
 72
     2
 10
175.0016542509982
 20
-117.65758746051
 40
0.6500000000000057
 50
180.0
 51
270.0
 73
     1
 72
     2
 10
175.0016542509982
 20
-117.65758746051
 40
0.6500000000000057
 50
270.0
 51
360.0
 73
     1
 72
     1
 10
175.6516542509982
 20
-117.65758746051
 11
175.6516542509982
 21
-111.9699999999999
 72
     2
 10
175.0016542509982
 20
-111.9699999999999
 40
0.6500000000000057
 50
0.0
 51
90.0
 73
     1
 97
        6
330
3D8
330
369
330
3DA
330
3DB
330
368
330
3D9
 75
     1
 76
     0
 52
90.00000000000003
 41
0.15
 77
     0
 78
     1
 53
90.00000000000003
 43
0.0
 44
0.0
 45
-0.15
 46
-0.0000000000000001
 79
     0
 98
        1
 10
0.0
 20
0.0
  0
HATCH
  5
415
330
52
100
AcDbEntity
  8
1
  6
Continuous
 62
     2
100
AcDbHatch
 10
0.0
 20
0.0
 30
0.0
210
0.0
220
0.0
230
1.0
  2
_USER
 70
     0
 71
     1
 91
        2
 92
        1
 93
        6
 72
     1
 10
193.7516542509982
 20
-111.2199999999999
 11
193.7516542509982
 21
-118.4199999999999
 72
     2
 10
192.7516542509982
 20
-118.4199999999999
 40
1.0
 50
0.0
 51
90.0
 73
     0
 72
     1
 10
192.7516542509982
 20
-119.4199999999999
 11
190.0516542509982
 21
-119.4199999999999
 72
     1
 10
190.0516542509982
 20
-119.4199999999999
 11
190.0516542509982
 21
-110.2199999999999
 72
     1
 10
190.0516542509982
 20
-110.2199999999999
 11
192.7516542509982
 21
-110.2199999999999
 72
     2
 10
192.7516542509982
 20
-111.2199999999999
 40
1.0
 50
270.0
 51
360.0
 73
     0
 97
        6
330
33D
330
33C
330
33F
330
3C0
330
340
330
3BA
 92
       16
 93
        7
 72
     2
 10
191.9016542509982
 20
-111.9699999999999
 40
0.6500000000000057
 50
0.0
 51
90.0
 73
     1
 72
     1
 10
191.9016542509982
 20
-111.3199999999999
 11
191.2516542509982
 21
-111.3199999999999
 72
     1
 10
191.2516542509982
 20
-111.3199999999999
 11
191.2516542509982
 21
-111.9699999999999
 72
     1
 10
191.2516542509982
 20
-111.9699999999999
 11
191.2516542509982
 21
-118.30758746051
 72
     1
 10
191.2516542509982
 20
-118.30758746051
 11
191.9016542509982
 21
-118.30758746051
 72
     2
 10
191.9016542509982
 20
-117.65758746051
 40
0.6500000000000057
 50
270.0
 51
360.0
 73
     1
 72
     1
 10
192.5516542509982
 20
-117.65758746051
 11
192.5516542509982
 21
-111.9699999999999
 97
        7
330
3D2
330
379
330
37A
330
376
330
375
330
3D3
330
374
 75
     1
 76
     0
 52
90.00000000000003
 41
0.15
 77
     0
 78
     1
 53
90.00000000000003
 43
0.0
 44
0.0
 45
-0.15
 46
-0.0000000000000001
 79
     0
 98
        1
 10
0.0
 20
0.0
  0
HATCH
  5
416
330
52
100
AcDbEntity
  8
1
  6
Continuous
 62
     2
100
AcDbHatch
 10
0.0
 20
0.0
 30
0.0
210
0.0
220
0.0
230
1.0
  2
_USER
 70
     0
 71
     1
 91
        2
 92
        1
 93
       13
 72
     2
 10
155.3161055621215
 20
-115.6535223168009
 40
0.8355765145285912
 50
359.5324065739073
 51
445.9815862299461
 73
     1
 72
     2
 10
155.3000342667233
 20
-113.9710002560295
 40
0.8522732028340286
 50
275.0233190242853
 51
357.7566077588553
 73
     1
 72
     1
 10
156.1516542509982
 20
-114.0043621302671
 11
156.1516542509982
 21
-111.2199999999999
 72
     2
 10
155.1516542509982
 20
-111.2199999999999
 40
1.0
 50
0.0
 51
90.0
 73
     1
 72
     1
 10
155.1516542509982
 20
-110.2199999999999
 11
152.4516542509982
 21
-110.2199999999999
 72
     1
 10
152.4516542509982
 20
-110.2199999999999
 11
152.4516542509982
 21
-119.4199999999999
 72
     1
 10
152.4516542509982
 20
-119.4199999999999
 11
153.6516542509982
 21
-119.4199999999999
 72
     1
 10
153.6516542509982
 20
-119.4199999999999
 11
153.6516542509982
 21
-115.4199999999999
 72
     1
 10
153.6516542509982
 20
-115.4199999999999
 11
154.3016542509982
 21
-115.4199999999999
 72
     2
 10
154.3016542509982
 20
-116.0699999999999
 40
0.6499999999999773
 50
270.0
 51
360.0
 73
     0
 72
     1
 10
154.9516542509982
 20
-116.0699999999999
 11
154.9516542509982
 21
-119.4199999999999
 72
     1
 10
154.9516542509982
 20
-119.4199999999999
 11
156.1516542509982
 21
-119.4199999999999
 72
     1
 10
156.1516542509982
 20
-119.4199999999999
 11
156.1516542509982
 21
-115.6603414185126
 97
       13
330
3A8
330
3A7
330
325
330
3B2
330
324
330
323
330
34D
330
365
330
364
330
3C8
330
34B
330
34C
330
326
 92
       16
 93
        6
 72
     2
 10
154.3016542509982
 20
-111.9699999999999
 40
0.6499999999999773
 50
0.0
 51
90.0
 73
     1
 72
     1
 10
154.3016542509982
 20
-111.3199999999999
 11
153.6516542509982
 21
-111.3199999999999
 72
     1
 10
153.6516542509982
 20
-111.3199999999999
 11
153.6516542509982
 21
-114.2199999999999
 72
     1
 10
153.6516542509982
 20
-114.2199999999999
 11
154.3016542509982
 21
-114.2199999999999
 72
     2
 10
154.3016542509982
 20
-113.5699999999999
 40
0.6500000000000057
 50
270.0
 51
360.0
 73
     1
 72
     1
 10
154.9516542509982
 20
-113.5699999999999
 11
154.9516542509982
 21
-111.9699999999999
 97
        6
330
3C7
330
361
330
362
330
363
330
3C9
330
34A
 75
     1
 76
     0
 52
90.00000000000003
 41
0.15
 77
     0
 78
     1
 53
90.00000000000003
 43
0.0
 44
0.0
 45
-0.15
 46
-0.0000000000000001
 79
     0
 98
        1
 10
0.0
 20
0.0
  0
HATCH
  5
417
330
52
100
AcDbEntity
  8
1
  6
Continuous
 62
     2
100
AcDbHatch
 10
0.0
 20
0.0
 30
0.0
210
0.0
220
0.0
230
1.0
  2
_USER
 70
     0
 71
     1
 91
        1
 92
        1
 93
       23
 72
     1
 10
159.4516542509982
 20
-117.65758746051
 11
159.4516542509982
 21
-115.9199999999999
 72
     1
 10
159.4516542509982
 20
-115.9199999999999
 11
158.9016542509982
 21
-115.9199999999999
 72
     1
 10
158.9016542509982
 20
-115.9199999999999
 11
158.9016542509982
 21
-114.7199999999999
 72
     1
 10
158.9016542509982
 20
-114.7199999999999
 11
159.7415058473918
 21
-114.7199999999999
 72
     1
 10
159.7415058473918
 20
-114.7199999999999
 11
160.6516542509982
 21
-114.7199999999999
 72
     1
 10
160.6516542509982
 20
-114.7199999999999
 11
160.6516542509982
 21
-119.4199999999999
 72
     1
 10
160.6516542509982
 20
-119.4199999999999
 11
160.1516542509982
 21
-119.4199999999999
 72
     1
 10
160.1516542509982
 20
-119.4199999999999
 11
159.8046153744343
 21
-118.8199999999999
 72
     2
 10
158.8327793484388
 20
-118.3331447179281
 40
1.086965191302833
 50
26.60924039545096
 51
90.8147991292736
 73
     0
 72
     1
 10
158.8173222162131
 20
-119.4199999999999
 11
157.9516542509982
 21
-119.4199999999999
 72
     2
 10
157.9516542509982
 20
-118.4199999999999
 40
1.0
 50
90.0
 51
180.0
 73
     0
 72
     1
 10
156.9516542509982
 20
-118.4199999999999
 11
156.9516542509982
 21
-111.2199999999999
 72
     2
 10
157.9516542509982
 20
-111.2199999999999
 40
1.0
 50
180.0
 51
270.0
 73
     0
 72
     1
 10
157.9516542509982
 20
-110.2199999999999
 11
159.6516542509982
 21
-110.2199999999999
 72
     2
 10
159.6516542509982
 20
-111.2199999999999
 40
1.000000000000085
 50
270.0
 51
360.0
 73
     0
 72
     1
 10
160.6516542509983
 20
-111.2199999999999
 11
160.6516542509982
 21
-113.3199999999999
 72
     1
 10
160.6516542509982
 20
-113.3199999999999
 11
159.4516542509982
 21
-113.3199999999999
 72
     1
 10
159.4516542509982
 20
-113.3199999999999
 11
159.4516542509982
 21
-111.9699999999999
 72
     2
 10
158.8016542509982
 20
-111.9699999999999
 40
0.6499999999999773
 50
0.0
 51
90.0
 73
     1
 72
     2
 10
158.8016542509982
 20
-111.9699999999999
 40
0.6500000000000057
 50
90.0
 51
180.0
 73
     1
 72
     1
 10
158.1516542509982
 20
-111.9699999999999
 11
158.1516542509982
 21
-117.65758746051
 72
     2
 10
158.8016542509982
 20
-117.65758746051
 40
0.6500000000000057
 50
180.0
 51
270.0
 73
     1
 72
     2
 10
158.8016542509982
 20
-117.65758746051
 40
0.6500000000000057
 50
270.0
 51
360.0
 73
     1
 97
       23
330
3CC
330
348
330
3CA
330
3CB
330
347
330
329
330
32A
330
3B4
330
327
330
3B3
330
342
330
3C1
330
341
330
3A9
330
346
330
345
330
328
330
367
330
355
330
356
330
357
330
349
330
3CD
 75
     1
 76
     0
 52
90.00000000000003
 41
0.15
 77
     0
 78
     1
 53
90.00000000000003
 43
0.0
 44
0.0
 45
-0.15
 46
-0.0000000000000001
 79
     0
 98
        1
 10
0.0
 20
0.0
  0
HATCH
  5
418
330
52
100
AcDbEntity
  8
1
  6
Continuous
 62
     2
100
AcDbHatch
 10
0.0
 20
0.0
 30
0.0
210
0.0
220
0.0
230
1.0
  2
_USER
 70
     0
 71
     1
 91
        1
 92
        1
 93
       22
 72
     1
 10
143.7516542509982
 20
-119.4199999999999
 11
143.2516542509982
 21
-119.4199999999999
 72
     1
 10
143.2516542509982
 20
-119.4199999999999
 11
142.9048783308657
 21
-118.8199999999999
 72
     2
 10
141.9264261003899
 20
-118.3227040643326
 40
1.097575516743276
 50
26.94184191294435
 51
91.2932531058712
 73
     0
 72
     1
 10
141.9016542509982
 20
-119.4199999999999
 11
141.0516542509982
 21
-119.4199999999999
 72
     2
 10
141.0516542509982
 20
-118.4199999999999
 40
1.0
 50
90.0
 51
180.0
 73
     0
 72
     1
 10
140.0516542509982
 20
-118.4199999999999
 11
140.0516542509982
 21
-111.2199999999999
 72
     2
 10
141.0516542509982
 20
-111.2199999999999
 40
1.0
 50
180.0
 51
270.0
 73
     0
 72
     1
 10
141.0516542509982
 20
-110.2199999999999
 11
142.7516542509982
 21
-110.2199999999999
 72
     2
 10
142.7516542509982
 20
-111.2199999999999
 40
1.0
 50
270.0
 51
360.0
 73
     0
 72
     1
 10
143.7516542509982
 20
-111.2199999999999
 11
143.7516542509982
 21
-113.3199999999999
 72
     1
 10
143.7516542509982
 20
-113.3199999999999
 11
142.5516542509982
 21
-113.3199999999999
 72
     1
 10
142.5516542509982
 20
-113.3199999999999
 11
142.5516542509982
 21
-111.9699999999999
 72
     2
 10
141.9016542509982
 20
-111.9699999999999
 40
0.6500000000000057
 50
0.0
 51
90.0
 73
     1
 72
     2
 10
141.9016542509982
 20
-111.9699999999999
 40
0.6500000000000057
 50
90.0
 51
180.0
 73
     1
 72
     1
 10
141.2516542509982
 20
-111.9699999999999
 11
141.2516542509982
 21
-117.65758746051
 72
     2
 10
141.9016542509982
 20
-117.65758746051
 40
0.6500000000000057
 50
180.0
 51
270.0
 73
     1
 72
     2
 10
141.9016542509982
 20
-117.65758746051
 40
0.6500000000000057
 50
270.0
 51
360.0
 73
     1
 72
     1
 10
142.5516542509982
 20
-117.65758746051
 11
142.5516542509982
 21
-115.9199999999999
 72
     1
 10
142.5516542509982
 20
-115.9199999999999
 11
141.9927287849846
 21
-115.9199999999999
 72
     1
 10
141.9927287849846
 20
-115.9199999999999
 11
141.9927287849846
 21
-114.7199999999999
 72
     1
 10
141.9927287849846
 20
-114.7199999999999
 11
143.7516542509982
 21
-114.7199999999999
 72
     1
 10
143.7516542509982
 20
-114.7199999999999
 11
143.7516542509982
 21
-119.4199999999999
 97
       22
330
314
330
315
330
312
330
35D
330
3D1
330
3D0
330
35E
330
3CE
330
3CF
330
35F
330
360
330
317
330
3AC
330
344
330
3C2
330
343
330
3AD
330
31E
330
3A6
330
31D
330
316
330
31C
 75
     1
 76
     0
 52
90.00000000000003
 41
0.15
 77
     0
 78
     1
 53
90.00000000000003
 43
0.0
 44
0.0
 45
-0.15
 46
-0.0000000000000001
 79
     0
 98
        1
 10
0.0
 20
0.0
  0
ENDBLK
  5
54
330
52
100
AcDbEntity
  8
0
100
AcDbBlockEnd
  0
BLOCK
  5
2CE
330
2C6
100
AcDbEntity
  8
0
100
AcDbBlockBegin
  2
*D12
 70
     1
 71
     0
 10
0.0
 20
0.0
 30
0.0
  3
*D12
  1

  0
LINE
  5
2C7
330
2C6
100
AcDbEntity
  8
1
  6
Continuous
 62
     2
100
AcDbLine
 10
-182.7180293501048
 20
-28.8466562743663
 30
0.0
 11
-142.7180293501048
 21
-28.8466562743663
 31
0.0
  0
LINE
  5
2C8
330
2C6
100
AcDbEntity
  8
1
  6
Continuous
 62
     2
100
AcDbLine
 10
-142.7180293501048
 20
6.5
 30
0.0
 11
-142.7180293501048
 21
-30.8466562743663
 31
0.0
  0
LINE
  5
2C9
330
2C6
100
AcDbEntity
  8
1
  6
Continuous
 62
     2
100
AcDbLine
 10
-182.7180293501048
 20
6.5
 30
0.0
 11
-182.7180293501048
 21
-30.8466562743663
 31
0.0
  0
SOLID
  5
2CA
330
2C6
100
AcDbEntity
  8
1
 62
     2
100
AcDbTrace
 10
-175.7180293501048
 20
-27.92508879125453
 30
0.0
 11
-175.7180293501048
 21
-29.76822375747807
 31
0.0
 12
-182.7180293501048
 22
-28.8466562743663
 32
0.0
 13
-182.7180293501048
 23
-28.8466562743663
 33
0.0
  0
SOLID
  5
2CB
330
2C6
100
AcDbEntity
  8
1
 62
     2
100
AcDbTrace
 10
-149.7180293501048
 20
-29.76822375747807
 30
0.0
 11
-149.7180293501048
 21
-27.92508879125453
 31
0.0
 12
-142.7180293501048
 22
-28.8466562743663
 32
0.0
 13
-142.7180293501048
 23
-28.8466562743663
 33
0.0
  0
MTEXT
  5
2CD
330
2C6
100
AcDbEntity
  8
1
 62
     3
100
AcDbMText
 10
-166.686313053143
 20
-24.8466562743663
 30
0.0
 40
7.0
 41
0.0
 71
     7
 72
     1
  1
40
  7
CONVERTER_11
 11
0.9999999999970621
 21
2.424068405545307E-6
 31
0.0
 73
     1
 44
0.60024009603842
  0
ENDBLK
  5
2CF
330
2C6
100
AcDbEntity
  8
0
100
AcDbBlockEnd
  0
BLOCK
  5
2DB
330
2D2
100
AcDbEntity
  8
0
100
AcDbBlockBegin
  2
*D13
 70
     1
 71
     0
 10
0.0
 20
0.0
 30
0.0
  3
*D13
  1

  0
LINE
  5
2D3
330
2D2
100
AcDbEntity
  8
1
  6
Continuous
 62
     2
100
AcDbLine
 10
-51.731263404488
 20
10.5
 30
0.0
 11
-51.731263404488
 21
26.09119215187721
 31
0.0
  0
LINE
  5
2D4
330
2D2
100
AcDbEntity
  8
1
  6
Continuous
 62
     2
100
AcDbLine
 10
-51.731263404488
 20
2.5
 30
0.0
 11
-51.731263404488
 21
10.5
 31
0.0
  0
LINE
  5
2D5
330
2D2
100
AcDbEntity
  8
1
  6
Continuous
 62
     2
100
AcDbLine
 10
-51.731263404488
 20
-11.5
 30
0.0
 11
-51.731263404488
 21
2.5
 31
0.0
  0
LINE
  5
2D6
330
2D2
100
AcDbEntity
  8
1
  6
Continuous
 62
     2
100
AcDbLine
 10
-80.5
 20
10.5
 30
0.0
 11
-49.731263404488
 21
10.5
 31
0.0
  0
LINE
  5
2D7
330
2D2
100
AcDbEntity
  8
1
  6
Continuous
 62
     2
100
AcDbLine
 10
-80.5
 20
2.5
 30
0.0
 11
-49.731263404488
 21
2.5
 31
0.0
  0
SOLID
  5
2D8
330
2D2
100
AcDbEntity
  8
1
 62
     2
100
AcDbTrace
 10
-52.65283088759977
 20
17.5
 30
0.0
 11
-50.80969592137622
 21
17.5
 31
0.0
 12
-51.731263404488
 22
10.5
 32
0.0
 13
-51.731263404488
 23
10.5
 33
0.0
  0
SOLID
  5
2D9
330
2D2
100
AcDbEntity
  8
1
 62
     2
100
AcDbTrace
 10
-50.80969592137623
 20
-4.5
 30
0.0
 11
-52.65283088759977
 21
-4.5
 31
0.0
 12
-51.731263404488
 22
2.5
 32
0.0
 13
-51.731263404488
 23
2.5
 33
0.0
  0
MTEXT
  5
2DA
330
2D2
100
AcDbEntity
  8
1
 62
     3
100
AcDbMText
 10
-57.481263404488
 20
14.19119215187721
 30
0.0
 40
7.0
 41
0.0
 71
     7
 72
     1
  1
\C3;8\C2;\H4.2;\S^ h9;
  7
CONVERTER_11
 11
0.0
 21
1.0
 31
0.0
 73
     1
 44
0.60024009603842
  0
ENDBLK
  5
2DC
330
2D2
100
AcDbEntity
  8
0
100
AcDbBlockEnd
  0
BLOCK
  5
2E8
330
2DF
100
AcDbEntity
  8
0
100
AcDbBlockBegin
  2
*D14
 70
     1
 71
     0
 10
0.0
 20
0.0
 30
0.0
  3
*D14
  1

  0
LINE
  5
2E0
330
2DF
100
AcDbEntity
  8
1
  6
Continuous
 62
     2
100
AcDbLine
 10
-168.7180293501048
 20
-28.8466562743663
 30
0.0
 11
-182.7180293501048
 21
-28.8466562743663
 31
0.0
  0
LINE
  5
2E1
330
2DF
100
AcDbEntity
  8
1
  6
Continuous
 62
     2
100
AcDbLine
 10
-187.7180293501048
 20
-28.8466562743663
 30
0.0
 11
-182.7180293501048
 21
-28.8466562743663
 31
0.0
  0
LINE
  5
2E2
330
2DF
100
AcDbEntity
  8
1
  6
Continuous
 62
     2
100
AcDbLine
 10
-187.7180293501048
 20
-28.8466562743663
 30
0.0
 11
-201.7180293501048
 21
-28.8466562743663
 31
0.0
  0
LINE
  5
2E3
330
2DF
100
AcDbEntity
  8
1
  6
Continuous
 62
     2
100
AcDbLine
 10
-187.7180293501048
 20
-5.5
 30
0.0
 11
-187.7180293501048
 21
-30.8466562743663
 31
0.0
  0
LINE
  5
2E4
330
2DF
100
AcDbEntity
  8
1
  6
Continuous
 62
     2
100
AcDbLine
 10
-182.7180293501048
 20
6.5
 30
0.0
 11
-182.7180293501048
 21
-30.8466562743663
 31
0.0
  0
SOLID
  5
2E5
330
2DF
100
AcDbEntity
  8
1
 62
     2
100
AcDbTrace
 10
-175.7180293501048
 20
-27.92508879125453
 30
0.0
 11
-175.7180293501048
 21
-29.76822375747807
 31
0.0
 12
-182.7180293501048
 22
-28.8466562743663
 32
0.0
 13
-182.7180293501048
 23
-28.8466562743663
 33
0.0
  0
SOLID
  5
2E6
330
2DF
100
AcDbEntity
  8
1
 62
     2
100
AcDbTrace
 10
-194.7180293501048
 20
-29.76822375747807
 30
0.0
 11
-194.7180293501048
 21
-27.92508879125453
 31
0.0
 12
-187.7180293501048
 22
-28.8466562743663
 32
0.0
 13
-187.7180293501048
 23
-28.8466562743663
 33
0.0
  0
MTEXT
  5
2E7
330
2DF
100
AcDbEntity
  8
1
 62
     3
100
AcDbMText
 10
-198.546744496626
 20
-24.8466562743663
 30
0.0
 40
7.0
 41
0.0
 71
     7
 72
     1
  1
5
  7
CONVERTER_11
 11
0.9999999999970621
 21
2.424068405545307E-6
 31
0.0
 73
     1
 44
0.60024009603842
  0
ENDBLK
  5
2E9
330
2DF
100
AcDbEntity
  8
0
100
AcDbBlockEnd
  0
BLOCK
  5
2F3
330
2EC
100
AcDbEntity
  8
0
100
AcDbBlockBegin
  2
*D15
 70
     1
 71
     0
 10
0.0
 20
0.0
 30
0.0
  3
*D15
  1

  0
LINE
  5
2ED
330
2EC
100
AcDbEntity
  8
1
  6
Continuous
 62
     2
100
AcDbLine
 10
-107.5
 20
-28.8466562743663
 30
0.0
 11
-80.5
 21
-28.8466562743663
 31
0.0
  0
LINE
  5
2EE
330
2EC
100
AcDbEntity
  8
1
  6
Continuous
 62
     2
100
AcDbLine
 10
-107.5
 20
6.5
 30
0.0
 11
-107.5
 21
-30.8466562743663
 31
0.0
  0
LINE
  5
2EF
330
2EC
100
AcDbEntity
  8
1
  6
Continuous
 62
     2
100
AcDbLine
 10
-80.5
 20
2.5
 30
0.0
 11
-80.5
 21
-30.8466562743663
 31
0.0
  0
SOLID
  5
2F0
330
2EC
100
AcDbEntity
  8
1
 62
     2
100
AcDbTrace
 10
-87.5
 20
-29.76822375747807
 30
0.0
 11
-87.5
 21
-27.92508879125452
 31
0.0
 12
-80.5
 22
-28.8466562743663
 32
0.0
 13
-80.5
 23
-28.8466562743663
 33
0.0
  0
SOLID
  5
2F1
330
2EC
100
AcDbEntity
  8
1
 62
     2
100
AcDbTrace
 10
-100.5
 20
-27.92508879125452
 30
0.0
 11
-100.5
 21
-29.76822375747807
 31
0.0
 12
-107.5
 22
-28.8466562743663
 32
0.0
 13
-107.5
 23
-28.8466562743663
 33
0.0
  0
MTEXT
  5
2F2
330
2EC
100
AcDbEntity
  8
1
 62
     3
100
AcDbMText
 10
-103.746526779369
 20
-22.57165627436629
 30
0.0
 40
7.0
 41
0.0
 71
     7
 72
     1
  1
\C3;27\C2;\H4.2;\S^ -0,1;
  7
CONVERTER_11
 11
0.9999999999970621
 21
2.424068405545307E-6
 31
0.0
 73
     1
 44
0.60024009603842
  0
ENDBLK
  5
2F4
330
2EC
100
AcDbEntity
  8
0
100
AcDbBlockEnd
  0
BLOCK
  5
47F
330
478
100
AcDbEntity
  8
0
100
AcDbBlockBegin
  2
*D16
 70
     1
 71
     0
 10
0.0
 20
0.0
 30
0.0
  3
*D16
  1

  0
LINE
  5
479
330
478
100
AcDbEntity
  8
1
  6
Continuous
 62
     2
100
AcDbLine
 10
-137.7180293501048
 20
223.298688882024
 30
0.0
 11
8.34825414989533
 21
223.298688882024
 31
0.0
  0
LINE
  5
47A
330
478
100
AcDbEntity
  8
1
  6
Continuous
 62
     2
100
AcDbLine
 10
-137.7180293501048
 20
164.5
 30
0.0
 11
-137.7180293501048
 21
225.298688882024
 31
0.0
  0
LINE
  5
47B
330
478
100
AcDbEntity
  8
1
  6
Continuous
 62
     2
100
AcDbLine
 10
8.34825414989533
 20
164.762155334957
 30
0.0
 11
8.34825414989533
 21
225.298688882024
 31
0.0
  0
SOLID
  5
47C
330
478
100
AcDbEntity
  8
1
 62
     2
100
AcDbTrace
 10
-130.7180293501048
 20
224.2202563651358
 30
0.0
 11
-130.7180293501048
 21
222.3771213989122
 31
0.0
 12
-137.7180293501048
 22
223.298688882024
 32
0.0
 13
-137.7180293501048
 23
223.298688882024
 33
0.0
  0
SOLID
  5
47D
330
478
100
AcDbEntity
  8
1
 62
     2
100
AcDbTrace
 10
1.34825414989533
 20
222.3771213989122
 30
0.0
 11
1.34825414989533
 21
224.2202563651358
 31
0.0
 12
8.34825414989533
 22
223.298688882024
 32
0.0
 13
8.34825414989533
 23
223.298688882024
 33
0.0
  0
MTEXT
  5
47E
330
478
100
AcDbEntity
  8
1
 62
     3
100
AcDbMText
 10
-63.4066884023814
 20
229.398688882024
 30
0.0
 40
7.0
 41
0.0
 71
     7
 72
     1
  1
q
  7
CONVERTER_11
 11
0.9999999999970621
 21
2.424068405545307E-6
 31
0.0
 73
     1
 44
0.60024009603842
  0
ENDBLK
  5
480
330
478
100
AcDbEntity
  8
0
100
AcDbBlockEnd
  0
BLOCK
  5
48C
330
483
100
AcDbEntity
  8
0
100
AcDbBlockBegin
  2
*D17
 70
     1
 71
     0
 10
0.0
 20
0.0
 30
0.0
  3
*D17
  1

  0
LINE
  5
484
330
483
100
AcDbEntity
  8
1
  6
Continuous
 62
     2
100
AcDbLine
 10
-123.7180293501048
 20
202.93772983871
 30
0.0
 11
-109.7180293501048
 21
202.93772983871
 31
0.0
  0
LINE
  5
485
330
483
100
AcDbEntity
  8
1
  6
Continuous
 62
     2
100
AcDbLine
 10
-137.7180293501048
 20
202.93772983871
 30
0.0
 11
-123.7180293501048
 21
202.93772983871
 31
0.0
  0
LINE
  5
486
330
483
100
AcDbEntity
  8
1
  6
Continuous
 62
     2
100
AcDbLine
 10
-151.7180293501048
 20
202.93772983871
 30
0.0
 11
-137.7180293501048
 21
202.93772983871
 31
0.0
  0
LINE
  5
487
330
483
100
AcDbEntity
  8
1
  6
Continuous
 62
     2
100
AcDbLine
 10
-137.7180293501048
 20
164.5
 30
0.0
 11
-137.7180293501048
 21
204.93772983871
 31
0.0
  0
LINE
  5
488
330
483
100
AcDbEntity
  8
1
  6
Continuous
 62
     2
100
AcDbLine
 10
-123.7180293501048
 20
167.0
 30
0.0
 11
-123.7180293501048
 21
204.93772983871
 31
0.0
  0
SOLID
  5
489
330
483
100
AcDbEntity
  8
1
 62
     2
100
AcDbTrace
 10
-144.7180293501048
 20
202.0161623555982
 30
0.0
 11
-144.7180293501048
 21
203.8592973218218
 31
0.0
 12
-137.7180293501048
 22
202.93772983871
 32
0.0
 13
-137.7180293501048
 23
202.93772983871
 33
0.0
  0
SOLID
  5
48A
330
483
100
AcDbEntity
  8
1
 62
     2
100
AcDbTrace
 10
-116.7180293501048
 20
203.8592973218218
 30
0.0
 11
-116.7180293501048
 21
202.0161623555982
 31
0.0
 12
-123.7180293501048
 22
202.93772983871
 32
0.0
 13
-123.7180293501048
 23
202.93772983871
 33
0.0
  0
MTEXT
  5
48B
330
483
100
AcDbEntity
  8
1
 62
     3
100
AcDbMText
 10
-134.366318800404
 20
206.93772983871
 30
0.0
 40
7.0
 41
0.0
 71
     7
 72
     1
  1
14
  7
CONVERTER_11
 11
0.9999999999970621
 21
2.424068405545307E-6
 31
0.0
 73
     1
 44
0.60024009603842
  0
ENDBLK
  5
48D
330
483
100
AcDbEntity
  8
0
100
AcDbBlockEnd
  0
BLOCK
  5
497
330
490
100
AcDbEntity
  8
0
100
AcDbBlockBegin
  2
*D18
 70
     1
 71
     0
 10
0.0
 20
0.0
 30
0.0
  3
*D18
  1

  0
LINE
  5
491
330
490
100
AcDbEntity
  8
1
  6
Continuous
 62
     2
100
AcDbLine
 10
44.28197064989518
 20
241.338591679989
 30
0.0
 11
-137.7180293501048
 21
241.338591679989
 31
0.0
  0
LINE
  5
492
330
490
100
AcDbEntity
  8
1
  6
Continuous
 62
     2
100
AcDbLine
 10
44.28197064989518
 20
167.0
 30
0.0
 11
44.28197064989518
 21
243.338591679989
 31
0.0
  0
LINE
  5
493
330
490
100
AcDbEntity
  8
1
  6
Continuous
 62
     2
100
AcDbLine
 10
-137.7180293501048
 20
167.0
 30
0.0
 11
-137.7180293501048
 21
243.338591679989
 31
0.0
  0
SOLID
  5
494
330
490
100
AcDbEntity
  8
1
 62
     2
100
AcDbTrace
 10
37.28197064989518
 20
240.4170241968772
 30
0.0
 11
37.28197064989518
 21
242.2601591631008
 31
0.0
 12
44.28197064989518
 22
241.338591679989
 32
0.0
 13
44.28197064989518
 23
241.338591679989
 33
0.0
  0
SOLID
  5
495
330
490
100
AcDbEntity
  8
1
 62
     2
100
AcDbTrace
 10
-130.7180293501048
 20
242.2601591631008
 30
0.0
 11
-130.7180293501048
 21
240.4170241968772
 31
0.0
 12
-137.7180293501048
 22
241.338591679989
 32
0.0
 13
-137.7180293501048
 23
241.338591679989
 33
0.0
  0
MTEXT
  5
496
330
490
100
AcDbEntity
  8
1
 62
     3
100
AcDbMText
 10
-56.2587266622638
 20
245.338591679989
 30
0.0
 40
7.0
 41
0.0
 71
     7
 72
     1
  1
k
  7
CONVERTER_11
 11
0.9999999999970621
 21
2.424068405545307E-6
 31
0.0
 73
     1
 44
0.60024009603842
  0
ENDBLK
  5
498
330
490
100
AcDbEntity
  8
0
100
AcDbBlockEnd
  0
BLOCK
  5
4A4
330
49B
100
AcDbEntity
  8
0
100
AcDbBlockBegin
  2
*D19
 70
     1
 71
     0
 10
0.0
 20
0.0
 30
0.0
  3
*D19
  1

  0
LINE
  5
49C
330
49B
100
AcDbEntity
  8
1
  6
Continuous
 62
     2
100
AcDbLine
 10
-123.7180293501048
 20
181.694726959309
 30
0.0
 11
-137.7180293501048
 21
181.694726959309
 31
0.0
  0
LINE
  5
49D
330
49B
100
AcDbEntity
  8
1
  6
Continuous
 62
     2
100
AcDbLine
 10
-141.2180293501048
 20
181.694726959309
 30
0.0
 11
-137.7180293501048
 21
181.694726959309
 31
0.0
  0
LINE
  5
49E
330
49B
100
AcDbEntity
  8
1
  6
Continuous
 62
     2
100
AcDbLine
 10
-141.2180293501048
 20
181.694726959309
 30
0.0
 11
-155.2180293501048
 21
181.694726959309
 31
0.0
  0
LINE
  5
49F
330
49B
100
AcDbEntity
  8
1
  6
Continuous
 62
     2
100
AcDbLine
 10
-141.2180293501048
 20
164.5
 30
0.0
 11
-141.2180293501048
 21
183.694726959309
 31
0.0
  0
LINE
  5
4A0
330
49B
100
AcDbEntity
  8
1
  6
Continuous
 62
     2
100
AcDbLine
 10
-137.7180293501048
 20
164.5
 30
0.0
 11
-137.7180293501048
 21
183.694726959309
 31
0.0
  0
SOLID
  5
4A1
330
49B
100
AcDbEntity
  8
1
 62
     2
100
AcDbTrace
 10
-148.2180293501048
 20
180.7731594761972
 30
0.0
 11
-148.2180293501048
 21
182.6162944424208
 31
0.0
 12
-141.2180293501048
 22
181.694726959309
 32
0.0
 13
-141.2180293501048
 23
181.694726959309
 33
0.0
  0
SOLID
  5
4A2
330
49B
100
AcDbEntity
  8
1
 62
     2
100
AcDbTrace
 10
-130.7180293501048
 20
182.6162944424208
 30
0.0
 11
-130.7180293501048
 21
180.7731594761972
 31
0.0
 12
-137.7180293501048
 22
181.694726959309
 32
0.0
 13
-137.7180293501048
 23
181.694726959309
 33
0.0
  0
MTEXT
  5
4A3
330
49B
100
AcDbEntity
  8
1
 62
     3
100
AcDbMText
 10
-154.061271048102
 20
185.694726959309
 30
0.0
 40
7.0
 41
0.0
 71
     7
 72
     1
  1
3.5
  7
CONVERTER_11
 11
0.9999999999970621
 21
2.424068405545307E-6
 31
0.0
 73
     1
 44
0.60024009603842
  0
ENDBLK
  5
4A5
330
49B
100
AcDbEntity
  8
0
100
AcDbBlockEnd
  0
BLOCK
  5
4AF
330
4A8
100
AcDbEntity
  8
0
100
AcDbBlockBegin
  2
*D20
 70
     1
 71
     0
 10
0.0
 20
0.0
 30
0.0
  3
*D20
  1

  0
LINE
  5
4A9
330
4A8
100
AcDbEntity
  8
1
  6
Continuous
 62
     2
100
AcDbLine
 10
-187.7180293501048
 20
223.060633136555
 30
0.0
 11
-137.7180293501048
 21
223.060633136555
 31
0.0
  0
LINE
  5
4AA
330
4A8
100
AcDbEntity
  8
1
  6
Continuous
 62
     2
100
AcDbLine
 10
-187.7180293501048
 20
121.5
 30
0.0
 11
-187.7180293501048
 21
225.060633136555
 31
0.0
  0
LINE
  5
4AB
330
4A8
100
AcDbEntity
  8
1
  6
Continuous
 62
     2
100
AcDbLine
 10
-137.7180293501048
 20
164.5
 30
0.0
 11
-137.7180293501048
 21
225.060633136555
 31
0.0
  0
SOLID
  5
4AC
330
4A8
100
AcDbEntity
  8
1
 62
     2
100
AcDbTrace
 10
-180.7180293501048
 20
223.9822006196668
 30
0.0
 11
-180.7180293501048
 21
222.1390656534432
 31
0.0
 12
-187.7180293501048
 22
223.060633136555
 32
0.0
 13
-187.7180293501048
 23
223.060633136555
 33
0.0
  0
SOLID
  5
4AD
330
4A8
100
AcDbEntity
  8
1
 62
     2
100
AcDbTrace
 10
-144.7180293501048
 20
222.1390656534432
 30
0.0
 11
-144.7180293501048
 21
223.9822006196668
 31
0.0
 12
-137.7180293501048
 22
223.060633136555
 32
0.0
 13
-137.7180293501048
 23
223.060633136555
 33
0.0
  0
MTEXT
  5
4AE
330
4A8
100
AcDbEntity
  8
1
 62
     3
100
AcDbMText
 10
-166.619240501159
 20
227.060633136555
 30
0.0
 40
7.0
 41
0.0
 71
     7
 72
     1
  1
50
  7
CONVERTER_11
 11
0.9999999999970621
 21
2.424068405545307E-6
 31
0.0
 73
     1
 44
0.60024009603842
  0
ENDBLK
  5
4B0
330
4A8
100
AcDbEntity
  8
0
100
AcDbBlockEnd
  0
BLOCK
  5
4BA
330
4B3
100
AcDbEntity
  8
0
100
AcDbBlockBegin
  2
*D21
 70
     1
 71
     0
 10
0.0
 20
0.0
 30
0.0
  3
*D21
  1

  0
LINE
  5
4B4
330
4B3
100
AcDbEntity
  8
1
  6
Continuous
 62
     2
100
AcDbLine
 10
-225.129867241957
 20
54.50000000000001
 30
0.0
 11
-225.129867241957
 21
164.5
 31
0.0
  0
LINE
  5
4B5
330
4B3
100
AcDbEntity
  8
1
  6
Continuous
 62
     2
100
AcDbLine
 10
-141.2180293501048
 20
164.5
 30
0.0
 11
-227.129867241957
 21
164.5
 31
0.0
  0
LINE
  5
4B6
330
4B3
100
AcDbEntity
  8
1
  6
Continuous
 62
     2
100
AcDbLine
 10
-141.2180293501048
 20
54.50000000000001
 30
0.0
 11
-227.129867241957
 21
54.50000000000001
 31
0.0
  0
SOLID
  5
4B7
330
4B3
100
AcDbEntity
  8
1
 62
     2
100
AcDbTrace
 10
-224.2082997588452
 20
157.5
 30
0.0
 11
-226.0514347250688
 21
157.5
 31
0.0
 12
-225.129867241957
 22
164.5
 32
0.0
 13
-225.129867241957
 23
164.5
 33
0.0
  0
SOLID
  5
4B8
330
4B3
100
AcDbEntity
  8
1
 62
     2
100
AcDbTrace
 10
-226.0514347250688
 20
61.50000000000001
 30
0.0
 11
-224.2082997588452
 21
61.50000000000001
 31
0.0
 12
-225.129867241957
 22
54.50000000000001
 32
0.0
 13
-225.129867241957
 23
54.50000000000001
 33
0.0
  0
MTEXT
  5
4B9
330
4B3
100
AcDbEntity
  8
1
 62
     3
100
AcDbMText
 10
-232.454867241957
 20
92.025194137463
 30
0.0
 40
7.0
 41
0.0
 71
     7
 72
     1
  1
\C3;{\Fgdt;n}\C3;\C3;110\C2;\H4.2;\S^ j6;
  7
CONVERTER_11
 11
0.0
 21
1.0
 31
0.0
 73
     1
 44
0.60024009603842
  0
ENDBLK
  5
4BB
330
4B3
100
AcDbEntity
  8
0
100
AcDbBlockEnd
  0
BLOCK
  5
4C5
330
4BE
100
AcDbEntity
  8
0
100
AcDbBlockBegin
  2
*D22
 70
     1
 71
     0
 10
0.0
 20
0.0
 30
0.0
  3
*D22
  1

  0
LINE
  5
4BF
330
4BE
100
AcDbEntity
  8
1
  6
Continuous
 62
     2
100
AcDbLine
 10
158.0
 20
241.338591679989
 30
0.0
 11
273.0
 21
241.338591679989
 31
0.0
  0
LINE
  5
4C0
330
4BE
100
AcDbEntity
  8
1
  6
Continuous
 62
     2
100
AcDbLine
 10
158.0
 20
158.0660171779821
 30
0.0
 11
158.0
 21
243.338591679989
 31
0.0
  0
LINE
  5
4C1
330
4BE
100
AcDbEntity
  8
1
  6
Continuous
 62
     2
100
AcDbLine
 10
273.0
 20
158.0660171779821
 30
0.0
 11
273.0
 21
243.338591679989
 31
0.0
  0
SOLID
  5
4C2
330
4BE
100
AcDbEntity
  8
1
 62
     2
100
AcDbTrace
 10
165.0
 20
242.2601591631008
 30
0.0
 11
165.0
 21
240.4170241968772
 31
0.0
 12
158.0
 22
241.338591679989
 32
0.0
 13
158.0
 23
241.338591679989
 33
0.0
  0
SOLID
  5
4C3
330
4BE
100
AcDbEntity
  8
1
 62
     2
100
AcDbTrace
 10
266.0
 20
240.4170241968772
 30
0.0
 11
266.0
 21
242.2601591631008
 31
0.0
 12
273.0
 22
241.338591679989
 32
0.0
 13
273.0
 23
241.338591679989
 33
0.0
  0
MTEXT
  5
4C4
330
4BE
100
AcDbEntity
  8
1
 62
     3
100
AcDbMText
 10
201.9017427220527
 20
245.3385638516837
 30
0.0
 40
7.0
 41
0.0
 71
     7
 72
     1
  1
\C3;{\Fgdt;8}\C3;115
  7
CONVERTER_11
 11
0.9999999999970621
 21
2.424068405545307E-6
 31
0.0
 73
     1
 44
0.60024009603842
  0
ENDBLK
  5
4C6
330
4BE
100
AcDbEntity
  8
0
100
AcDbBlockEnd
  0
BLOCK
  5
4D0
330
4C9
100
AcDbEntity
  8
0
100
AcDbBlockBegin
  2
*D23
 70
     1
 71
     0
 10
0.0
 20
0.0
 30
0.0
  3
*D23
  1

  0
LINE
  5
4CA
330
4C9
100
AcDbEntity
  8
1
  6
Continuous
 62
     2
100
AcDbLine
 10
303.30526261274
 20
52.0
 30
0.0
 11
303.30526261274
 21
206.9998866158472
 31
0.0
  0
LINE
  5
4CB
330
4C9
100
AcDbEntity
  8
1
  6
Continuous
 62
     2
100
AcDbLine
 10
229.5
 20
206.9998866158472
 30
0.0
 11
305.30526261274
 21
206.9998866158472
 31
0.0
  0
LINE
  5
4CC
330
4C9
100
AcDbEntity
  8
1
  6
Continuous
 62
     2
100
AcDbLine
 10
264.0660171779821
 20
52.0
 30
0.0
 11
305.30526261274
 21
52.0
 31
0.0
  0
SOLID
  5
4CD
330
4C9
100
AcDbEntity
  8
1
 62
     2
100
AcDbTrace
 10
302.3836951296283
 20
59.0
 30
0.0
 11
304.2268300958518
 21
59.0
 31
0.0
 12
303.30526261274
 22
52.0
 32
0.0
 13
303.30526261274
 23
52.0
 33
0.0
  0
SOLID
  5
4CE
330
4C9
100
AcDbEntity
  8
1
 62
     2
100
AcDbTrace
 10
304.2268300958518
 20
199.9998866158472
 30
0.0
 11
302.3836951296283
 21
199.9998866158472
 31
0.0
 12
303.30526261274
 22
206.9998866158472
 32
0.0
 13
303.30526261274
 23
206.9998866158472
 33
0.0
  0
MTEXT
  5
4CF
330
4C9
100
AcDbEntity
  8
1
 62
     3
100
AcDbMText
 10
299.30526261274
 20
119.9686687221686
 30
0.0
 40
7.0
 41
0.0
 71
     7
 72
     1
  1
155
  7
CONVERTER_11
 11
0.0
 21
1.0
 31
0.0
 73
     1
 44
0.60024009603842
  0
ENDBLK
  5
4D1
330
4C9
100
AcDbEntity
  8
0
100
AcDbBlockEnd
  0
BLOCK
  5
4DB
330
4D4
100
AcDbEntity
  8
0
100
AcDbBlockBegin
  2
*D24
 70
     1
 71
     0
 10
0.0
 20
0.0
 30
0.0
  3
*D24
  1

  0
LINE
  5
4D5
330
4D4
100
AcDbEntity
  8
1
  6
Continuous
 62
     2
100
AcDbLine
 10
201.5
 20
223.060633136555
 30
0.0
 11
229.5
 21
223.060633136555
 31
0.0
  0
LINE
  5
4D6
330
4D4
100
AcDbEntity
  8
1
  6
Continuous
 62
     2
100
AcDbLine
 10
201.5
 20
208.5485974988193
 30
0.0
 11
201.5
 21
225.060633136555
 31
0.0
  0
LINE
  5
4D7
330
4D4
100
AcDbEntity
  8
1
  6
Continuous
 62
     2
100
AcDbLine
 10
229.5
 20
209.269893067818
 30
0.0
 11
229.5
 21
225.060633136555
 31
0.0
  0
SOLID
  5
4D8
330
4D4
100
AcDbEntity
  8
1
 62
     2
100
AcDbTrace
 10
208.5
 20
223.9822006196668
 30
0.0
 11
208.5
 21
222.1390656534432
 31
0.0
 12
201.5
 22
223.060633136555
 32
0.0
 13
201.5
 23
223.060633136555
 33
0.0
  0
SOLID
  5
4D9
330
4D4
100
AcDbEntity
  8
1
 62
     2
100
AcDbTrace
 10
222.5
 20
222.1390656534432
 30
0.0
 11
222.5
 21
223.9822006196668
 31
0.0
 12
229.5
 22
223.060633136555
 32
0.0
 13
229.5
 23
223.060633136555
 33
0.0
  0
MTEXT
  5
4DA
330
4D4
100
AcDbEntity
  8
1
 62
     3
100
AcDbMText
 10
215.077736176246
 20
227.060633136555
 30
0.0
 40
7.0
 41
0.0
 71
     7
 72
     1
  1
28
  7
CONVERTER_11
 11
0.9999999999970621
 21
2.424068405545307E-6
 31
0.0
 73
     1
 44
0.60024009603842
  0
ENDBLK
  5
4DC
330
4D4
100
AcDbEntity
  8
0
100
AcDbBlockEnd
  0
BLOCK
  5
4E6
330
4DF
100
AcDbEntity
  8
0
100
AcDbBlockBegin
  2
*D25
 70
     1
 71
     0
 10
0.0
 20
0.0
 30
0.0
  3
*D25
  1

  0
LINE
  5
4E0
330
4DF
100
AcDbEntity
  8
1
  6
Continuous
 62
     2
100
AcDbLine
 10
-203.146644358497
 20
97.5
 30
0.0
 11
-203.146644358497
 21
121.5
 31
0.0
  0
LINE
  5
4E1
330
4DF
100
AcDbEntity
  8
1
  6
Continuous
 62
     2
100
AcDbLine
 10
-187.7180293501048
 20
121.5
 30
0.0
 11
-205.146644358497
 21
121.5
 31
0.0
  0
LINE
  5
4E2
330
4DF
100
AcDbEntity
  8
1
  6
Continuous
 62
     2
100
AcDbLine
 10
-187.7180293501048
 20
97.5
 30
0.0
 11
-205.146644358497
 21
97.5
 31
0.0
  0
SOLID
  5
4E3
330
4DF
100
AcDbEntity
  8
1
 62
     2
100
AcDbTrace
 10
-204.0682118416088
 20
104.5
 30
0.0
 11
-202.2250768753852
 21
104.5
 31
0.0
 12
-203.146644358497
 22
97.5
 32
0.0
 13
-203.146644358497
 23
97.5
 33
0.0
  0
SOLID
  5
4E4
330
4DF
100
AcDbEntity
  8
1
 62
     2
100
AcDbTrace
 10
-202.2250768753852
 20
114.5
 30
0.0
 11
-204.0682118416088
 21
114.5
 31
0.0
 12
-203.146644358497
 22
121.5
 32
0.0
 13
-203.146644358497
 23
121.5
 33
0.0
  0
MTEXT
  5
4E5
330
4DF
100
AcDbEntity
  8
1
 62
     3
100
AcDbMText
 10
-208.896644358497
 20
92.193194137463
 30
0.0
 40
7.0
 41
0.0
 71
     7
 72
     1
  1
\C3;{\Fgdt;n}\C3;\C3;24\C2;\H4.2;\Sk5^ ;
  7
CONVERTER_11
 11
0.0
 21
1.0
 31
0.0
 73
     1
 44
0.60024009603842
  0
ENDBLK
  5
4E7
330
4DF
100
AcDbEntity
  8
0
100
AcDbBlockEnd
  0
BLOCK
  5
4F1
330
4EA
100
AcDbEntity
  8
0
100
AcDbBlockBegin
  2
*D26
 70
     1
 71
     0
 10
0.0
 20
0.0
 30
0.0
  3
*D26
  1

  0
LINE
  5
4EB
330
4EA
100
AcDbEntity
  8
1
  6
Continuous
 62
     2
100
AcDbLine
 10
-187.7180293501048
 20
148.697395915515
 30
0.0
 11
-137.7180293501048
 21
148.697395915515
 31
0.0
  0
LINE
  5
4EC
330
4EA
100
AcDbEntity
  8
1
  6
Continuous
 62
     2
100
AcDbLine
 10
-187.7180293501048
 20
121.5
 30
0.0
 11
-187.7180293501048
 21
150.697395915515
 31
0.0
  0
LINE
  5
4ED
330
4EA
100
AcDbEntity
  8
1
  6
Continuous
 62
     2
100
AcDbLine
 10
-137.7180293501048
 20
122.0
 30
0.0
 11
-137.7180293501048
 21
150.697395915515
 31
0.0
  0
SOLID
  5
4EE
330
4EA
100
AcDbEntity
  8
1
 62
     2
100
AcDbTrace
 10
-144.7180293501048
 20
147.7758284324032
 30
0.0
 11
-144.7180293501048
 21
149.6189633986268
 31
0.0
 12
-137.7180293501048
 22
148.697395915515
 32
0.0
 13
-137.7180293501048
 23
148.697395915515
 33
0.0
  0
SOLID
  5
4EF
330
4EA
100
AcDbEntity
  8
1
 62
     2
100
AcDbTrace
 10
-180.7180293501048
 20
149.6189633986268
 30
0.0
 11
-180.7180293501048
 21
147.7758284324032
 31
0.0
 12
-187.7180293501048
 22
148.697395915515
 32
0.0
 13
-187.7180293501048
 23
148.697395915515
 33
0.0
  0
MTEXT
  5
4F0
330
4EA
100
AcDbEntity
  8
1
 62
     3
100
AcDbMText
 10
-167.77264376926
 20
152.697395915515
 30
0.0
 40
7.0
 41
0.0
 71
     7
 72
     1
  1
50
  7
CONVERTER_11
 11
0.9999999999970621
 21
2.424068405545307E-6
 31
0.0
 73
     1
 44
0.60024009603842
  0
ENDBLK
  5
4F2
330
4EA
100
AcDbEntity
  8
0
100
AcDbBlockEnd
  0
BLOCK
  5
4FA
330
4F5
100
AcDbEntity
  8
0
100
AcDbBlockBegin
  2
*D27
 70
     1
 71
     0
 10
0.0
 20
0.0
 30
0.0
  3
*D27
  1

  0
LINE
  5
4F6
330
4F5
100
AcDbEntity
  8
1
  6
Continuous
 62
     2
100
AcDbLine
 10
115.2743038682974
 20
103.6596789537205
 30
0.0
 11
151.5270583183811
 21
139.9124334038042
 31
0.0
  0
LINE
  5
4F7
330
4F5
100
AcDbEntity
  8
1
  6
Continuous
 62
     2
100
AcDbLine
 10
166.9339828220179
 20
52.0
 30
0.0
 11
113.8600903059243
 21
105.0738925160936
 31
0.0
  0
SOLID
  5
4F8
330
4F5
100
AcDbEntity
  8
1
 62
     2
100
AcDbTrace
 10
119.5724047199739
 20
109.2610730386557
 30
0.0
 11
120.8756979532326
 21
107.957779805397
 31
0.0
 12
115.2743038682974
 22
103.6596789537205
 32
0.0
 13
115.2743038682974
 23
103.6596789537205
 33
0.0
  0
MTEXT
  5
4F9
330
4F5
100
AcDbEntity
  8
1
 62
     3
100
AcDbMText
 10
132.2654695988595
 20
126.307698933775
 30
0.0
 40
7.0
 41
0.0
 71
     7
 72
     1
  1
\C3;{\Fgdt;n}\C3;150
  7
CONVERTER_11
 11
0.7071067811865474
 21
0.7071067811865477
 31
0.0
 73
     1
 44
0.60024009603842
  0
ENDBLK
  5
4FB
330
4F5
100
AcDbEntity
  8
0
100
AcDbBlockEnd
  0
BLOCK
  5
501
330
4FD
100
AcDbEntity
  8
0
100
AcDbBlockBegin
  2
*D28
 70
     1
 71
     0
 10
0.0
 20
0.0
 30
0.0
  3
*D28
  1

  0
LINE
  5
4FE
330
4FD
100
AcDbEntity
  8
1
  6
Continuous
 62
     2
100
AcDbLine
 10
215.5
 20
109.5
 30
0.0
 11
162.1889993486855
 21
72.31213625985555
 31
0.0
  0
SOLID
  5
4FF
330
4FD
100
AcDbEntity
  8
1
 62
     2
100
AcDbTrace
 10
167.4029359420685
 20
77.07282442713884
 30
0.0
 11
168.4574321263549
 21
75.5611418212188
 31
0.0
 12
162.1889993486855
 22
72.31213625985555
 32
0.0
 13
162.1889993486855
 23
72.31213625985555
 33
0.0
  0
MTEXT
  5
500
330
4FD
100
AcDbEntity
  8
1
 62
     3
100
AcDbMText
 10
172.8971521514516
 20
84.65880616468469
 30
0.0
 40
7.0
 41
0.0
 71
     7
 72
     1
  1
\C3;{\Fgdt;n}\C3;130
  7
CONVERTER_11
 11
0.8201692407894534
 21
0.5721209806176067
 31
0.0
 73
     1
 44
0.60024009603842
  0
ENDBLK
  5
502
330
4FD
100
AcDbEntity
  8
0
100
AcDbBlockEnd
  0
BLOCK
  5
50D
330
504
100
AcDbEntity
  8
0
100
AcDbBlockBegin
  2
*D29
 70
     1
 71
     0
 10
0.0
 20
0.0
 30
0.0
  3
*D29
  1

  0
LINE
  5
505
330
504
100
AcDbEntity
  8
1
  6
Continuous
 62
     2
100
AcDbLine
 10
150.8146712034112
 20
29.11540447177809
 30
0.0
 11
164.8143774352909
 21
29.02471036463981
 31
0.0
  0
LINE
  5
506
330
504
100
AcDbEntity
  8
1
  6
Continuous
 62
     2
100
AcDbLine
 10
164.8143774352909
 20
29.02471036463981
 30
0.0
 11
173.8141885843564
 21
28.96640701005091
 31
0.0
  0
LINE
  5
507
330
504
100
AcDbEntity
  8
1
  6
Continuous
 62
     2
100
AcDbLine
 10
173.8141885843564
 20
28.96640701005091
 30
0.0
 11
187.8138948162361
 21
28.87571290291263
 31
0.0
  0
LINE
  5
508
330
504
100
AcDbEntity
  8
1
  6
Continuous
 62
     2
100
AcDbLine
 10
174.0379647974072
 20
63.50890754557997
 30
0.0
 11
173.8012322833367
 21
26.96644897692525
 31
0.0
  0
LINE
  5
509
330
504
100
AcDbEntity
  8
1
  6
Continuous
 62
     2
100
AcDbLine
 10
165.0381536483416
 20
63.56721090016888
 30
0.0
 11
164.8014211342711
 21
27.02475233151414
 31
0.0
  0
SOLID
  5
50A
330
504
100
AcDbEntity
  8
1
 62
     2
100
AcDbTrace
 10
157.8085542664904
 20
28.14850927275056
 30
0.0
 11
157.8204943722116
 21
29.99160556366735
 31
0.0
 12
164.8143774352909
 22
29.02471036463981
 32
0.0
 13
164.8143774352909
 23
29.02471036463981
 33
0.0
  0
SOLID
  5
50B
330
504
100
AcDbEntity
  8
1
 62
     2
100
AcDbTrace
 10
180.8200117531569
 20
29.84260810194016
 30
0.0
 11
180.8080716474357
 21
27.99951181102337
 31
0.0
 12
173.8141885843564
 22
28.96640701005091
 32
0.0
 13
173.8141885843564
 23
28.96640701005091
 33
0.0
  0
MTEXT
  5
50C
330
504
100
AcDbEntity
  8
1
 62
     3
100
AcDbMText
 10
146.8679016076097
 20
33.14105671126832
 30
0.0
 40
7.0
 41
0.0
 71
     7
 72
     1
  1
\C3;{\Fgdt;n}\C3;9
  7
CONVERTER_11
 11
0.9999790165628334
 21
-0.006478150509877376
 31
0.0
 73
     1
 44
0.60024009603842
  0
ENDBLK
  5
50E
330
504
100
AcDbEntity
  8
0
100
AcDbBlockEnd
  0
BLOCK
  5
519
330
510
100
AcDbEntity
  8
0
100
AcDbBlockBegin
  2
*D30
 70
     1
 71
     0
 10
0.0
 20
0.0
 30
0.0
  3
*D30
  1

  0
LINE
  5
511
330
510
100
AcDbEntity
  8
1
  6
Continuous
 62
     2
100
AcDbLine
 10
261.4619407771256
 20
63.53805922287438
 30
0.0
 11
281.4533907987057
 21
43.54660920129422
 31
0.0
  0
LINE
  5
512
330
510
100
AcDbEntity
  8
1
  6
Continuous
 62
     2
100
AcDbLine
 10
215.5
 20
38.0
 30
0.0
 11
215.5
 21
16.22782024797742
 31
0.0
  0
LINE
  5
513
330
510
100
AcDbEntity
  8
1
  6
Continuous
 62
     2
100
AcDbLine
 10
281.4533907987057
 20
43.54660920129422
 30
0.0
 11
282.8676043610788
 21
42.13239563892113
 31
0.0
  0
LINE
  5
514
330
510
100
AcDbEntity
  8
1
  6
Continuous
 62
     2
100
AcDbLine
 10
215.5
 20
16.22782024797742
 30
0.0
 11
215.5
 21
14.22782024797742
 31
0.0
  0
ARC
  5
515
330
510
100
AcDbEntity
  8
1
  6
Continuous
 62
     2
100
AcDbCircle
 10
215.5
 20
109.5
 30
0.0
 40
93.27217975202255
100
AcDbArc
 50
-90.0
 51
-45.00000000000003
  0
SOLID
  5
516
330
510
100
AcDbEntity
  8
1
 62
     2
100
AcDbTrace
 10
222.4604989232564
 20
17.41134944714191
 30
0.0
 11
222.5296455710094
 21
15.56951198286327
 31
0.0
 12
215.5
 22
16.22782024797742
 32
0.0
 13
215.5
 23
16.22782024797742
 33
0.0
  0
SOLID
  5
517
330
510
100
AcDbEntity
  8
1
 62
     2
100
AcDbTrace
 10
276.9481749844804
 20
38.11040491032211
 30
0.0
 11
275.694693287168
 21
39.46167473467936
 31
0.0
 12
281.4533907987057
 22
43.54660920129422
 32
0.0
 13
281.4533907987057
 23
43.54660920129422
 33
0.0
  0
MTEXT
  5
518
330
510
100
AcDbEntity
  8
1
 62
     3
100
AcDbMText
 10
248.465471292403
 20
26.30898257535745
 30
0.0
 40
7.0
 41
0.0
 71
     7
 72
     1
  1
45{\Fgdt;~}
  7
CONVERTER_11
 11
0.9021049411491762
 21
0.4315167148028468
 31
0.0
 73
     1
 44
0.60024009603842
  0
ENDBLK
  5
51A
330
510
100
AcDbEntity
  8
0
100
AcDbBlockEnd
  0
ENDSEC
  0
SECTION
  2
ENTITIES
  0
INSERT
  5
55
330
1F
100
AcDbEntity
  8
0
100
AcDbBlockReference
  2
Winkelflanschdose_12-polig_drehbar
 10
360.2648307690583
 20
274.139896652593
 30
0.0
  0
INSERT
  5
56
330
1F
100
AcDbEntity
  8
1
100
AcDbBlockReference
  2
Steckerplatte
 10
3.2819721498952
 20
163.762155334957
 30
0.0
  0
INSERT
  5
57
330
1F
100
AcDbEntity
  8
1
100
AcDbBlockReference
  2
M2_5x6_DIN_7985
 10
6.63249414989519
 20
168.9998860540667
 30
0.0
  0
INSERT
  5
58
330
1F
100
AcDbEntity
  8
0
100
AcDbBlockReference
  2
Winkelflanschdose_8-polig_drehbar
 10
636.191638802001
 20
-171.725200247529
 30
0.0
  0
INSERT
  5
59
330
1F
100
AcDbEntity
  8
1
100
AcDbBlockReference
  2
M3x10_DIN_84
 10
3.4819721498952
 20
166.4998822954443
 30
0.0
  0
INSERT
  5
5A
330
1F
100
AcDbEntity
  8
1
100
AcDbBlockReference
  2
Lagerschild
 10
-141.2180293501048
 20
37.99999999999999
 30
0.0
  0
INSERT
  5
5B
330
1F
100
AcDbEntity
  8
1
100
AcDbBlockReference
  2
Deckel
 10
-385.25
 20
29.75
 30
0.0
  0
INSERT
  5
5C
330
1F
100
AcDbEntity
  8
1
100
AcDbBlockReference
  2
Rotor
 10
-189.7180293501048
 20
97.5
 30
0.0
  0
INSERT
  5
5D
330
1F
100
AcDbEntity
  8
1
100
AcDbBlockReference
  2
Lagerschild_B-S
 10
22.28197064989519
 20
52.0
 30
0.0
  0
INSERT
  5
5E
330
1F
100
AcDbEntity
  8
1
100
AcDbBlockReference
  2
tb_frame_A3
 10
0.0
 20
0.0
 30
0.0
 41
2.0
 42
2.0
 43
2.0
  0
POINT
  5
419
330
1F
100
AcDbEntity
  8
1
 62
     3
 60
     1
100
AcDbPoint
 10
-101.2180293501048
 20
52.95
 30
0.0
  0
POINT
  5
41A
330
1F
100
AcDbEntity
  8
1
 62
     3
 60
     1
100
AcDbPoint
 10
-104.2180293501048
 20
72.25
 30
0.0
  0
POINT
  5
41B
330
1F
100
AcDbEntity
  8
1
 62
     3
 60
     1
100
AcDbPoint
 10
-104.2180293501048
 20
146.75
 30
0.0
  0
POINT
  5
41C
330
1F
100
AcDbEntity
  8
1
 62
     3
 60
     1
100
AcDbPoint
 10
-101.2180293501048
 20
72.25
 30
0.0
  0
POINT
  5
41D
330
1F
100
AcDbEntity
  8
1
 62
     3
 60
     1
100
AcDbPoint
 10
-101.2180293501048
 20
146.75
 30
0.0
  0
POINT
  5
41E
330
1F
100
AcDbEntity
  8
1
 62
     3
 60
     1
100
AcDbPoint
 10
-101.2180293501048
 20
166.05
 30
0.0
  0
POINT
  5
41F
330
1F
100
AcDbEntity
  8
1
 62
     3
 60
     1
100
AcDbPoint
 10
-101.2180293501048
 20
52.0
 30
0.0
  0
POINT
  5
420
330
1F
100
AcDbEntity
  8
1
 62
     3
 60
     1
100
AcDbPoint
 10
-101.2180293501048
 20
71.0
 30
0.0
  0
POINT
  5
421
330
1F
100
AcDbEntity
  8
1
 62
     3
 60
     1
100
AcDbPoint
 10
-101.2180293501048
 20
148.0
 30
0.0
  0
POINT
  5
422
330
1F
100
AcDbEntity
  8
1
 62
     3
 60
     1
100
AcDbPoint
 10
-101.2180293501048
 20
167.0
 30
0.0
  0
POINT
  5
423
330
1F
100
AcDbEntity
  8
1
 62
     3
 60
     1
100
AcDbPoint
 10
26.12766628955291
 20
-16.0091768346625
 30
0.0
  0
POINT
  5
424
330
1F
100
AcDbEntity
  8
1
 62
     3
 60
     1
100
AcDbPoint
 10
25.12766628955291
 20
-18.0091768346625
 30
0.0
  0
POINT
  5
425
330
1F
100
AcDbEntity
  8
1
 62
     3
 60
     1
100
AcDbPoint
 10
190.6619007312476
 20
-43.8152997279002
 30
0.0
  0
POINT
  5
426
330
1F
100
AcDbEntity
  8
1
 62
     3
 60
     1
100
AcDbPoint
 10
190.6619007312476
 20
-167.8152997279001
 30
0.0
  0
LINE
  5
427
330
1F
100
AcDbEntity
  8
1
  6
Continuous
 62
     7
100
AcDbLine
 10
-22.71802935010481
 20
72.25
 30
0.0
 11
-19.71802935010481
 21
72.25
 31
0.0
  0
LINE
  5
428
330
1F
100
AcDbEntity
  8
1
  6
Continuous
 62
     7
100
AcDbLine
 10
-22.71802935010481
 20
146.75
 30
0.0
 11
-19.71802935010481
 21
146.75
 31
0.0
  0
LINE
  5
429
330
1F
100
AcDbEntity
  8
1
  6
Continuous
 62
     7
100
AcDbLine
 10
-19.71802935010481
 20
146.75
 30
0.0
 11
-19.71802935010481
 21
72.25
 31
0.0
  0
LINE
  5
42A
330
1F
100
AcDbEntity
  8
1
  6
Continuous
 62
     7
100
AcDbLine
 10
-22.71802935010481
 20
52.0
 30
0.0
 11
-22.71802935010481
 21
72.25
 31
0.0
  0
LINE
  5
42B
330
1F
100
AcDbEntity
  8
1
  6
Continuous
 62
     7
100
AcDbLine
 10
-22.71802935010481
 20
167.0
 30
0.0
 11
-22.71802935010481
 21
146.75
 31
0.0
  0
LINE
  5
42C
330
1F
100
AcDbEntity
  8
1
  6
Continuous
 62
     7
100
AcDbLine
 10
-101.2180293501048
 20
52.0
 30
0.0
 11
-22.71802935010481
 21
52.0
 31
0.0
  0
LINE
  5
42D
330
1F
100
AcDbEntity
  8
1
  6
Continuous
 62
     7
100
AcDbLine
 10
-101.2180293501048
 20
52.95
 30
0.0
 11
-22.71802935010481
 21
52.95
 31
0.0
  0
LINE
  5
42E
330
1F
100
AcDbEntity
  8
1
  6
Continuous
 62
     7
100
AcDbLine
 10
-101.2180293501048
 20
52.95
 30
0.0
 11
-101.2180293501048
 21
52.0
 31
0.0
  0
LINE
  5
42F
330
1F
100
AcDbEntity
  8
1
  6
Continuous
 62
     7
100
AcDbLine
 10
-104.2180293501048
 20
72.25
 30
0.0
 11
-101.2180293501048
 21
72.25
 31
0.0
  0
LINE
  5
430
330
1F
100
AcDbEntity
  8
1
  6
Continuous
 62
     7
100
AcDbLine
 10
-104.2180293501048
 20
146.75
 30
0.0
 11
-101.2180293501048
 21
146.75
 31
0.0
  0
LINE
  5
431
330
1F
100
AcDbEntity
  8
1
  6
Continuous
 62
     7
100
AcDbLine
 10
-101.2180293501048
 20
72.25
 30
0.0
 11
-101.2180293501048
 21
71.0
 31
0.0
  0
LINE
  5
432
330
1F
100
AcDbEntity
  8
1
  6
Continuous
 62
     7
100
AcDbLine
 10
-101.2180293501048
 20
148.0
 30
0.0
 11
-101.2180293501048
 21
146.75
 31
0.0
  0
LINE
  5
433
330
1F
100
AcDbEntity
  8
1
  6
Continuous
 62
     7
100
AcDbLine
 10
-104.2180293501048
 20
146.75
 30
0.0
 11
-104.2180293501048
 21
72.25
 31
0.0
  0
LINE
  5
434
330
1F
100
AcDbEntity
  8
1
  6
Continuous
 62
     7
100
AcDbLine
 10
-101.2180293501048
 20
71.0
 30
0.0
 11
-22.71802935010481
 21
71.0
 31
0.0
  0
LINE
  5
435
330
1F
100
AcDbEntity
  8
1
  6
Continuous
 62
     7
100
AcDbLine
 10
-101.2180293501048
 20
72.25
 30
0.0
 11
-22.71802935010481
 21
72.25
 31
0.0
  0
LINE
  5
436
330
1F
100
AcDbEntity
  8
1
  6
Continuous
 62
     7
100
AcDbLine
 10
-101.2180293501048
 20
146.75
 30
0.0
 11
-22.71802935010481
 21
146.75
 31
0.0
  0
LINE
  5
437
330
1F
100
AcDbEntity
  8
1
  6
Continuous
 62
     7
100
AcDbLine
 10
-101.2180293501048
 20
148.0
 30
0.0
 11
-22.71802935010481
 21
148.0
 31
0.0
  0
LINE
  5
438
330
1F
100
AcDbEntity
  8
1
  6
Continuous
 62
     7
100
AcDbLine
 10
-101.2180293501048
 20
166.05
 30
0.0
 11
-22.71802935010481
 21
166.05
 31
0.0
  0
LINE
  5
439
330
1F
100
AcDbEntity
  8
1
  6
Continuous
 62
     7
100
AcDbLine
 10
-101.2180293501048
 20
167.0
 30
0.0
 11
-22.71802935010481
 21
167.0
 31
0.0
  0
LINE
  5
43A
330
1F
100
AcDbEntity
  8
1
  6
Continuous
 62
     7
100
AcDbLine
 10
-101.2180293501048
 20
167.0
 30
0.0
 11
-101.2180293501048
 21
166.05
 31
0.0
  0
LINE
  5
43B
330
1F
100
AcDbEntity
  8
1
  6
Continuous
 62
     7
100
AcDbLine
 10
-19.87233371044709
 20
-18.0091768346625
 30
0.0
 11
-18.87233371044709
 21
-16.0091768346625
 31
0.0
  0
LINE
  5
43C
330
1F
100
AcDbEntity
  8
1
  6
Continuous
 62
     7
100
AcDbLine
 10
25.12766628955291
 20
-18.0091768346625
 30
0.0
 11
26.12766628955291
 21
-16.0091768346625
 31
0.0
  0
LINE
  5
43D
330
1F
100
AcDbEntity
  8
1
  6
Continuous
 62
     7
100
AcDbLine
 10
340.6619007312476
 20
-43.8152997279002
 30
0.0
 11
340.6619007312476
 21
-110.8152997279
 31
0.0
  0
LINE
  5
43E
330
1F
100
AcDbEntity
  8
1
  6
Continuous
 62
     7
100
AcDbLine
 10
-75.33809926875259
 20
-43.81529972790008
 30
0.0
 11
-75.33809926875259
 21
-167.8152997279001
 31
0.0
  0
LINE
  5
43F
330
1F
100
AcDbEntity
  8
1
  6
Continuous
 62
     7
100
AcDbLine
 10
-1.33809926875239
 20
-43.81529972790008
 30
0.0
 11
-1.3380992687525
 21
-167.8152997279001
 31
0.0
  0
LINE
  5
440
330
1F
100
AcDbEntity
  8
1
  6
Continuous
 62
     7
100
AcDbLine
 10
308.6619007312476
 20
-43.8152997279002
 30
0.0
 11
308.6619007312476
 21
-167.8152997279001
 31
0.0
  0
LINE
  5
441
330
1F
100
AcDbEntity
  8
1
  6
Continuous
 62
     7
100
AcDbLine
 10
-203.3380992687526
 20
-43.81529972790008
 30
0.0
 11
-203.3380992687526
 21
-167.8152997279001
 31
0.0
  0
LINE
  5
442
330
1F
100
AcDbEntity
  8
1
  6
Continuous
 62
     7
100
AcDbLine
 10
340.6619007312476
 20
-167.8152997279001
 30
0.0
 11
190.6619007312476
 21
-167.8152997279001
 31
0.0
  0
LINE
  5
443
330
1F
100
AcDbEntity
  8
1
  6
Continuous
 62
     2
100
AcDbLine
 10
340.6619007312476
 20
-148.8152997279001
 30
0.0
 11
-203.3380992687526
 21
-148.8152997279001
 31
0.0
  0
LINE
  5
444
330
1F
100
AcDbEntity
  8
1
  6
Continuous
 62
     2
100
AcDbLine
 10
340.6619007312476
 20
-129.8152997279
 30
0.0
 11
-203.3380992687526
 21
-129.8152997279
 31
0.0
  0
LINE
  5
445
330
1F
100
AcDbEntity
  8
1
  6
Continuous
 62
     7
100
AcDbLine
 10
340.6619007312476
 20
-110.8152997279
 30
0.0
 11
-203.3380992687526
 21
-110.8152997279
 31
0.0
  0
LINE
  5
446
330
1F
100
AcDbEntity
  8
1
  6
Continuous
 62
     7
100
AcDbLine
 10
116.6619007312476
 20
-43.81529972790008
 30
0.0
 11
116.6619007312475
 21
-167.8152997279001
 31
0.0
  0
LINE
  5
447
330
1F
100
AcDbEntity
  8
1
  6
Continuous
 62
     2
100
AcDbLine
 10
340.6619007312476
 20
-91.81529972790008
 30
0.0
 11
-203.3380992687526
 21
-91.81529972790008
 31
0.0
  0
LINE
  5
448
330
1F
100
AcDbEntity
  8
1
  6
Continuous
 62
     7
100
AcDbLine
 10
35.21629820678299
 20
-79.13129559565607
 30
0.0
 11
36.21629820678299
 21
-78.13129559565607
 31
0.0
  0
LINE
  5
449
330
1F
100
AcDbEntity
  8
1
  6
Continuous
 62
     7
100
AcDbLine
 10
-38.78370179321701
 20
-78.13129559565607
 30
0.0
 11
-37.78370179321701
 21
-77.13129559565607
 31
0.0
  0
LINE
  5
44A
330
1F
100
AcDbEntity
  8
1
  6
Continuous
 62
     7
100
AcDbLine
 10
340.6619007312476
 20
-110.8152997279
 30
0.0
 11
340.6619007312476
 21
-129.8152997279
 31
0.0
  0
LINE
  5
44B
330
1F
100
AcDbEntity
  8
1
  6
Continuous
 62
     7
100
AcDbLine
 10
340.6619007312476
 20
-129.8152997279
 30
0.0
 11
340.6619007312476
 21
-148.8152997279001
 31
0.0
  0
LINE
  5
44C
330
1F
100
AcDbEntity
  8
1
  6
Continuous
 62
     7
100
AcDbLine
 10
340.6619007312476
 20
-148.8152997279001
 30
0.0
 11
340.6619007312476
 21
-167.8152997279001
 31
0.0
  0
LINE
  5
44D
330
1F
100
AcDbEntity
  8
1
  6
Continuous
 62
     7
100
AcDbLine
 10
340.6619007312476
 20
-43.8152997279002
 30
0.0
 11
308.6619007312476
 21
-43.8152997279002
 31
0.0
  0
LINE
  5
44E
330
1F
100
AcDbEntity
  8
1
  6
Continuous
 62
     7
100
AcDbLine
 10
-75.33809926875259
 20
-43.81529972790008
 30
0.0
 11
-203.3380992687526
 21
-43.81529972790008
 31
0.0
  0
LINE
  5
44F
330
1F
100
AcDbEntity
  8
1
  6
Continuous
 62
     7
100
AcDbLine
 10
-1.33809926875239
 20
-43.81529972790008
 30
0.0
 11
-75.33809926875259
 21
-43.81529972790008
 31
0.0
  0
LINE
  5
450
330
1F
100
AcDbEntity
  8
1
  6
Continuous
 62
     7
100
AcDbLine
 10
116.6619007312476
 20
-43.81529972790008
 30
0.0
 11
-1.33809926875239
 21
-43.81529972790008
 31
0.0
  0
LINE
  5
451
330
1F
100
AcDbEntity
  8
1
  6
Continuous
 62
     7
100
AcDbLine
 10
308.6619007312476
 20
-43.8152997279002
 30
0.0
 11
190.6619007312476
 21
-43.8152997279002
 31
0.0
  0
LINE
  5
452
330
1F
100
AcDbEntity
  8
1
  6
Continuous
 62
     7
100
AcDbLine
 10
190.6619007312476
 20
-43.8152997279002
 30
0.0
 11
190.6619007312476
 21
-167.8152997279001
 31
0.0
  0
LINE
  5
453
330
1F
100
AcDbEntity
  8
1
  6
Continuous
 62
     7
100
AcDbLine
 10
190.6619007312476
 20
-167.8152997279001
 30
0.0
 11
-203.3380992687526
 21
-167.8152997279001
 31
0.0
  0
LINE
  5
454
330
1F
100
AcDbEntity
  8
1
  6
Continuous
 62
     7
100
AcDbLine
 10
190.6619007312476
 20
-43.8152997279002
 30
0.0
 11
116.6619007312476
 21
-43.81529972790008
 31
0.0
  0
LINE
  5
455
330
1F
100
AcDbEntity
  8
1
  6
Continuous
 62
     7
100
AcDbLine
 10
-101.2180293501048
 20
166.05
 30
0.0
 11
-101.2180293501048
 21
148.0
 31
0.0
  0
LINE
  5
456
330
1F
100
AcDbEntity
  8
1
  6
Continuous
 62
     7
100
AcDbLine
 10
-101.2180293501048
 20
71.0
 30
0.0
 11
-101.2180293501048
 21
52.95
 31
0.0
  0
SPLINE
  5
457
330
1F
100
AcDbEntity
  8
1
  6
Continuous
 62
     2
100
AcDbSpline
210
0.0
220
0.0
230
1.0
 70
     8
 71
     3
 72
    11
 73
     7
 74
     5
 42
0.0000000001
 43
0.0000000001
 44
0.00000001
 40
0.0
 40
0.0
 40
0.0
 40
0.0
 40
5.905801187255361
 40
11.84952963482513
 40
17.43507584117472
 40
23.0477528104871
 40
23.0477528104871
 40
23.0477528104871
 40
23.0477528104871
 10
-141.2180293501048
 20
130.214297229384
 30
0.0
 10
-139.8003418340299
 20
128.7970912367166
 30
0.0
 10
-136.95586236342
 20
125.9535779052818
 30
0.0
 10
-135.2003326613631
 20
120.3901639043092
 30
0.0
 10
-132.694821229721
 20
114.8899553796721
 30
0.0
 10
-134.2469731809983
 20
111.2995513722774
 30
0.0
 10
-135.024929413264
 20
109.5
 30
0.0
 11
-141.2180293501048
 21
130.214297229384
 31
0.0
 11
-137.3751672077365
 21
125.7297796167372
 31
0.0
 11
-135.024929413264
 21
120.270449056322
 31
0.0
 11
-133.4921566165206
 21
114.8993286911813
 31
0.0
 11
-135.024929413264
 21
109.5
 31
0.0
  0
LEADER
  5
458
330
1F
100
AcDbEntity
  8
1
  6
Continuous
 62
     2
100
AcDbLeader
  3
Standard
 71
     0
 76
     5
 10
-190.011487443365
 20
106.2470863571532
 30
0.0
 10
-187.7180293501048
 20
109.5
 30
0.0
 10
-193.835620268498
 20
114.6670240502454
 30
0.0
 10
-193.835620268498
 20
203.0
 30
0.0
 10
-244.613507634932
 20
203.0
 30
0.0
  0
MTEXT
  5
459
330
1F
100
AcDbEntity
  8
1
 62
     3
100
AcDbMText
 10
-248.683270861573
 20
202.666085671303
 30
0.0
 40
7.0
 41
0.0
 71
     4
 72
     1
  1
Zentrierung\PM8 DIN 332
  7
CONVERTER_11
 73
     1
 44
1.32052821128451
  0
MTEXT
  5
45A
330
1F
100
AcDbEntity
  8
1
 62
     7
100
AcDbMText
 10
-41.71715209611955
 20
-6.28978521699395
 30
0.0
 40
7.0
 41
0.0
 71
     4
 72
     1
  1
Sonderausführung /S23\PSpecial construction /S23\PExecution speciale /S23
  7
CONVERTER_11
 73
     1
 44
1.32052821128451
  0
MTEXT
  5
45B
330
1F
100
AcDbEntity
  8
1
 62
     3
100
AcDbMText
 10
-38.33809926875239
 20
-120.3152997279
 30
0.0
 40
7.0
 41
0.0
 71
     5
 72
     1
  1
128
  7
CONVERTER_11
 73
     1
 44
1.32052821128451
  0
MTEXT
  5
45C
330
1F
100
AcDbEntity
  8
1
 62
     3
100
AcDbMText
 10
-38.33809926875239
 20
-139.3152997279
 30
0.0
 40
7.0
 41
0.0
 71
     5
 72
     1
  1
168
  7
CONVERTER_11
 73
     1
 44
1.32052821128451
  0
MTEXT
  5
45D
330
1F
100
AcDbEntity
  8
1
 62
     3
100
AcDbMText
 10
-38.33809926875239
 20
-158.3152997279
 30
0.0
 40
7.0
 41
0.0
 71
     5
 72
     1
  1
208
  7
CONVERTER_11
 73
     1
 44
1.32052821128451
  0
MTEXT
  5
45E
330
1F
100
AcDbEntity
  8
1
 62
     7
100
AcDbMText
 10
57.66190073124761
 20
-101.3152997279001
 30
0.0
 40
7.0
 41
0.0
 71
     5
 72
     1
  1
k1
  7
CONVERTER_11
 73
     1
 44
1.32052821128451
  0
MTEXT
  5
45F
330
1F
100
AcDbEntity
  8
1
 62
     3
100
AcDbMText
 10
324.6619007312477
 20
-120.3152997279
 30
0.0
 40
7.0
 41
0.0
 71
     5
 72
     1
  1
106
  7
CONVERTER_11
 73
     1
 44
1.32052821128451
  0
MTEXT
  5
460
330
1F
100
AcDbEntity
  8
1
 62
     3
100
AcDbMText
 10
324.6619007312477
 20
-139.3152997279
 30
0.0
 40
7.0
 41
0.0
 71
     5
 72
     1
  1
146
  7
CONVERTER_11
 73
     1
 44
1.32052821128451
  0
MTEXT
  5
461
330
1F
100
AcDbEntity
  8
1
 62
     3
100
AcDbMText
 10
324.6619007312477
 20
-158.3152997279
 30
0.0
 40
7.0
 41
0.0
 71
     5
 72
     1
  1
186
  7
CONVERTER_11
 73
     1
 44
1.32052821128451
  0
MTEXT
  5
462
330
1F
100
AcDbEntity
  8
1
 62
     7
100
AcDbMText
 10
324.6619007312477
 20
-100.3152997279001
 30
0.0
 40
7.0
 41
0.0
 71
     5
 72
     1
  1
q
  7
CONVERTER_11
 73
     1
 44
1.32052821128451
  0
MTEXT
  5
463
330
1F
100
AcDbEntity
  8
1
 62
     3
100
AcDbMText
 10
-196.5149803650365
 20
-158.3152997279
 30
0.0
 40
7.0
 41
0.0
 71
     4
 72
     1
  1
KSY 41012... Q (/S23)
  7
CONVERTER_11
 73
     1
 44
1.32052821128451
  0
MTEXT
  5
464
330
1F
100
AcDbEntity
  8
1
 62
     3
100
AcDbMText
 10
-196.5149803650365
 20
-139.3152997279
 30
0.0
 40
7.0
 41
0.0
 71
     4
 72
     1
  1
KSY 4108... Q (/S23)
  7
CONVERTER_11
 73
     1
 44
1.32052821128451
  0
MTEXT
  5
465
330
1F
100
AcDbEntity
  8
1
 62
     3
100
AcDbMText
 10
-196.5149803650365
 20
-120.3152997279
 30
0.0
 40
7.0
 41
0.0
 71
     4
 72
     1
  1
KSY 4104... Q (/S23)
  7
CONVERTER_11
 73
     1
 44
1.32052821128451
  0
MTEXT
  5
466
330
1F
100
AcDbEntity
  8
1
 62
     3
100
AcDbMText
 10
57.66190073124761
 20
-120.3152997279
 30
0.0
 40
7.0
 41
0.0
 71
     5
 72
     1
  1
175
  7
CONVERTER_11
 73
     1
 44
1.32052821128451
  0
MTEXT
  5
467
330
1F
100
AcDbEntity
  8
1
 62
     3
100
AcDbMText
 10
57.66190073124761
 20
-139.3152997279
 30
0.0
 40
7.0
 41
0.0
 71
     5
 72
     1
  1
215
  7
CONVERTER_11
 73
     1
 44
1.32052821128451
  0
MTEXT
  5
468
330
1F
100
AcDbEntity
  8
1
 62
     3
100
AcDbMText
 10
57.66190073124761
 20
-158.3152997279
 30
0.0
 40
7.0
 41
0.0
 71
     5
 72
     1
  1
255
  7
CONVERTER_11
 73
     1
 44
1.32052821128451
  0
MTEXT
  5
469
330
1F
100
AcDbEntity
  8
1
 62
     7
100
AcDbMText
 10
-38.33809926875239
 20
-101.3152997279001
 30
0.0
 40
7.0
 41
0.0
 71
     5
 72
     1
  1
k
  7
CONVERTER_11
 73
     1
 44
1.32052821128451
  0
MTEXT
  5
46A
330
1F
100
AcDbEntity
  8
1
 62
     7
100
AcDbMText
 10
-196.5149803650365
 20
-69.3152997279002
 30
0.0
 40
7.0
 41
0.0
 71
     4
 72
     1
  1
Motor - Typ
  7
CONVERTER_11
 73
     1
 44
1.32052821128451
  0
MTEXT
  5
46B
330
1F
100
AcDbEntity
  8
1
 62
     7
100
AcDbMText
 10
-2.52670070695992
 20
-69.10600109091934
 30
0.0
 40
7.0
 41
0.0
 71
     4
 72
     1
  1
mit Resolver und Bremse\Pwith resolver and Brake\Pavec resolveur et frein
  7
CONVERTER_11
 73
     1
 44
1.08043217286915
  0
MTEXT
  5
46C
330
1F
100
AcDbEntity
  8
1
 62
     7
100
AcDbMText
 10
115.6732992930399
 20
-69.10600109091934
 30
0.0
 40
7.0
 41
0.0
 71
     4
 72
     1
  1
mit Drehgeber\Pwith encoder\Pavec codeur
  7
CONVERTER_11
 73
     1
 44
1.08043217286915
  0
MTEXT
  5
46D
330
1F
100
AcDbEntity
  8
1
 62
     7
100
AcDbMText
 10
188.9532992930397
 20
-69.10600109091934
 30
0.0
 40
7.0
 41
0.0
 71
     4
 72
     1
  1
mit Drehgeber und Bremse\Pwith encoder and brake\Pavec codeur et frein
  7
CONVERTER_11
 73
     1
 44
1.08043217286915
  0
MTEXT
  5
46E
330
1F
100
AcDbEntity
  8
1
 62
     7
100
AcDbMText
 10
-72.84670070695981
 20
-69.10600109091934
 30
0.0
 40
7.0
 41
0.0
 71
     4
 72
     1
  1
mit Resolver\Pwith resolver\Pavec resolveur
  7
CONVERTER_11
 73
     1
 44
1.08043217286915
  0
MTEXT
  5
46F
330
1F
100
AcDbEntity
  8
1
 62
     3
100
AcDbMText
 10
323.2158333142889
 20
-30.78590156956943
 30
0.0
 40
7.0
 41
0.0
 71
     5
 72
     1
  1
K3003
  7
CONVERTER_11
 73
     1
 44
1.32052821128451
  0
MTEXT
  5
470
330
1F
100
AcDbEntity
  8
1
 62
     7
100
AcDbMText
 10
153.6619007312477
 20
-100.3152997279001
 30
0.0
 40
7.0
 41
0.0
 71
     5
 72
     1
  1
k2
  7
CONVERTER_11
 73
     1
 44
1.32052821128451
  0
MTEXT
  5
471
330
1F
100
AcDbEntity
  8
1
 62
     7
100
AcDbMText
 10
249.6619007312477
 20
-100.3152997279001
 30
0.0
 40
7.0
 41
0.0
 71
     5
 72
     1
  1
k3
  7
CONVERTER_11
 73
     1
 44
1.32052821128451
  0
MTEXT
  5
472
330
1F
100
AcDbEntity
  8
1
 62
     3
100
AcDbMText
 10
153.6619007312476
 20
-120.3152997279
 30
0.0
 40
7.0
 41
0.0
 71
     5
 72
     1
  1
max. 161
  7
CONVERTER_11
 73
     1
 44
1.32052821128451
  0
MTEXT
  5
473
330
1F
100
AcDbEntity
  8
1
 62
     3
100
AcDbMText
 10
153.6619007312476
 20
-139.3152997279
 30
0.0
 40
7.0
 41
0.0
 71
     5
 72
     1
  1
max. 201
  7
CONVERTER_11
 73
     1
 44
1.32052821128451
  0
MTEXT
  5
474
330
1F
100
AcDbEntity
  8
1
 62
     3
100
AcDbMText
 10
153.6619007312476
 20
-158.3152997279
 30
0.0
 40
7.0
 41
0.0
 71
     5
 72
     1
  1
max. 241
  7
CONVERTER_11
 73
     1
 44
1.32052821128451
  0
MTEXT
  5
475
330
1F
100
AcDbEntity
  8
1
 62
     3
100
AcDbMText
 10
249.6619007312477
 20
-120.3152997279
 30
0.0
 40
7.0
 41
0.0
 71
     5
 72
     1
  1
max. 210
  7
CONVERTER_11
 73
     1
 44
1.32052821128451
  0
MTEXT
  5
476
330
1F
100
AcDbEntity
  8
1
 62
     3
100
AcDbMText
 10
249.6619007312477
 20
-139.3152997279
 30
0.0
 40
7.0
 41
0.0
 71
     5
 72
     1
  1
max. 250
  7
CONVERTER_11
 73
     1
 44
1.32052821128451
  0
MTEXT
  5
477
330
1F
100
AcDbEntity
  8
1
 62
     3
100
AcDbMText
 10
249.6619007312477
 20
-158.3152997279
 30
0.0
 40
7.0
 41
0.0
 71
     5
 72
     1
  1
max. 290
  7
CONVERTER_11
 73
     1
 44
1.32052821128451
  0
DIMENSION
  5
482
330
1F
100
AcDbEntity
  8
1
100
AcDbDimension
  2
*D16
 10
-137.7180293501048
 20
223.298688882024
 30
0.0
 11
-61.7266884023814
 21
230.798688882024
 31
0.0
 70
    32
  1
q
 71
     5
 42
-1.0
 53
0.00013888888889
  3
ME10_DIM_14
100
AcDbAlignedDimension
 13
8.34825414989533
 23
164.762155334957
 33
0.0
 14
-137.7180293501048
 24
164.5
 34
0.0
100
AcDbRotatedDimension
  0
DIMENSION
  5
48F
330
1F
100
AcDbEntity
  8
1
100
AcDbDimension
  2
*D17
 10
-137.7180293501048
 20
202.93772983871
 30
0.0
 11
-131.006318800404
 21
210.43772983871
 31
0.0
 70
    32
  1
<>
 71
     5
 42
-1.0
 53
0.00013888888889
  3
ME10_DIM_15
100
AcDbAlignedDimension
 13
-123.7180293501048
 23
167.0
 33
0.0
 14
-137.7180293501048
 24
164.5
 34
0.0
100
AcDbRotatedDimension
  0
DIMENSION
  5
49A
330
1F
100
AcDbEntity
  8
1
100
AcDbDimension
  2
*D18
 10
44.28197064989518
 20
241.338591679989
 30
0.0
 11
-54.5787266622638
 21
248.838591679989
 31
0.0
 70
    32
  1
k
 71
     5
 42
-1.0
 53
0.00013888888889
  3
ME10_DIM_16
100
AcDbAlignedDimension
 13
-137.7180293501048
 23
167.0
 33
0.0
 14
44.28197064989519
 24
167.0
 34
0.0
100
AcDbRotatedDimension
  0
DIMENSION
  5
4A7
330
1F
100
AcDbEntity
  8
1
100
AcDbDimension
  2
*D19
 10
-141.2180293501048
 20
181.694726959309
 30
0.0
 11
-148.951271048102
 21
189.194726959309
 31
0.0
 70
    32
  1
<>
 71
     5
 42
-1.0
 53
0.00013888888889
  3
ME10_DIM_17
100
AcDbAlignedDimension
 13
-137.7180293501048
 23
164.5
 33
0.0
 14
-141.2180293501048
 24
164.5
 34
0.0
100
AcDbRotatedDimension
  0
DIMENSION
  5
4B2
330
1F
100
AcDbEntity
  8
1
100
AcDbDimension
  2
*D20
 10
-187.7180293501048
 20
223.060633136555
 30
0.0
 11
-162.419240501159
 21
230.560633136555
 31
0.0
 70
    32
  1
<>
 71
     5
 42
-1.0
 53
0.00013888888889
  3
ME10_DIM_18
100
AcDbAlignedDimension
 13
-137.7180293501048
 23
164.5
 33
0.0
 14
-187.7180293501048
 24
121.5
 34
0.0
100
AcDbRotatedDimension
  0
DIMENSION
  5
4BD
330
1F
100
AcDbEntity
  8
1
100
AcDbDimension
  2
*D21
 10
-225.129867241957
 20
164.5
 30
0.0
 11
-235.954867241957
 21
108.433194137463
 31
0.0
 70
    32
  1
<>
 71
     5
 42
-1.0
 53
90.0
  3
ME10_DIM_19
100
AcDbAlignedDimension
 13
-141.2180293501048
 23
54.5
 33
0.0
 14
-141.2180293501048
 24
164.5
 34
0.0
 50
90.0
100
AcDbRotatedDimension
  0
DIMENSION
  5
4C8
330
1F
100
AcDbEntity
  8
1
100
AcDbDimension
  2
*D22
 10
158.0
 20
241.338591679989
 30
0.0
 11
213.871742722019
 21
248.838591679989
 31
0.0
 70
    32
  1
<>
 71
     5
 42
-1.0
 53
0.00013888888889
  3
ME10_DIM_20
100
AcDbAlignedDimension
 13
273.0
 23
158.0660171779821
 33
0.0
 14
158.0
 24
158.0660171779821
 34
0.0
100
AcDbRotatedDimension
  0
DIMENSION
  5
4D3
330
1F
100
AcDbEntity
  8
1
100
AcDbDimension
  2
*D23
 10
303.30526261274
 20
52.0
 30
0.0
 11
295.80526261274
 21
125.8486687221686
 31
0.0
 70
    32
  1
<>
 71
     5
 42
-1.0
 53
90.0
  3
ME10_DIM_21
100
AcDbAlignedDimension
 13
229.5
 23
206.9998866158472
 33
0.0
 14
264.0660171779821
 24
52.0
 34
0.0
 50
90.0
100
AcDbRotatedDimension
  0
DIMENSION
  5
4DE
330
1F
100
AcDbEntity
  8
1
100
AcDbDimension
  2
*D24
 10
201.5
 20
223.060633136555
 30
0.0
 11
219.277736176246
 21
230.560633136555
 31
0.0
 70
    32
  1
<>
 71
     5
 42
-1.0
 53
0.00013888888889
  3
ME10_DIM_22
100
AcDbAlignedDimension
 13
229.5
 23
209.269893067818
 33
0.0
 14
201.5
 24
208.5485974988193
 34
0.0
100
AcDbRotatedDimension
  0
DIMENSION
  5
4E9
330
1F
100
AcDbEntity
  8
1
100
AcDbDimension
  2
*D25
 10
-203.146644358497
 20
97.5
 30
0.0
 11
-212.396644358497
 21
108.433194137463
 31
0.0
 70
    32
  1
<>
 71
     5
 42
-1.0
 53
90.0
  3
ME10_DIM_23
100
AcDbAlignedDimension
 13
-187.7180293501048
 23
121.5
 33
0.0
 14
-187.7180293501048
 24
97.5
 34
0.0
 50
90.0
100
AcDbRotatedDimension
  0
DIMENSION
  5
4F4
330
1F
100
AcDbEntity
  8
1
100
AcDbDimension
  2
*D26
 10
-137.7180293501048
 20
148.697395915515
 30
0.0
 11
-163.57264376926
 21
156.197395915515
 31
0.0
 70
    32
  1
<>
 71
     5
 42
-1.0
 53
0.00013888888889
  3
ME10_DIM_24
100
AcDbAlignedDimension
 13
-187.7180293501048
 23
121.5
 33
0.0
 14
-137.7180293501048
 24
122.0
 34
0.0
100
AcDbRotatedDimension
  0
INSERT
  5
4FC
330
1F
100
AcDbEntity
  8
1
100
AcDbBlockReference
  2
*D27
 10
0.0
 20
0.0
 30
0.0
  0
INSERT
  5
503
330
1F
100
AcDbEntity
  8
1
100
AcDbBlockReference
  2
*D28
 10
0.0
 20
0.0
 30
0.0
  0
INSERT
  5
50F
330
1F
100
AcDbEntity
  8
1
100
AcDbBlockReference
  2
*D29
 10
0.0
 20
0.0
 30
0.0
  0
DIMENSION
  5
51C
330
1F
100
AcDbEntity
  8
1
100
AcDbDimension
  2
*D30
 10
251.1937178916776
 20
23.32774217439269
 30
0.0
 11
252.512129228072
 21
32.1244928325651
 31
0.0
 70
    37
  1
<>
 71
     5
 42
-1.0
  3
ME10_DIM_25
100
AcDb3PointAngularDimension
 13
215.5
 23
38.0
 33
0.0
 14
256.865746699413
 24
68.13425330058698
 34
0.0
 15
215.5
 25
109.5
 35
0.0
  0
ENDSEC
  0
SECTION
  2
OBJECTS
  0
DICTIONARY
  5
C
330
0
100
AcDbDictionary
281
     1
  3
ACAD_GROUP
350
D
  3
ACAD_LAYOUT
350
1A
  3
ACAD_MLINESTYLE
350
17
  3
ACAD_PLOTSETTINGS
350
19
  3
ACAD_PLOTSTYLENAME
350
E
  0
DICTIONARY
  5
D
102
{ACAD_REACTORS
330
C
102
}
330
C
100
AcDbDictionary
281
     1
  0
DICTIONARY
  5
1A
102
{ACAD_REACTORS
330
C
102
}
330
C
100
AcDbDictionary
281
     1
  3
Layout1
350
1E
  3
Layout2
350
26
  3
Model
350
22
  0
DICTIONARY
  5
17
102
{ACAD_REACTORS
330
C
102
}
330
C
100
AcDbDictionary
281
     1
  3
Standard
350
18
  0
DICTIONARY
  5
19
102
{ACAD_REACTORS
330
C
102
}
330
C
100
AcDbDictionary
281
     1
  0
ACDBDICTIONARYWDFLT
  5
E
102
{ACAD_REACTORS
330
C
102
}
330
C
100
AcDbDictionary
281
     1
  3
Normal
350
F
100
AcDbDictionaryWithDefault
340
F
  0
LAYOUT
  5
1E
102
{ACAD_REACTORS
330
1A
102
}
330
1A
100
AcDbPlotSettings
  1

  2

  4

  6

 40
0.0
 41
0.0
 42
0.0
 43
0.0
 44
0.0
 45
0.0
 46
0.0
 47
0.0
 48
0.0
 49
0.0
140
0.0
141
0.0
142
1.0
143
1.0
 70
   688
 72
     0
 73
     0
 74
     5
  7

 75
    16
 76
     0
 77
     2
 78
   300
147
1.0
148
0.0
149
0.0
100
AcDbLayout
  1
Layout1
 70
     1
 71
     1
 10
0.0
 20
0.0
 11
0.0
 21
0.0
 12
0.0
 22
0.0
 32
0.0
 14
0.0
 24
0.0
 34
0.0
 15
0.0
 25
0.0
 35
0.0
146
0.0
 13
0.0
 23
0.0
 33
0.0
 16
1.0
 26
0.0
 36
0.0
 17
0.0
 27
1.0
 37
0.0
 76
     0
330
1B
  0
LAYOUT
  5
26
102
{ACAD_REACTORS
330
1A
102
}
330
1A
100
AcDbPlotSettings
  1

  2

  4

  6

 40
0.0
 41
0.0
 42
0.0
 43
0.0
 44
0.0
 45
0.0
 46
0.0
 47
0.0
 48
0.0
 49
0.0
140
0.0
141
0.0
142
1.0
143
1.0
 70
   688
 72
     0
 73
     0
 74
     5
  7

 75
    16
 76
     0
 77
     2
 78
   300
147
1.0
148
0.0
149
0.0
100
AcDbLayout
  1
Layout2
 70
     1
 71
     2
 10
0.0
 20
0.0
 11
0.0
 21
0.0
 12
0.0
 22
0.0
 32
0.0
 14
0.0
 24
0.0
 34
0.0
 15
0.0
 25
0.0
 35
0.0
146
0.0
 13
0.0
 23
0.0
 33
0.0
 16
1.0
 26
0.0
 36
0.0
 17
0.0
 27
1.0
 37
0.0
 76
     0
330
23
  0
LAYOUT
  5
22
102
{ACAD_REACTORS
330
1A
102
}
330
1A
100
AcDbPlotSettings
  1

  2

  4

  6

 40
0.0
 41
0.0
 42
0.0
 43
0.0
 44
0.0
 45
0.0
 46
0.0
 47
0.0
 48
0.0
 49
0.0
140
0.0
141
0.0
142
1.0
143
1.0
 70
  1712
 72
     0
 73
     0
 74
     0
  7

 75
     0
 76
     0
 77
     2
 78
   300
147
1.0
148
0.0
149
0.0
100
AcDbLayout
  1
Model
 70
     1
 71
     0
 10
0.0
 20
0.0
 11
0.0
 21
0.0
 12
0.0
 22
0.0
 32
0.0
 14
-397.760000000002
 24
-285.0
 34
0.0
 15
410.0
 25
284.0
 35
0.0
146
0.0
 13
0.0
 23
0.0
 33
0.0
 16
1.0
 26
0.0
 36
0.0
 17
0.0
 27
1.0
 37
0.0
 76
     0
330
1F
  0
MLINESTYLE
  5
18
102
{ACAD_REACTORS
330
17
102
}
330
17
100
AcDbMlineStyle
  2
Standard
 70
     0
  3

 62
   256
 51
90.0
 52
90.0
 71
     2
 49
0.5
 62
   256
  6
BYLAYER
 49
-0.5
 62
   256
  6
BYLAYER
  0
ACDBPLACEHOLDER
  5
F
102
{ACAD_REACTORS
330
E
102
}
330
E
  0
ENDSEC
  0
EOF
